#TITLE:Large Scale Aggressor;
#SUBTITLE:Motoz;
#ARTIST:BLAZAR;
#TITLETRANSLIT:;
#SUBTITLETRANSLIT:;
#ARTISTTRANSLIT:;
#CREDIT:;
#BANNER:../fallback-bn.png;
#BACKGROUND:../fallback-bg.png;
#LYRICSPATH:;
#CDTITLE:;
#MUSIC:03 Large Scale Aggressor.ogg;
#OFFSET:-0.045;
#SAMPLESTART:31.619;
#SAMPLELENGTH:12.000;
#SELECTABLE:YES;
#BPMS:0.000=190.000;
#STOPS:;
#BGCHANGES:;
// cache tags:
#FIRSTBEAT:4.000;
#LASTBEAT:334.500;
#SONGFILENAME:Songs/SSSC PACK/[Mootz] - Large Scale Aggressor/03 Large Scale Aggressor.sm;
#HASMUSIC:1;
#HASBANNER:1;
#MUSICLENGTH:105.888;
// end cache tags

//---------------dance-single - Mootz----------------
#NOTES:
     dance-single:
     Mootz:
     Challenge:
     14:
     1.000,1.000,0.000,0.765,1.000,1061.000,0.000,81.000,33.000,0.000:



0000
0000
0000
0000
,
0001
0100
0001
0100
0010
0100
0010
0100
0010
1000
0010
1000
0001
1000
0001
1000
,
0001
0010
0001
0010
0100
0010
0100
0010
0001
0010
0001
0010
0001
1000
0001
1000
,
0010
0100
0010
0100
0010
1000
0010
1000
0001
0010
0001
0010
0100
1000
0100
1000
,
0001
1000
0001
1000
0010
0100
0010
0100
0001
0010
0001
0010
0100
1000
0100
1000
,
0001
0100
0001
0100
0010
0100
0010
0100
0010
1000
0010
1000
0001
1000
0001
1000
,
0001
0010
0001
0010
0100
0010
0100
0010
0001
0010
0001
0010
0001
1000
0001
1000
,
0010
0100
0010
0100
0010
1000
0010
1000
0001
0010
0001
0010
0100
1000
0100
1000
,
0001
0100
0001
1000
0010
0100
0010
1000
0001
0010
0100
0010
0001
1000
0001
1000
,
0002
M000
0000
0023
0000
0130
1000
0001
,
0200
0000
0000
0000
000M
0000
0000
0000
0000
0000
0000
0000
0320
0000
0000
0000
0000
0000
0000
0000
1030
0000
0000
0000
0001
0000
0000
0000
0010
0000
0000
0100
,
0020
0000
0032
0000
0103
0010
0100
0001
,
1000
0100
0010
0001
0010
0001
0010
0100
1000
0100
0010
0001
0010
0001
0010
0100
,
2000
3020
0230
0302
,
0013
0100
0010
0100
1000
0100
1000
0100
1000
0001
1000
0001
0100
0010
0100
0010
,
1000
0010
0100
0001
0100
0001
0100
0010
1000
0010
0100
0001
0100
0001
0100
0010
,
1000
0001
1000
0001
0010
0001
0010
0001
0010
0100
0010
0100
1000
0100
1000
0100
,
0020
0M00
0000
0032
0000
1003
0100
0010
,
0020
0000
0000
0000
0M00
0000
0000
0000
0000
0000
0000
0000
0032
0000
0000
0000
0000
0000
0000
0000
1003
0000
0000
0000
0100
0000
0000
0000
0010
0000
0000
0001
,
2000
0000
3020
0000
0130
0001
0100
0010
,
1000
0001
0010
0001
1000
0100
1000
0100
1000
0001
0010
0001
1000
0100
1000
0100
,
0020
0032
0203
0320
,
1030
0001
1000
0001
0100
0001
0100
0001
0100
0010
0100
0010
0100
0001
0100
0001
,
1000
0100
0010
0001
0010
0001
0010
0100
1000
0100
0010
0001
0010
0001
0010
0100
,
1000
0001
1000
0001
0100
0001
0100
0001
0100
0010
0100
0010
1000
0010
1000
0010
,
1M00
0001
1000
0001
1000
0001
1000
0001
1000
0001
1000
0001
1M00
0001
10M0
0001
,
1M00
0001
1000
0001
1000
0001
10M0
0001
1000
0001
1000
0001
1M00
0001
1000
0001
,
2000
000M
0000
3200
0000
0310
0001
1000
,
0020
0000
0000
0000
M000
0000
0000
0000
0000
0000
0000
0000
0230
0000
0000
0000
0000
0000
0000
0000
0301
0000
0000
0000
1000
0000
0000
0000
0100
0000
0000
0010
,
0200
0000
2300
0000
3010
0100
0010
1000
,
0001
0010
0100
1000
0100
1000
0100
0010
0001
0010
0100
1000
0100
1000
0100
0010
,
0002
0203
0320
2030
,
3100
0010
0100
0010
0001
0010
0001
0010
0001
1000
0001
1000
0010
0100
0010
0100
,
0001
0100
0010
1000
0010
1000
0010
0100
0001
0100
0010
1000
0010
1000
0010
0100
,
0001
1000
0001
1000
0100
1000
0100
1000
0100
0010
0100
0010
0001
0010
0001
0010
,
0200
00M0
0000
2300
0000
3001
0010
0100
,
0200
0000
0000
0000
00M0
0000
0000
0000
0000
0000
0000
0000
2300
0000
0000
0000
0000
0000
0000
0000
3001
0000
0000
0000
0010
0000
0000
0000
0100
0000
0000
1000
,
0002
0000
0203
0000
0310
1000
0010
0100
,
0001
1000
0100
1000
0001
0010
0001
0010
0001
1000
0100
1000
0001
0010
0001
0010
,
0200
2300
3020
0230
,
0301
1000
0001
1000
0010
1000
0010
1000
0010
0100
0010
0100
0010
1000
0010
1000
,
0001
0010
0100
1000
0100
1000
0100
0010
0001
0010
0100
1000
0100
1000
0100
0010
,
0001
1000
0001
1000
0010
1000
0010
1000
0010
0100
0010
0100
0001
0100
0001
0100
,
0020
1000
2030
0100
3200
0010
0320
0100
,
0230
1000
2300
0010
3020
0100
0230
0010
,
0320
1000
2030
0001
3002
0010
0023
0100
,
M230
1000
23M0
00M1
30M2
0100
M203
M010
,
M320
1000
2030
0100
3200
0010
0320
0100
,
0230
1000
2300
0010
3020
0100
0230
0010
,
0320
1000
2030
0001
3002
0010
0023
0100
,
M230
1000
23M0
00M1
30M2
0100
M203
M001
,
M302
1000
2003
0100
3200
0010
0320
0001
,
0031
0010
0001
0010
0100
1000
0100
1000
0001
0100
0001
0100
0010
1000
0010
1000
,
0001
0010
0100
1000
0100
1000
0100
0010
0001
0010
0100
1000
0100
1000
0100
0010
,
0001
1000
0001
1000
0001
0100
0001
0100
0010
0100
0010
0100
0010
1000
0010
1000
,
0002
1000
2003
0100
3200
0010
0320
0001
,
0031
0100
0001
0100
0010
0100
0010
0100
0010
1000
0010
1000
0001
1000
0001
1000
,
0001
0100
0010
1000
0010
1000
0010
0100
0001
0100
0010
1000
0010
1000
0010
0100
,
0001
1000
0001
1000
0001
0010
0001
0010
0100
0010
0100
0010
0100
1000
0100
1000
,
0001
0100
0010
1000
0010
0100
0001
1000
0001
0010
0100
1000
0100
0010
0001
1000
,
0001
0100
0001
1000
0010
1000
0001
0100
0001
0010
0001
1000
0100
1000
0001
0010
,
0001
0010
0100
1000
0100
0010
0001
1000
0001
0100
0010
1000
0010
0100
0001
1000
,
0001
0100
0001
1000
0010
1000
0001
0010
0001
1000
0100
1000
0001
0100
0001
1000
,
0001
0100
0010
1000
0010
0100
0001
1000
0001
0010
0100
1000
0100
0010
0001
1000
,
0001
0100
0001
1000
0010
1000
0001
0100
0001
0010
0001
1000
0100
1000
0001
0010
,
0001
0010
0100
1000
0100
0010
0001
1000
0001
0100
0010
1000
0010
0100
0001
1000
,
0001
0100
0001
1000
0010
1000
0001
0010
0001
1000
0100
1000
0001
0100
0001
1000
,
0001
0010
0001
0010
0100
1000
0100
1000
0001
0100
0001
0100
0010
1000
0010
1000
,
0001
0100
0001
0100
0010
1000
0010
1000
0001
0010
0001
0010
0100
1000
0100
1000
,
0001
1000
0001
1000
0010
0100
0010
0100
0001
1000
0001
1000
0001
0010
0001
0010
,
0100
1000
0100
1000
0001
0100
0001
0100
0010
1000
0010
1000
0001
0100
0001
0100
,
0001
0010
0001
0010
0100
1000
0100
1000
0001
0100
0001
0100
0010
1000
0010
1000
,
0001
0100
0001
0100
0010
1000
0010
1000
0001
0010
0001
0010
0100
1000
0100
1000
,
0001
1000
0001
1000
0010
0100
0010
0100
0001
1000
0001
1000
0001
0010
0001
0010
,
0100
1000
0100
1000
0001
0100
0001
0100
0010
1000
0010
1000
0001
0100
0001
0100
,
0001
0100
0010
1000
0010
0100
0001
1000
0001
0010
0100
1000
0100
0010
0001
1000
,
0001
0100
0001
1000
0010
1000
0001
0100
0001
0010
0001
1000
0100
1000
0001
0010
,
0001
0010
0100
1000
0100
0010
0001
1000
0001
0100
0010
1000
0010
0100
0001
1000
,
0001
0100
0001
0100
0010
1000
0010
1000
0001
0010
0001
0010
0100
1000
0100
1000
,
0001
0100
0010
1000
0010
0100
0001
1000
0001
0010
0100
1000
0100
0010
0001
1000
,
0001
0100
0001
1000
0010
1000
0001
0100
0001
0010
0001
1000
0100
1000
0001
0010
,
0001
0010
0100
1000
0100
0010
0001
1000
0001
0100
0010
1000
0010
0100
0001
1000
,
0001
0100
0001
1000
0010
1000
0001
0010
0001
1000
0100
1000
0001
0100
0001
1000
,
0002
M000
M000
M000
M000
M003
0000
0000
;
