#TITLE:Cold leaf;
#SUBTITLE:;
#ARTIST:Aerial Flow feat. Hatsune Miku;
#TITLETRANSLIT:;
#SUBTITLETRANSLIT:;
#ARTISTTRANSLIT:;
#CREDIT:@@;
#BANNER:Cold Leaf- Ban.png;
#BACKGROUND:Cold Leaf- BG.png;
#LYRICSPATH:;
#CDTITLE:~CDTitle-@@.png;
#MUSIC:Aerial Flow - Cold Leaf.ogg;
#OFFSET:-0.017;
#SAMPLESTART:99.575;
#SAMPLELENGTH:28.444;
#SELECTABLE:YES;
#BPMS:0.000=135.000;
#STOPS:;
#BGCHANGES:;
// cache tags:
#FIRSTBEAT:0.000;
#LASTBEAT:1379.000;
#SONGFILENAME:Songs/Index Tournament 1/Cold Leaf -[@@]/Cold Leaf.sm;
#HASMUSIC:1;
#HASBANNER:1;
#MUSICLENGTH:616.933;
// end cache tags

//---------------dance-single - @@----------------
#NOTES:
     dance-single:
     @@:
     Challenge:
     13:
     1.000,1.000,0.000,0.130,1.000,4678.000,0.000,80.000,126.000,0.000:
1000
0010
0100
0001
1000
0100
1000
0100
0010
0001
1000
0010
0100
0001
0100
0010
,
1000
0100
0010
0001
1000
0010
1000
0010
0100
0001
1000
0100
0010
0001
0010
0100
,
1000
0010
0100
0001
1000
0100
1000
0100
0010
0001
1000
0010
0100
0001
0100
0010
,
1000
0100
0010
0001
1000
0010
1000
0010
0100
0001
1000
0100
0010
0001
0010
0100
,
1000
0010
1000
0001
0010
0100
0010
0100
1000
0001
0100
0001
1000
0010
0100
0010
,
1000
0100
1000
0001
0100
0010
0100
0010
1000
0001
0010
0001
1000
0100
0010
0100
,
1000
0010
1000
0001
0010
0100
0010
0100
1000
0001
0100
0001
1000
0010
0100
0010
,
1000
0100
1000
0001
0100
0010
0100
0010
1000
0100
1000
0010
0100
0001
0100
0001
,
1000
0100
0010
0001
1000
0010
1000
0100
0010
0100
1000
0001
0100
0001
1000
0100
,
1000
0010
0100
0001
1000
0100
1000
0010
0100
0010
1000
0001
0010
0001
1000
0010
,
1000
0100
0010
0001
1000
0010
1000
0100
0010
0100
1000
0001
0100
0001
1000
0100
,
1000
0010
0100
0001
1000
0100
1000
0010
0100
0010
1000
0001
0010
0001
1000
0010
,
1000
0100
0010
0100
1000
0001
0100
0001
0010
0100
1000
0001
0100
0001
1000
0100
,
1000
0010
0100
0010
1000
0001
0010
0001
0100
0010
1000
0001
0010
0001
1000
0010
,
1000
0100
0010
0100
1000
0001
0100
0001
0010
0100
1000
0001
0100
0001
1000
0100
,
1000
0010
0100
0010
1000
0001
0010
0001
0100
0010
1000
0001
0010
0001
1000
0010
,
2000
3000
0100
0000
0010
0000
0002
0003
0100
0000
0001
0000
2000
3000
0100
0000
0010
0000
0001
0000
0010
0000
0100
0000
1000
0000
0001
0000
0100
0000
0010
0000
,
1000
0100
0010
0001
0010
0100
1000
0001
0100
0010
1000
0100
0010
0001
0010
0100
,
1000
0010
0100
0001
1000
0100
1000
0010
0100
0010
1000
0001
0010
0001
1000
0010
,
1000
0100
0010
0001
1000
0010
1000
0100
0010
0100
1000
0001
0100
0001
1000
0100
,
2000
3000
0010
0000
0100
0000
0002
0003
0010
0000
0001
0000
2000
3000
0010
0000
0100
0000
0001
0000
0100
0000
0010
0000
1000
0000
0001
0000
0010
0000
0100
0000
,
1000
0010
0100
0001
0100
0010
1000
0001
0010
0100
1000
0010
0100
0001
0100
0010
,
1000
0100
0010
0100
1000
0001
0100
0001
0010
0100
1000
0001
0100
0001
1000
0100
,
1000
0010
0100
0010
1000
0001
0010
0001
1000
0010
0100
0010
1000
0001
0010
0001
,
0200
0300
0010
0000
1000
0000
0200
0300
0010
0000
0001
0000
0200
0300
0001
0000
1000
0000
0010
0000
1000
0000
0100
0000
0010
0000
0001
0000
0100
0000
0001
0000
,
1000
0100
1000
0001
0100
0010
1000
0001
1000
0100
0010
0001
0100
0010
1000
0001
,
1000
0100
1000
0001
0100
0010
1000
0001
1000
0100
0010
0001
0100
0010
1000
0001
,
1000
0100
1000
0001
0100
0010
1000
0001
1000
0100
0010
0001
0100
0010
1000
0001
,
0020
0030
0100
0000
1000
0000
0020
0030
0100
0000
0001
0000
0020
0030
0001
0000
1000
0000
0100
0000
1000
0000
0010
0000
0100
0000
0001
0000
0010
0000
0001
0000
,
1000
0010
1000
0001
0010
0100
1000
0001
1000
0010
0100
0001
0010
0100
1000
0001
,
1000
0010
1000
0001
0010
0100
1000
0001
1000
0010
0100
0001
0010
0100
1000
0001
,
0100
0010
0100
0001
1000
0100
1000
0001
0100
0010
0100
0001
1000
0100
1000
0001
,
0100
0010
1000
0001
1000
0100
0010
0001
0100
0010
1000
0001
1000
0100
0010
0001
,
1000
0010
0100
0001
1000
0100
1000
0001
1000
0010
0100
0001
1000
0001
0010
0001
,
1000
0100
0010
0001
1000
0010
1000
0001
1000
0100
0010
0001
1000
0001
0100
0001
,
1000
0010
0100
0001
1000
0100
1000
0001
1000
0010
0100
0001
1000
0001
0010
0001
,
0100
0010
1000
0001
1000
0100
0010
0001
0100
0010
1000
0001
1000
0100
0010
0001
,
1000
0010
0100
0001
1000
0100
1000
0001
1000
0010
0100
0001
1000
0001
0010
0001
,
1000
0100
0010
0001
1000
0010
1000
0001
1000
0100
0010
0001
1000
0001
0100
0001
,
0010
0100
0010
0001
1000
0010
1000
0001
0010
0100
0010
0001
1000
0010
1000
0001
,
0010
0100
1000
0001
1000
0010
0100
0001
0010
0100
1000
0001
1000
0010
0100
0001
,
1000
0100
0010
0001
1000
0010
1000
0001
1000
0100
0010
0001
1000
0001
0100
0001
,
1000
0010
0100
0001
1000
0100
1000
0001
1000
0010
0100
0001
1000
0001
0010
0001
,
1000
0100
0010
0001
1000
0010
1000
0001
1000
0100
0010
0001
1000
0001
0100
0001
,
0010
0100
1000
0001
1000
0010
0100
0001
0010
0100
1000
0001
1000
0010
0100
0001
,
1000
0100
0010
0001
1000
0010
1000
0001
1000
0100
0010
0001
1000
0001
0100
0001
,
1000
0010
0100
0001
1000
0100
1000
0001
1000
0010
0100
0001
1000
0001
0010
0001
,
0100
0010
0100
0001
1000
0100
1000
0001
0100
0010
0100
0001
1000
0100
1000
0001
,
0020
0030
0000
0200
0300
0000
0020
0030
0000
0000
0000
0000
0000
0000
0000
0000
,
0000
0000
0001
0000
1000
0010
1000
0001
1000
0100
0010
0001
1000
0001
0100
0001
,
0010
0000
0100
0000
1000
0010
1000
0001
1000
0100
0010
0001
1000
0001
0100
0001
,
0010
0000
0100
0000
1000
0010
1000
0001
1000
0100
0010
0001
1000
0001
0100
0001
,
0020
0030
0000
0200
0300
0000
1000
0001
0200
0300
0000
0020
0030
0000
0100
0001
,
1000
0000
0000
0001
0000
0000
0001
0000
0000
0010
0000
0010
0000
0000
0001
0000
,
0000
0100
0000
0100
0000
0000
0001
0000
0000
0100
0000
0100
0000
0000
0001
0000
,
0000
1000
0000
1000
0000
0000
0001
0000
0000
1000
0000
1000
0000
0000
0001
0000
,
1000
0100
0010
0100
1000
0100
0010
0001
1000
0010
1000
0001
0100
0010
1000
0100
,
1000
0010
0100
0010
1000
0010
0100
0010
1000
0001
0010
0001
1000
0100
1000
0010
,
0100
0001
0100
0010
1000
0001
0010
0100
1000
0001
0010
0100
0010
0001
0010
0100
,
1000
0001
0010
0100
0010
0001
0010
0100
1000
0001
0010
0100
1000
0010
0100
0001
,
1000
0010
0100
0010
1000
0010
0100
0001
1000
0100
1000
0001
0010
0100
1000
0010
,
1000
0100
0010
0100
1000
0100
0010
0100
1000
0001
0100
0001
1000
0010
1000
0100
,
0010
0001
0010
0100
1000
0001
0100
0010
1000
0001
0100
0010
1000
0100
1000
0010
,
0100
0001
1000
0010
0100
0001
1000
0010
1000
0100
0010
0001
0100
0001
1000
0100
,
1000
0001
1000
0100
1000
0001
1000
0100
0010
0001
1000
0010
0100
0001
0010
0100
,
0010
0001
0010
0100
0010
0001
0010
0100
1000
0010
1000
0100
0010
0001
0100
0010
,
1000
0100
1000
0001
0100
0001
1000
0100
0010
0001
0010
0100
1000
0010
0100
0001
,
0100
0010
1000
0010
0100
0001
1000
0010
1000
0100
0010
0001
0100
0010
1000
0100
,
0010
0001
0010
0100
0010
0001
0010
0100
1000
0001
0100
0001
0010
0100
1000
0001
,
0100
0001
1000
0001
0100
0001
1000
0001
0100
0010
1000
0100
0010
0001
1000
0100
,
0010
0100
1000
0100
0010
0001
1000
0100
0010
0100
1000
0100
0010
0001
1000
0100
,
0010
0100
1000
0100
0010
0001
1000
0100
0010
0100
1000
0001
1000
0010
0100
0001
,
0020
0030
0001
0000
1000
0000
0020
0030
1000
0000
0001
0000
0020
0030
0001
0000
1000
0000
0010
0000
0100
0000
0001
0000
0010
0000
0100
0000
1000
0000
0001
0000
,
1000
0010
0100
0001
0010
0100
1000
0001
1000
0010
0100
0001
0010
0100
1000
0001
,
0100
0010
1000
0001
1000
0010
1000
0001
0010
0100
0010
0001
0010
0100
0010
0001
,
1000
0010
0100
0010
1000
0010
0100
0010
1000
0001
0010
0001
1000
0001
0010
0100
,
2000
3000
0001
0000
1000
0000
0020
0030
0100
0000
0010
0000
2000
3000
0001
0000
1000
0000
0100
0000
0010
0000
0001
0000
0100
0000
0010
0000
1000
0000
0001
0000
,
1000
0100
0010
0001
0100
0010
1000
0001
1000
0100
0010
0001
0100
0010
1000
0001
,
1000
0100
0010
0100
1000
0001
1000
0010
1000
0001
0010
0001
1000
0001
0100
0010
,
1000
0100
0010
0100
1000
0001
1000
0010
1000
0001
0010
0001
1000
0001
0100
0010
,
0200
0300
0001
0000
1000
0000
0200
0300
1000
0000
0001
0000
0200
0300
0001
0000
1000
0000
0100
0000
0010
0000
0001
0000
0100
0000
0010
0000
1000
0000
0001
0000
,
1000
0100
0010
0001
0100
0010
1000
0001
1000
0100
0010
0001
0100
0010
1000
0001
,
0010
0100
1000
0001
1000
0100
1000
0001
0100
0010
0100
0001
0100
0010
0100
0001
,
1000
0100
0010
0100
1000
0100
0010
0100
1000
0001
0100
0001
1000
0001
0100
0010
,
2000
3000
0001
0000
1000
0000
0200
0300
0010
0000
0100
0000
2000
3000
0001
0000
1000
0000
0010
0000
0100
0000
0001
0000
0010
0000
0100
0000
1000
0000
0001
0000
,
1000
0010
0100
0001
0010
0100
1000
0001
1000
0010
0100
0001
0010
0100
1000
0001
,
1000
0010
0100
0010
1000
0001
1000
0100
1000
0001
0100
0001
1000
0001
0010
0100
,
1000
0010
0100
0010
1000
0001
1000
0100
1000
0001
0100
0001
1000
0001
0010
0100
,
1000
0010
0100
0010
1000
0010
0100
0001
1000
0100
1000
0001
0010
0100
1000
0010
,
1000
0100
0010
0100
1000
0100
0010
0100
1000
0001
0100
0001
1000
0010
1000
0100
,
0010
0001
0010
0100
1000
0001
0100
0010
1000
0001
0100
0010
0100
0001
0100
0010
,
1000
0001
0100
0010
0100
0001
0100
0010
1000
0001
0100
0010
1000
0100
0010
0001
,
1000
0100
0010
0100
1000
0100
0010
0001
1000
0010
1000
0001
0100
0010
1000
0100
,
1000
0010
0100
0010
1000
0010
0100
0010
1000
0001
0010
0001
1000
0100
1000
0010
,
0100
0001
0100
0010
1000
0001
0010
0100
1000
0001
0010
0100
1000
0010
1000
0100
,
0010
0001
1000
0100
0010
0001
1000
0100
1000
0010
0100
0001
0010
0001
1000
0010
,
1000
0001
1000
0010
1000
0001
1000
0010
0100
0001
1000
0100
0010
0001
0100
0010
,
0100
0001
0100
0010
0100
0001
0100
0010
1000
0100
1000
0010
0100
0001
0010
0100
,
1000
0010
1000
0001
0010
0001
1000
0010
0100
0001
0100
0010
1000
0100
0010
0001
,
0010
0100
1000
0100
0010
0001
1000
0100
1000
0010
0100
0001
0010
0100
1000
0010
,
0100
0001
0100
0010
0100
0001
0100
0010
1000
0001
0010
0001
0100
0010
1000
0001
,
0010
0001
1000
0001
0010
0001
1000
0100
0010
0001
0100
0010
1000
0100
1000
0010
,
0100
0010
1000
0010
0100
0001
1000
0010
0100
0010
1000
0010
0100
0001
1000
0010
,
0100
0010
1000
0010
0100
0001
1000
0010
0100
0010
1000
0001
1000
0100
0010
0001
,
1000
0100
0010
0100
0000
0000
1000
0000
0000
0001
0100
0001
0000
0000
1000
0000
,
0000
0001
0010
0001
0000
0000
1000
0000
0000
0001
0100
0001
0000
0000
1000
0000
,
0000
0001
0010
0001
1000
0010
1000
0001
1000
0100
0010
0001
1000
0001
0100
0001
,
1000
0100
1000
0100
0010
0001
1000
0001
0100
0001
0010
0100
1000
0001
1000
0010
,
1000
0100
0010
0100
0000
0000
1000
0000
0000
0001
0100
0001
0000
0000
1000
0000
,
0000
0001
0010
0001
0000
0000
1000
0000
0000
0001
0100
0001
0000
0000
1000
0000
,
0000
0001
0010
0001
1000
0010
1000
0001
1000
0100
0010
0001
1000
0001
0100
0001
,
1000
0100
1000
0001
0100
0001
1000
0100
1000
0001
0100
0010
1000
0001
1000
0100
,
1000
0010
0100
0010
0000
0000
1000
0000
0000
0001
0010
0001
0000
0000
1000
0000
,
0000
0001
0100
0001
0000
0000
1000
0000
0000
0001
0010
0001
0000
0000
1000
0000
,
0000
0001
0100
0001
1000
0100
1000
0001
1000
0010
0100
0001
1000
0001
0010
0001
,
1000
0010
1000
0010
0100
0001
1000
0001
0010
0001
0100
0010
1000
0001
1000
0100
,
1000
0010
0100
0010
0000
0000
1000
0000
0000
0001
0010
0001
0000
0000
1000
0000
,
0000
0001
0100
0001
0000
0000
1000
0000
0000
0001
0010
0001
0000
0000
1000
0000
,
0000
0001
0100
0001
1000
0100
1000
0001
1000
0010
0100
0001
1000
0001
0010
0001
,
1000
0010
1000
0001
0010
0001
1000
0010
1000
0001
0010
0100
1000
0001
1000
0010
,
0000
0000
0000
0000
,
0000
0000
0000
0000
,
0000
000M
0000
0000
0000
0000
0000
0000
,
0000
0000
M000
M000
M000
M000
M000
M000
,
M000
0M00
0000
0000
0000
0000
0000
0000
,
0000
00M0
00M0
0M00
00M0
00M0
00M0
00M0
,
00M0
00M0
00M0
000M
000M
000M
000M
000M
,
000M
0M00
00M0
000M
0M00
M000
00M0
0M00
,
000M
0000
0000
M000
M000
M000
M000
M000
,
M000
M000
M000
M000
M000
M000
M000
0M00
,
0M00
0M00
0M00
0M00
0M00
000M
000M
000M
,
0000
0M00
00M0
M000
0M00
0M00
0M00
0M00
,
0M00
00M0
00M0
00M0
00M0
00M0
00M0
00M0
,
00M0
0M00
0M00
0M00
00M0
00M0
00M0
00M0
,
00M0
000M
000M
000M
000M
000M
000M
000M
,
M000
0000
0000
0000
0000
0000
0000
0000
0000
0000
0000
0000
0000
0000
0000
0000
0000
0000
0000
0000
0000
0000
0000
0000
M000
0000
0000
0000
0000
0000
0000
0000
0000
0000
0000
0000
0000
0000
0000
0000
0000
0000
0000
0000
0000
0000
0000
0000
M000
0000
0000
0000
0000
0000
0000
0000
0000
0000
0000
0000
M000
0000
0000
0000
0000
0000
0000
0000
0000
0000
0000
0000
M000
0000
0000
0000
0000
0000
0000
0000
0000
0000
0000
0000
M000
0000
0000
0000
0000
0000
0000
0000
0000
0000
0000
0000
M000
0000
0000
0000
0000
0000
0000
0000
M000
0000
0000
0000
0000
0000
0000
0000
M000
0000
0000
0000
0000
0000
0000
0000
M000
0000
0000
0000
0000
0000
0000
0000
M000
0000
0000
0000
0000
0000
0000
0000
M000
0000
0000
0000
0000
0000
0000
0000
M000
0000
0000
0000
0000
0000
M000
0000
0000
0000
0000
0000
M000
0000
0000
0000
0000
0000
M000
0000
0000
0000
0000
0000
M000
0000
0000
0000
0000
0000
M000
0000
0000
0000
0000
0000
M000
0000
0000
0000
0000
0000
M000
0000
0000
0000
0000
0000
,
0001
0000
0100
0001
0000
1000
0100
0000
0010
0000
0001
1000
0000
0010
0100
0000
,
0001
0000
0010
0001
0000
0010
0001
0000
1000
0000
0001
0010
0000
0001
0010
0000
,
0001
0000
0100
0001
0000
1000
0100
0000
0010
0000
0001
1000
0000
0010
0100
0000
,
0001
0000
0010
0100
0000
0010
0100
0000
1000
0000
0010
0100
0000
0010
0100
0000
,
0001
0000
0010
0001
0000
1000
0010
0000
0100
0000
0001
1000
0000
0100
0010
0000
,
0001
0000
0100
0001
0000
0100
0001
0000
1000
0000
0001
0100
0000
0001
0100
0000
,
0001
0000
0010
0001
0000
1000
0010
0000
0100
0000
0001
1000
0000
0100
0010
0000
,
0001
0000
0100
0010
1000
0100
0010
0001
1000
0000
0010
0100
0001
0010
0100
1000
,
0001
0100
0010
1000
0000
0001
0010
0001
0000
1000
0010
1000
0000
0001
0010
0001
,
0000
1000
0010
1000
0000
0001
0010
0001
0000
1000
0010
1000
0000
0001
0010
0001
,
1000
0010
0100
0001
0000
1000
0100
1000
0000
0001
0100
0001
0000
1000
0100
1000
,
0000
0001
0100
0001
0000
1000
0100
1000
0000
0001
0100
0001
0000
1000
0100
1000
,
0001
0100
0010
1000
0000
0100
0010
0100
0000
1000
0001
1000
0000
0010
0100
0010
,
0000
1000
0001
1000
0000
0100
0010
0100
0000
1000
0001
1000
0000
0010
0100
0010
,
1000
0100
0010
0001
0000
0100
0010
0100
0000
0001
1000
0001
0000
0010
0100
0010
,
0000
0001
1000
0001
0000
0100
0010
0100
0000
0001
1000
0001
0000
0010
0100
0010
,
0001
0100
0010
1000
0001
0010
0100
1000
0010
0000
1000
0000
0010
0000
0000
0000
,
1000
0000
0100
1000
0000
0100
1000
0000
0001
0000
1000
0100
0000
1000
0100
0000
,
1000
0010
0100
0001
1000
0100
0010
0001
0100
0000
0001
0000
0100
0000
0000
0000
,
0010
0000
1000
0100
0000
1000
0100
0000
0010
0000
0001
0100
0000
0001
0100
0010
,
1000
0100
0010
0001
1000
0010
0100
0001
0010
0000
0001
0000
0010
0000
0000
0000
,
0001
0000
0100
0001
0000
0100
0001
0000
1000
0000
0001
0100
0000
0001
0100
0000
,
0001
0010
0100
1000
0001
0100
0010
1000
0100
0000
1000
0000
0100
0000
0000
0000
,
0010
0000
0001
0100
0000
0001
0100
0000
0010
0000
1000
0100
0000
1000
0100
0010
,
0001
0100
0010
1000
0001
0010
0100
1000
0010
0000
1000
0000
0100
0010
0001
1000
,
0010
0000
0100
0001
0000
0100
0001
0000
1000
0000
0001
0100
0000
0001
0100
0000
,
0001
0010
0100
1000
0001
0100
0010
1000
0100
0000
1000
0000
0010
0100
0001
1000
,
0100
0000
0010
0001
0000
0010
0001
0000
0100
0000
0010
1000
0000
0010
1000
0001
,
1000
0100
0010
0100
1000
0001
0010
0100
1000
0001
0100
0010
0100
0001
1000
0010
,
1000
0001
0010
0100
0010
0001
1000
0100
1000
0001
0010
0100
0010
0001
1000
0100
,
1000
0001
0100
0010
0100
0001
1000
0010
1000
0001
0010
0100
1000
0001
0010
0001
,
1000
0010
0100
0010
1000
0001
0100
0001
1000
0100
0010
0100
1000
0001
0010
0001
,
2000
0000
0000
0000
0000
0000
0000
0000
0000
0000
0000
0000
0000
0000
0000
3000
,
0001
0100
0001
0010
0100
1000
0001
0010
0001
0100
0010
1000
0001
0100
0001
1000
,
0100
0010
0001
0100
0010
1000
0010
0100
0001
0010
0001
0100
0010
1000
0010
0100
,
0001
1000
0010
1000
0100
0010
0100
1000
0010
1000
0001
0010
0001
1000
0100
0010
,
0001
0100
0010
0100
0001
1000
0100
1000
0010
0100
0010
1000
0001
0010
0100
0010
,
0001
0100
0001
0010
0100
1000
0001
0010
0001
0100
0010
1000
0001
0100
0001
1000
,
0100
1000
0010
0100
0001
0100
0010
1000
0100
1000
0010
0100
0001
0100
0010
1000
,
0100
0010
0001
0100
0001
1000
0100
1000
0010
0100
0001
0100
0010
1000
0001
0010
,
0001
0100
0010
0100
0001
1000
0010
1000
0100
0010
0100
1000
0001
0100
0010
0100
,
0001
0010
0100
1000
0010
1000
0001
0010
0001
0100
0010
0100
0001
1000
0010
1000
,
0100
0010
0001
0100
0001
1000
0010
1000
0100
0010
0001
0100
0001
1000
0010
1000
,
0100
0010
0001
0100
0010
1000
0001
0010
0001
0100
0010
1000
0001
1000
0010
0100
,
0001
0010
0100
0010
0001
0100
0010
1000
0100
0010
0100
1000
0010
0100
0001
1000
,
0001
0010
0100
1000
0010
1000
0001
0010
0001
0100
0010
0100
0001
1000
0100
1000
,
0001
0100
0001
0010
0100
1000
0010
1000
0001
0100
0001
0010
0100
1000
0010
1000
,
0001
0010
0001
0100
0010
1000
0001
0100
0001
0010
0100
1000
0001
0010
0100
0010
,
0001
0100
0010
0100
0001
1000
0100
0010
0001
1000
0001
1000
0010
0100
0010
0100
,
0001
0010
0001
0100
0010
1000
0001
0100
0001
0010
0100
1000
0001
0010
0001
1000
,
0010
0100
0001
0010
0100
1000
0100
0010
0001
0100
0001
0010
0100
1000
0100
0010
,
0001
1000
0100
1000
0010
0100
0010
1000
0100
1000
0001
0100
0001
1000
0010
0100
,
0001
0010
0100
0010
0001
1000
0010
1000
0100
0010
0100
1000
0001
0100
0010
0100
,
0001
0010
0001
0100
0010
1000
0001
0100
0001
0010
0100
1000
0001
0010
0001
1000
,
0010
1000
0100
0010
0001
0010
0100
1000
0010
1000
0100
0010
0001
0010
0100
1000
,
0010
0100
0001
0010
0001
1000
0010
1000
0100
0010
0001
0010
0100
1000
0001
0100
,
0001
0010
0100
0010
0001
1000
0100
1000
0010
0100
0010
1000
0001
0010
0100
0010
,
0001
0100
0010
1000
0100
1000
0001
0100
0001
0010
0100
0010
0001
1000
0100
1000
,
0010
0100
0001
0010
0001
1000
0100
1000
0010
0100
0001
0010
0001
1000
0100
1000
,
0010
0100
0001
0010
0100
1000
0001
0100
0001
0010
0100
1000
0001
1000
0100
0010
,
0001
0100
0010
0100
0001
0010
0100
1000
0010
0100
0010
1000
0100
0010
0001
1000
,
0001
0100
0010
1000
0100
1000
0001
0100
0001
0010
0100
0010
0001
1000
0010
1000
,
0001
0010
0001
0100
0010
1000
0100
1000
0001
0010
0001
0100
0010
1000
0100
1000
,
0001
0100
0001
0010
0100
1000
0001
0010
0001
0100
0010
1000
0001
0100
0010
0100
,
0001
0010
0100
0010
0001
0100
0010
1000
0100
0010
0100
1000
0010
0100
0010
1000
,
0001
0010
0100
0010
0001
0010
0100
0010
0001
0010
0100
0010
0001
1000
0010
0100
,
0001
0010
0100
1000
0001
0100
0001
1000
0001
0010
0100
1000
0010
1000
0001
1000
,
0100
0010
0100
1000
0001
0100
0001
1000
0001
0010
0100
1000
0001
1000
0010
1000
,
0100
0010
0100
1000
0001
0100
0001
1000
0001
0010
0100
1000
0010
1000
0001
1000
,
0100
0010
0100
1000
0001
0100
0001
1000
0001
0010
0100
1000
0001
1000
0010
1000
,
0100
0010
0100
1000
0001
0100
0001
1000
0001
0010
0100
1000
0010
1000
0001
1000
,
0100
0010
0100
1000
0001
0100
0001
1000
0001
0010
0100
1000
0001
1000
0010
1000
,
0100
0010
0100
1000
0001
0100
0001
1000
0001
0010
0100
1000
0010
1000
0001
1000
,
0010
0100
0010
1000
0001
0010
0001
1000
0001
0100
0010
1000
0100
1000
0001
1000
,
0010
0100
0010
1000
0001
0010
0001
1000
0001
0100
0010
1000
0001
1000
0100
1000
,
0010
0100
0010
1000
0001
0010
0001
1000
0001
0100
0010
1000
0100
1000
0001
1000
,
0010
0100
0010
1000
0001
0010
0001
1000
0001
0100
0010
1000
0001
1000
0100
1000
,
0010
0100
0010
1000
0001
0010
0001
1000
0001
0100
0010
1000
0100
1000
0001
1000
,
0010
0100
0010
1000
0001
0010
0001
1000
0001
0100
0010
1000
0001
1000
0100
1000
,
0010
0100
0010
1000
0001
0010
0001
1000
0001
0100
0010
1000
0100
1000
0001
1000
,
0010
0100
0001
1000
0001
0100
0010
1000
0001
1000
0100
0010
0001
0010
0100
1000
,
0020
0030
0100
0000
0010
0000
2000
3000
0100
0000
1000
0000
0020
0030
0100
0000
0010
0000
1000
0000
0001
0000
0100
0000
0001
0000
0010
0000
0100
0000
1000
0000
,
0001
1000
0010
0100
0001
0010
0100
1000
0001
1000
0010
0100
0001
0010
0100
1000
,
0010
0100
0010
1000
0001
0010
0100
1000
0010
0100
0010
1000
0001
0010
0100
1000
,
0010
0100
0010
1000
0001
0010
0100
1000
0010
0100
0010
1000
0001
0010
0100
1000
,
0020
0030
0100
0000
0010
0000
2000
3000
0100
0000
1000
0000
0020
0030
0100
0000
0010
0000
1000
0000
0001
0000
0100
0000
0001
0000
0010
0000
0100
0000
1000
0000
,
0001
1000
0010
0100
0001
0010
0100
1000
0001
1000
0010
0100
0001
0010
0100
1000
,
0001
1000
0010
0100
0001
0010
0100
1000
0001
1000
0010
0100
0001
0010
0100
1000
,
0001
0100
0001
1000
0100
1000
0001
0100
0001
1000
0010
1000
0100
0010
0001
1000
,
0200
0300
0010
0000
0100
0000
2000
3000
0010
0000
1000
0000
0200
0300
0010
0000
0100
0000
1000
0000
0001
0000
0010
0000
0001
0000
0100
0000
0010
0000
1000
0000
,
0001
1000
0100
0010
0001
0100
0010
1000
0001
1000
0100
0010
0001
0100
0010
1000
,
0100
0010
0100
1000
0001
0100
0010
1000
0100
0010
0100
1000
0001
0100
0010
1000
,
0100
0010
0100
1000
0001
0100
0010
1000
0100
0010
0100
1000
0001
0100
0010
1000
,
0200
0300
0010
0000
0100
0000
2000
3000
0010
0000
1000
0000
0200
0300
0010
0000
0100
0000
1000
0000
0001
0000
0010
0000
0001
0000
0100
0000
0010
0000
1000
0000
,
0001
1000
0100
0010
0001
0100
0010
1000
0001
1000
0100
0010
0001
0100
0010
1000
,
0001
1000
0100
0010
0001
0100
0010
1000
0001
1000
0100
0010
0001
0100
0010
1000
,
0001
0010
0001
1000
0010
1000
0001
0010
0001
1000
0100
1000
0010
0100
0001
1000
,
0100
0000
0000
0100
0000
0000
0010
0000
0001
0000
0000
1000
0000
0000
0001
0000
,
0100
0000
0010
1000
0000
0010
1000
0000
0001
0000
1000
0010
0000
1000
0010
0000
,
0100
0000
0000
0100
0000
0000
0010
0000
1000
0000
0000
0001
0000
0000
1000
0000
,
0100
0000
0010
0001
0000
0010
0001
0000
0100
0000
0010
1000
0000
0010
1000
0000
,
0001
0000
0010
0100
0000
0010
0001
0000
1000
0000
0010
0100
0000
0010
1000
0000
,
0001
0000
0010
0100
0000
0010
0100
0000
1000
0000
0100
0010
0000
0100
0010
0000
,
0001
0000
1000
0010
0000
1000
0001
0000
0010
0000
0100
1000
0000
0001
1000
0000
,
0010
0000
0100
0001
0000
0100
0001
0000
0010
0000
0100
1000
0000
0100
1000
0000
,
0001
0100
0010
1000
0000
0001
0010
0001
0000
1000
0010
1000
0000
0001
0010
0001
,
0000
1000
0010
1000
0000
0001
0010
0001
0000
1000
0010
1000
0000
0001
0010
0001
,
1000
0010
0100
0001
0000
1000
0100
1000
0000
0001
0100
0001
0000
1000
0100
1000
,
0000
0001
0100
0001
0000
1000
0100
1000
0000
0001
0100
0001
0000
1000
0100
1000
,
0001
0010
0100
1000
0000
0001
0100
0001
0000
1000
0100
1000
0000
0001
0100
0001
,
0000
1000
0100
1000
0000
0001
0100
0001
0000
1000
0100
1000
0000
0001
0100
0001
,
1000
0100
0010
0001
0000
1000
0010
1000
0000
0001
0010
0001
0000
1000
0010
1000
,
0000
0001
0010
0001
0000
1000
0010
1000
0000
0001
0010
0001
0000
1000
0010
1000
,
0001
0010
0100
1000
0001
0100
0010
1000
0100
0000
1000
0000
0010
0100
0001
1000
,
0100
0000
0010
0001
0000
0010
0001
0000
1000
0000
0001
0010
0000
0001
0010
0000
,
0001
0100
0010
1000
0001
0010
0100
1000
0010
0000
1000
0000
0100
0010
0001
1000
,
0001
0000
0100
0010
0000
0100
0010
0000
1000
0000
0100
0010
0000
0100
0010
0001
,
0100
0010
1000
0001
0010
0100
1000
0001
0100
0000
0010
0000
1000
0100
0010
0001
,
0100
0000
0001
0010
0100
1000
0010
0100
0001
0000
1000
0100
0010
0001
0100
0010
,
1000
0100
0010
0100
1000
0001
0010
0100
1000
0010
0100
0001
1000
0001
0100
0010
,
1000
0100
0010
0001
1000
0010
0100
0001
1000
0001
0010
0100
1000
0001
0100
0010
,
1000
0100
1000
0010
0100
0001
1000
0010
1000
0100
0010
0001
1000
0100
1000
0001
,
0100
0010
1000
0100
0010
0001
0010
0100
1000
0010
1000
0100
0010
0001
0010
0100
,
1000
0001
0010
0001
0100
0010
0100
0001
0010
0001
1000
0010
1000
0001
0100
0010
,
1000
0100
0010
0100
1000
0001
0100
0001
0010
0100
0010
0001
1000
0010
0100
0010
,
1000
0100
1000
0010
0100
0001
1000
0010
1000
0100
0010
0001
1000
0100
1000
0001
,
0100
0001
0010
0100
1000
0100
0010
0001
0100
0001
0010
0100
1000
0100
0010
0001
,
0100
0010
1000
0100
1000
0001
0100
0001
0010
0100
1000
0100
0010
0001
1000
0010
,
1000
0100
0010
0100
1000
0001
0010
0001
0100
0010
0100
0001
1000
0100
0010
0100
,
1000
0010
0100
0001
0010
0001
1000
0010
1000
0100
0010
0100
1000
0001
0010
0001
,
0100
0010
1000
0100
1000
0001
0010
0001
0100
0010
1000
0100
1000
0001
0010
0001
,
0100
0010
1000
0100
0010
0001
1000
0010
1000
0100
0010
0001
1000
0001
0010
0100
,
1000
0010
0100
0010
1000
0100
0010
0001
0100
0010
0100
0001
0010
0100
1000
0001
,
1000
0010
0100
0001
0010
0001
1000
0010
1000
0100
0010
0100
1000
0001
0100
0001
,
1000
0100
1000
0010
0100
0001
0010
0001
1000
0100
1000
0010
0100
0001
0010
0001
,
1000
0010
1000
0100
0010
0001
1000
0100
1000
0010
0100
0001
1000
0010
0100
0010
,
1000
0100
0010
0100
1000
0001
0100
0010
1000
0001
1000
0001
0010
0100
0010
0100
,
1000
0010
1000
0100
0010
0001
1000
0100
1000
0010
0100
0001
1000
0010
1000
0001
,
0010
0100
1000
0010
0100
0001
0100
0010
1000
0100
1000
0010
0100
0001
0100
0010
,
1000
0001
0100
0001
0010
0100
0010
0001
0100
0001
1000
0100
1000
0001
0010
0100
,
1000
0010
0100
0010
1000
0001
0010
0001
0100
0010
0100
0001
1000
0100
0010
0100
,
1000
0010
1000
0100
0010
0001
1000
0100
1000
0010
0100
0001
1000
0010
1000
0001
,
0010
0001
0100
0010
1000
0010
0100
0001
0010
0001
0100
0010
1000
0010
0100
0001
,
0010
0100
1000
0010
1000
0001
0010
0001
0100
0010
1000
0010
0100
0001
1000
0100
,
1000
0010
0100
0010
1000
0001
0100
0001
0010
0100
0010
0001
1000
0010
0100
0010
,
1000
0100
0010
0001
0100
0001
1000
0100
1000
0010
0100
0010
1000
0001
0100
0001
,
0010
0100
1000
0010
1000
0001
0100
0001
0010
0100
1000
0010
1000
0001
0100
0001
,
0010
0100
1000
0010
0100
0001
1000
0100
1000
0010
0100
0001
1000
0001
0100
0010
,
1000
0100
0010
0100
1000
0010
0100
0001
0010
0100
0010
0001
0100
0010
1000
0001
,
1000
0100
0010
0001
0100
0001
1000
0100
1000
0010
0100
0010
1000
0001
0010
0001
,
1000
0010
1000
0100
0010
0001
0100
0001
1000
0010
1000
0100
0010
0001
0100
0001
,
1000
0100
1000
0010
0100
0001
1000
0010
1000
0100
0010
0001
1000
0100
0010
0100
,
1000
0010
0100
0010
1000
0100
0010
0100
1000
0001
1000
0001
0100
0010
0100
0010
,
0100
0000
0000
0000
,
M000
0000
0000
0000
0000
0000
0000
0000
0000
0000
0000
0000
0000
0000
0000
0000
0000
0000
0000
0000
0000
0000
0000
0000
M000
0000
0000
0000
0000
0000
0000
0000
0000
0000
0000
0000
0000
0000
0000
0000
0000
0000
0000
0000
0000
0000
0000
0000
M000
0000
0000
0000
0000
0000
0000
0000
0000
0000
0000
0000
M000
0000
0000
0000
0000
0000
0000
0000
0000
0000
0000
0000
M000
0000
0000
0000
0000
0000
0000
0000
0000
0000
0000
0000
M000
0000
0000
0000
0000
0000
0000
0000
0000
0000
0000
0000
M000
0000
0000
0000
0000
0000
0000
0000
M000
0000
0000
0000
0000
0000
0000
0000
M000
0000
0000
0000
0000
0000
0000
0000
M000
0000
0000
0000
0000
0000
0000
0000
M000
0000
0000
0000
0000
0000
0000
0000
M000
0000
0000
0000
0000
0000
0000
0000
M000
0000
0000
0000
0000
0000
M000
0000
0000
0000
0000
0000
M000
0000
0000
0000
0000
0000
M000
0000
0000
0000
0000
0000
M000
0000
0000
0000
0000
0000
M000
0000
0000
0000
0000
0000
M000
0000
0000
0000
0000
0000
M000
0000
0000
0000
0000
0000
,
0001
0010
0001
0010
0100
0000
1000
0000
0001
0010
0001
0010
0100
1000
0010
0100
,
0002
0003
0010
0000
0001
0000
0200
0300
0010
0000
0100
0000
0002
0003
1000
0000
0001
0000
0010
0000
0100
0000
1000
0000
0010
0000
0100
0000
0001
0000
1000
0000
,
0100
0010
0100
1000
0001
0100
0001
1000
0001
0010
0100
1000
0010
0100
0001
1000
,
0100
0010
0100
1000
0001
0100
0001
1000
0001
0010
0100
1000
0010
0100
0001
1000
,
0100
0010
0100
1000
0001
0100
0001
1000
0001
0010
0100
1000
0010
0100
0010
1000
,
0002
0003
0100
0000
0001
0000
0020
0030
0100
0000
0010
0000
0002
0003
1000
0000
0001
0000
0100
0000
0010
0000
1000
0000
0100
0000
0010
0000
0001
0000
1000
0000
,
0010
0100
0010
1000
0001
0010
0001
1000
0001
0100
0010
1000
0100
0010
0001
1000
,
0010
0100
0010
1000
0010
0100
0010
1000
0001
0010
0100
0010
0001
0010
0100
0010
,
0001
0100
0001
1000
0100
1000
0001
0100
0001
1000
0010
0100
0001
0010
0100
0010
,
0002
0003
0100
0000
0001
0000
0020
0030
0100
0000
0010
0000
0002
0003
1000
0000
0001
0000
0100
0000
0010
0000
1000
0000
0100
0000
0010
0000
0001
0000
1000
0000
,
0010
0100
0001
1000
0010
1000
0001
1000
0100
0010
0001
0100
0001
1000
0100
1000
,
0010
0100
0001
1000
0010
1000
0001
1000
0100
0010
0001
0100
0001
1000
0100
1000
,
0010
0100
0001
1000
0010
1000
0001
1000
0100
0010
0001
0100
0001
1000
0100
1000
,
0002
0003
0010
0000
0001
0000
0200
0300
0010
0000
0100
0000
0002
0003
1000
0000
0001
0000
0010
0000
0100
0000
1000
0000
0010
0000
0100
0000
0001
0000
1000
0000
,
0100
0010
0001
1000
0100
1000
0001
1000
0010
0100
0001
0010
0001
1000
0010
1000
,
0100
0010
0001
1000
0100
1000
0001
1000
0010
0100
0001
0010
0001
1000
0010
1000
,
0001
0010
0001
1000
0010
1000
0001
0010
0001
1000
0010
0100
0001
0010
0100
1000
,
0020
0030
0100
0000
0010
0000
2000
3000
0100
0000
1000
0000
0002
0003
0100
0000
0001
0000
1000
0000
0010
0000
1000
0000
0100
0000
0010
0000
0001
0000
1000
0000
,
0001
0100
0010
1000
0100
0010
0001
1000
0001
0100
0010
1000
0100
0010
0001
1000
,
0010
0100
0010
1000
0001
0010
0001
1000
0001
0100
0010
1000
0001
1000
0100
1000
,
0010
0100
0010
1000
0001
0010
0001
1000
0001
0100
0010
1000
0100
1000
0001
1000
,
0020
0030
0100
0000
0010
0000
2000
3000
0100
0000
1000
0000
0002
0003
0100
0000
0001
0000
1000
0000
0010
0000
1000
0000
0100
0000
0010
0000
0001
0000
1000
0000
,
0001
0100
0010
1000
0100
0010
0001
1000
0001
0100
0010
1000
0100
0010
0001
1000
,
0010
0100
0010
1000
0001
0010
0001
1000
0001
0100
0010
1000
0001
1000
0100
1000
,
0010
0100
0010
1000
0001
1000
0100
0010
0100
1000
0001
1000
0010
0100
0001
1000
,
0200
0300
0010
0000
0100
0000
2000
3000
0010
0000
1000
0000
0002
0003
0010
0000
0001
0000
1000
0000
0100
0000
1000
0000
0010
0000
0100
0000
0001
0000
1000
0000
,
0001
0010
0100
1000
0010
0100
0001
1000
0001
0010
0100
1000
0010
0100
0001
1000
,
0100
0010
0100
1000
0001
0100
0001
1000
0001
0010
0100
1000
0001
1000
0010
1000
,
0100
0010
0100
1000
0001
0100
0001
1000
0001
0010
0100
1000
0010
1000
0001
1000
,
0200
0300
0010
0000
0100
0000
2000
3000
0010
0000
1000
0000
0002
0003
0010
0000
0001
0000
1000
0000
0100
0000
1000
0000
0010
0000
0100
0000
0001
0000
1000
0000
,
0001
0010
0100
1000
0010
0100
0001
1000
0001
0010
0100
1000
0010
0100
0001
1000
,
0100
0010
0100
1000
0001
0100
0001
1000
0001
0010
0100
1000
0001
1000
0010
1000
,
0100
0010
0100
1000
0001
1000
0010
0100
0010
1000
0001
0010
0100
1000
0010
0100
,
0002
0003
0000
0000
0000
0000
0020
0030
0001
0000
0000
0000
2000
3000
0000
0000
0001
0000
0000
0000
0000
0000
0100
0000
0001
0000
0000
0000
1000
0000
0000
0000
,
0100
0010
0000
0100
1000
0000
0001
0000
0100
0010
0000
0100
0001
0000
1000
0000
,
0100
0010
0000
0001
1000
0000
0001
0000
0100
0010
0000
1000
0001
0000
1000
0000
,
0100
0010
0000
0100
1000
0000
0001
0000
0100
0010
0000
0100
0001
0000
1000
0000
,
0002
0003
0000
0000
0000
0000
0020
0030
0100
0000
0000
0000
2000
3000
0000
0000
0001
0000
0000
0000
0000
0000
0100
0000
0010
0000
0000
0000
1000
0000
0000
0000
,
0001
0010
0000
0001
1000
0000
0001
0000
0100
0001
0000
1000
0001
0000
1000
0000
,
0100
0010
0000
0001
1000
0000
0001
0000
0100
0010
0000
1000
0001
0000
1000
0000
,
0001
0010
0000
0001
1000
0000
0001
0000
0100
0001
0000
1000
0001
0000
1000
0000
,
0200
0300
0000
0000
0000
0000
0020
0030
0001
0000
0000
0000
2000
3000
0000
0000
0010
0000
0000
0000
0000
0000
0100
0000
0001
0000
0000
0000
1000
0000
0000
0000
,
0100
0010
0000
0100
1000
0000
0001
0000
0100
0010
0000
0100
0001
0000
1000
0000
,
0100
0010
0000
0001
1000
0000
0001
0000
0100
0010
0000
1000
0001
0000
1000
0000
,
0100
0010
0000
0100
1000
0000
0001
0000
0100
0010
0000
0100
0001
0000
1000
0000
,
0200
0300
0000
0000
0000
0000
0020
0030
0100
0000
0000
0000
2000
3000
0000
0000
0010
0000
0000
0000
0000
0000
0100
0000
0010
0000
0000
0000
1000
0000
0000
0000
,
0001
0010
0000
0001
1000
0000
0001
0000
0100
0001
0000
1000
0001
0000
1000
0000
,
0100
0010
0000
0001
1000
0000
0001
0000
0100
0010
0000
1000
0001
0000
1000
0000
,
0001
0010
0000
0001
1000
0000
0001
0000
0100
0001
0000
1000
0001
0000
1000
0000
,
0000
0000
0000
0000
,
0000
0000
0000
0000
,
0000
0000
0000
0000
,
0000
0000
0000
0000
,
0000
0000
0000
M000
;
