#TITLE:Vater Unser;
#SUBTITLE:(Radio Edit);
#ARTIST:E Nomine;
#TITLETRANSLIT:;
#SUBTITLETRANSLIT:;
#ARTISTTRANSLIT:;
#CREDIT:;
#BANNER:Vater Unser (Radio Edit).png;
#BACKGROUND:Vater Unser (Radio Edit)-bg.png;
#LYRICSPATH:;
#CDTITLE:NVLM-cdtitle.png;
#MUSIC:Vater Unser (Radio Edit).mp3;
#OFFSET:-8.092;
#SAMPLESTART:15.390;
#SAMPLELENGTH:12.000;
#SELECTABLE:YES;
#DISPLAYBPM:65.000:130.000;
#BPMS:0.000=130.000,144.000=520.000,145.000=390.000,146.000=260.000,147.000=65.000,170.000=260.000,170.500=130.000,171.000=65.000,171.250=130.000;
#STOPS:147.000=0.200
,171.250=0.420
;
#BGCHANGES:;
// cache tags:
#FIRSTBEAT:0.000;
#LASTBEAT:212.000;
#SONGFILENAME:Songs/toune 1 (2010)/Vater Unser (Radio Edit)/Vater Unser (Radio Edit).sm;
#HASMUSIC:1;
#HASBANNER:1;
#MUSICLENGTH:117.368;
// end cache tags

//---------------dance-single - ----------------
#NOTES:
     dance-single:
     :
     Hard:
     9:
     0.438,0.406,0.094,0.136,0.000,333.000,11.000,16.000,0.000,0.000:  // measure 1
0010
0010
0010
0010
,  // measure 2
0100
0100
0100
0100
,  // measure 3
0010
0010
0010
0010
,  // measure 4
2002
0000
0000
3003
,  // measure 5
0001
0010
0100
1000
0010
0001
0010
1000
,  // measure 6
0100
0010
0001
0100
0010
1000
0001
0010
,  // measure 7
0100
1000
0010
0100
0001
1000
0100
0010
,  // measure 8
1000
0010
0100
0001
0010
0100
1000
0010
,  // measure 9
0100
0001
0010
0001
0100
1000
0100
0010
,  // measure 10
1000
0001
0010
0100
1000
0010
0100
0001
,  // measure 11
1000
0100
0010
0001
0100
0010
1000
0001
,  // measure 12
0010
1000
0010
0100
1000
0010
0100
0001
,  // measure 13
1001
1000
0100
0010
0000
0001
0100
0010
,  // measure 14
0000
1000
0100
0010
0000
0001
0100
1000
,  // measure 15
0000
1000
0100
0010
0000
0001
0001
0100
,  // measure 16
0000
0010
0010
1000
0000
0100
0010
0001
,  // measure 17
0000
0010
0100
1000
0000
0010
0100
0001
,  // measure 18
0000
1000
0100
0010
0000
0001
0100
1000
,  // measure 19
0000
0010
0100
0001
0000
1000
0100
0010
,  // measure 20
0000
0001
0100
0010
2002
0000
3003
0000
,  // measure 21
0110
0010
1000
0001
0000
0100
1000
0010
,  // measure 22
0000
1000
0100
0010
0000
0001
0100
1000
,  // measure 23
0000
0010
0100
0001
0000
0100
0010
1000
,  // measure 24
0000
0001
0010
1000
0000
1000
0100
0010
,  // measure 25
0000
0001
0010
0100
0000
1000
0010
0100
,  // measure 26
0000
0001
0010
0100
0000
1000
0010
0010
,  // measure 27
0000
0100
0001
0010
0000
0100
1000
0010
,  // measure 28
0100
1100
2002
3003
,  // measure 29
0010
0100
1000
0010
0100
0001
1000
0100
,  // measure 30
0001
0100
0010
0001
0100
0010
1000
0001
,  // measure 31
0010
1000
0010
0100
1000
0010
0100
0001
,  // measure 32
1000
1000
1000
1000
1000
1000
1000
1000
,  // measure 33
0100
0010
0001
0100
1000
0100
0010
1000
,  // measure 34
0001
0010
0100
1000
0010
0100
1000
0001
,  // measure 35
0100
0100
0100
0100
0010
0010
0010
0010
,  // measure 36
1000
0100
0010
0001
0100
0010
1000
0100
,  // measure 37
0220
0000
0000
0330
,  // measure 38
2001
0000
3200
0000
,  // measure 39
0320
0000
0032
0000
,  // measure 40
0103
0100
0100
0100
0010
0010
0010
0010
,  // measure 41
1000
1000
1000
1000
0100
0100
0100
0100
,  // measure 42
0010
0010
0010
0010
0001
0001
0001
0001
,  // measure 43
1000
0100
0010
0001
2002
0000
0000
3003
,  // measure 44
0110
0100
0001
0010
1000
0010
0100
1000
,  // measure 45
0010
0100
0001
1000
0100
0010
0001
0100
,  // measure 46
1000
0100
0010
1000
0001
0010
1000
0010
,  // measure 47
0100
0001
1000
0100
0010
0001
0100
0010
,  // measure 48
1000
0001
0010
0100
1000
0010
0100
0001
,  // measure 49
1000
0100
0001
0100
1000
0010
0010
0010
,  // measure 50
0010
0010
0010
0010
0010
0010
0010
0010
,  // measure 51
0100
0100
0100
0100
0100
0100
0100
0100
,  // measure 52
2002
0000
0000
0000
,  // measure 53
0000
0000
0000
0000
,  // measure 54
3003
0000
0000
0000
;

//---------------dance-single - ----------------
#NOTES:
     dance-single:
     :
     Challenge:
     10:
     0.643,0.768,0.469,0.170,0.575,453.000,55.000,20.000,0.000,0.000:  // measure 1
0011
1010
0011
1010
,  // measure 2
1100
0101
1100
0101
,  // measure 3
0011
1010
0011
1010
,  // measure 4
2002
0000
0000
3003
,  // measure 5
0100
0010
0000
0001
0010
0000
0100
1000
0000
1000
0010
0000
0100
0001
0100
0000
,  // measure 6
0001
0010
0000
0001
0100
0000
0010
1000
0000
0010
0001
0000
0010
0100
1000
0000
,  // measure 7
1000
0010
0000
0010
0100
0000
0001
0010
0000
0001
1000
0000
0100
0010
0100
0000
,  // measure 8
0010
0001
0000
0001
1000
0000
0100
1000
0000
0010
0100
0000
0001
0100
0001
0000
,  // measure 9
1000
0010
0000
1000
0100
0000
0100
0010
0000
0001
0010
0000
0100
1000
0001
0000
,  // measure 10
1000
0100
0000
0010
0100
0000
0010
0001
0000
1000
0010
0000
0100
0001
0100
0000
,  // measure 11
0001
0010
0000
0001
1000
0000
0100
1000
0000
0100
0010
0000
0001
0010
0100
0000
,  // measure 12
1000
0100
0000
0010
0100
0000
1000
0001
0000
0010
0100
0000
1000
0010
1000
0000
,  // measure 13
1001
0001
0100
0010
1000
0001
0100
0010
,  // measure 14
0001
1000
0100
0010
0001
0001
0100
1000
,  // measure 15
0010
1000
0100
0010
0001
0001
0001
0100
,  // measure 16
0010
0010
0010
1010
1000
0100
0010
0001
,  // measure 17
0001
0010
0100
1000
1000
0010
0100
0001
,  // measure 18
0001
1000
0100
0010
0001
0001
0100
1000
,  // measure 19
1000
0010
0100
0001
1001
1000
0100
0010
,  // measure 20
0001
1000
0100
0010
2002
0000
3003
0000
,  // measure 21
0110
0010
1000
0001
0010
0100
1000
0010
,  // measure 22
0001
1000
0100
0010
0001
0001
0100
1000
,  // measure 23
1010
0010
0100
0001
0010
0100
1000
1000
,  // measure 24
0100
0001
0010
1000
0001
1000
0100
0010
,  // measure 25
0001
0001
0010
0100
1000
1000
0010
0100
,  // measure 26
0100
0001
0010
0100
1000
1000
0010
0010
,  // measure 27
0010
0100
0001
0010
0110
0100
1000
0010
,  // measure 28
0100
1000
1100
0101
2002
0000
3003
0000
,  // measure 29
0010
0100
0000
1000
0001
0000
0010
0100
0000
1000
0100
0000
0010
0001
1000
0010
,  // measure 30
1000
0010
0000
0100
0001
0000
0001
0010
0000
0100
1000
0000
0100
0010
0001
0010
,  // measure 31
0001
0100
0000
0010
1000
0000
1000
0100
0000
0010
0001
0000
0100
0010
0100
0010
,  // measure 32
1000
0100
0000
1000
0001
0000
0010
0100
0000
1000
0100
0000
0010
0001
1000
0010
,  // measure 33
1000
0100
0000
0001
0100
0000
0010
1000
0000
0010
0100
0000
0001
0010
0001
0100
,  // measure 34
0010
0100
0000
1000
0100
0000
0010
0001
0000
1000
0001
0000
0010
0100
1000
0100
,  // measure 35
1000
0010
0000
0100
0001
0000
1000
0100
0000
0010
0001
0000
0100
0010
0100
0010
,  // measure 36
1000
0100
0000
0100
0001
0000
0010
0100
0000
1000
0010
0000
0100
0001
0100
0000
,  // measure 37
0220
0000
0000
0330
,  // measure 38
2001
3200
0320
0032
,  // measure 39
0203
0000
0320
0000
2030
0000
3002
0003
,  // measure 40
0110
1100
0101
1100
0011
0110
1010
0110
,  // measure 41
1100
1010
1001
1100
0110
1100
0101
1100
,  // measure 42
0110
0011
1010
0110
0101
1001
0011
0101
,  // measure 43
1010
1100
0110
0011
2002
0000
0000
3003
,  // measure 44
0010
0100
0000
1000
0100
0000
0001
0100
0000
0010
1000
0000
0001
0010
0001
0100
,  // measure 45
0010
1000
0000
0100
1000
0000
0100
0010
0000
0001
0010
0000
0100
1000
0010
0100
,  // measure 46
0001
0010
0000
0001
1000
0000
0100
1000
0000
0010
0100
0000
0010
0001
0010
0001
,  // measure 47
0100
0010
0000
1000
0100
0000
0010
0100
0000
1000
0001
0000
0010
0100
1000
0100
,  // measure 48
1000
0010
0000
0100
0001
0000
1000
0100
0000
0010
0001
0000
0100
0010
1000
0100
,  // measure 49
1000
0001
0000
0001
0010
0000
0100
1000
0000
0010
0100
0000
0001
0010
0100
1000
,  // measure 50
0010
0100
0000
0100
0001
0000
1000
0100
0000
0010
0001
0000
0100
0010
1000
0100
,  // measure 51
1000
0001
0000
0010
0100
0000
1000
0100
0000
0010
0001
0000
0010
0100
1000
0001
,  // measure 52
2002
0000
0000
0000
,  // measure 53
0000
0000
0000
0000
,  // measure 54
3003
0000
0000
0000
;

//---------------dance-single - ----------------
#NOTES:
     dance-single:
     :
     Medium:
     8:
     0.393,0.384,0.324,0.230,0.000,258.000,38.000,27.000,0.000,0.000:  // measure 1
0010
0010
0010
0010
,  // measure 2
0100
0100
0100
0100
,  // measure 3
0010
0010
0010
0010
,  // measure 4
2002
0000
0000
3003
,  // measure 5
0001
0001
0001
0000
0020
0000
0130
0000
,  // measure 6
1000
1000
1000
1000
1000
0000
1001
0000
,  // measure 7
0010
0010
0010
0000
0200
0000
0301
0000
,  // measure 8
0010
0010
0010
0000
0200
0000
1300
0000
,  // measure 9
0001
0001
0001
0000
0010
0000
1100
0000
,  // measure 10
0010
0010
0010
0010
0010
0000
0100
0000
,  // measure 11
0001
0001
0001
0000
2000
0000
3100
0000
,  // measure 12
0001
0001
0001
0001
0001
0000
0110
0000
,  // measure 13
0000
1000
0100
0010
0000
0001
0000
0011
,  // measure 14
0000
1000
0100
0010
0000
0001
0000
1001
,  // measure 15
0000
1000
0100
0010
0000
0001
0000
0101
,  // measure 16
0000
0010
0010
0010
0010
0010
0000
1001
,  // measure 17
0000
0100
0100
0100
0100
0100
0000
1001
,  // measure 18
0000
0100
0000
0110
0000
0001
0100
1000
,  // measure 19
0000
0010
0000
1001
0000
1000
0100
0010
,  // measure 20
0000
0001
0100
0010
2002
0000
3003
0000
,  // measure 21
0000
0010
1000
0001
0000
0100
0000
0110
,  // measure 22
0000
2000
0000
3010
0000
0001
0000
1001
,  // measure 23
0000
0010
0010
0010
0000
0100
0000
1001
,  // measure 24
0000
0010
0010
0010
0000
2000
0000
3010
,  // measure 25
0000
0001
0001
0001
0000
2000
0000
3100
,  // measure 26
0000
0001
0001
0001
0000
1000
0000
0110
,  // measure 27
0000
0100
0100
0100
0000
0001
0001
0010
,  // measure 28
0100
1100
2002
3003
,  // measure 29
0010
0010
0010
0000
0100
0000
1001
0000
,  // measure 30
1000
1000
1000
1000
2000
0000
3100
0000
,  // measure 31
0010
0010
0010
0000
0002
0000
0103
0000
,  // measure 32
0010
0010
0010
0010
0010
0000
1001
0000
,  // measure 33
0100
0100
0100
0000
0002
0000
0013
0000
,  // measure 34
0100
0100
0100
0100
0100
0000
1001
0000
,  // measure 35
1000
1000
1000
0000
0200
0000
0310
0000
,  // measure 36
0001
0001
0001
0001
0001
0000
0110
0000
,  // measure 37
0220
0000
0000
0330
,  // measure 38
2001
0000
3200
0000
,  // measure 39
0320
0000
0032
0000
,  // measure 40
0103
0100
0100
0100
0010
0010
0010
0010
,  // measure 41
1000
1000
1000
1000
0100
0100
0100
0100
,  // measure 42
0010
0010
0010
0010
0001
0001
0001
0001
,  // measure 43
0100
0100
0100
0100
2002
0000
0000
3003
,  // measure 44
0100
0100
0100
0000
0011
0000
1001
0000
,  // measure 45
0010
0010
0010
0010
0010
0000
1001
0000
,  // measure 46
1000
1000
1000
0000
0110
0000
0011
0000
,  // measure 47
0001
0001
0001
0001
0001
0000
0101
0000
,  // measure 48
1000
1000
1000
0000
1100
0000
0110
0000
,  // measure 49
0001
0001
0001
0001
0001
0000
0110
0000
,  // measure 50
1000
1000
1000
0000
0011
0000
0101
0000
,  // measure 51
0010
0010
0010
0010
0010
0000
1100
0000
,  // measure 52
2002
0000
0000
0000
,  // measure 53
0000
0000
0000
0000
,  // measure 54
3003
0000
0000
0000
;

//---------------dance-single - ----------------
#NOTES:
     dance-single:
     :
     Easy:
     6:
     0.293,0.271,0.281,0.136,0.000,192.000,33.000,16.000,0.000,0.000:  // measure 1
0010
0010
0010
0010
,  // measure 2
0010
0010
0010
0010
,  // measure 3
0010
0010
0010
0010
,  // measure 4
2002
0000
0000
3003
,  // measure 5
0110
0100
0001
1000
,  // measure 6
0100
0010
1001
1001
,  // measure 7
0010
0100
1000
0010
,  // measure 8
0100
0001
1100
1100
,  // measure 9
0010
0001
0100
0010
,  // measure 10
1000
0100
0011
0011
,  // measure 11
1000
0010
0100
0001
,  // measure 12
1000
0100
1001
1001
,  // measure 13
0000
0010
0000
0100
0000
1000
0000
0010
,  // measure 14
0000
0100
0000
0001
0000
0001
0000
0010
,  // measure 15
0000
0010
0000
0100
0000
0100
0000
1000
,  // measure 16
0000
1000
0000
0010
0000
0010
0000
0100
,  // measure 17
0000
0100
0000
0001
0000
0010
0000
0100
,  // measure 18
0000
1000
0000
0010
0000
0010
0000
0100
,  // measure 19
0000
0100
0000
0001
0000
0001
0000
0010
,  // measure 20
0000
0100
0000
1000
2002
0000
3003
0000
,  // measure 21
0000
0010
0000
0100
0000
0001
0000
1000
,  // measure 22
0000
0100
0000
0010
0000
0001
0000
0100
,  // measure 23
0000
0010
0000
1000
0000
0001
0000
0010
,  // measure 24
0000
1000
0000
0010
0000
0100
0000
1000
,  // measure 25
0000
0010
0000
0100
0000
0001
0000
1000
,  // measure 26
0000
0100
0000
0010
0000
0001
0000
0100
,  // measure 27
0000
0010
0000
1000
0000
0001
0000
0010
,  // measure 28
0000
0100
1100
0000
2002
0000
3003
0000
,  // measure 29
0010
0100
1000
0001
,  // measure 30
0100
0010
1001
1001
,  // measure 31
1000
0100
0010
0001
,  // measure 32
0100
0010
0101
0101
,  // measure 33
1000
0001
0010
0100
,  // measure 34
1000
0001
0110
0110
,  // measure 35
1000
0001
0010
0100
,  // measure 36
1000
0001
1100
1100
,  // measure 37
0220
0000
0000
0330
,  // measure 38
2001
0000
3200
0000
,  // measure 39
0320
0000
0032
0000
,  // measure 40
0103
0100
0010
0010
,  // measure 41
1000
1000
0100
0100
,  // measure 42
0010
0010
0001
0001
,  // measure 43
0100
0000
0000
0000
0100
0000
0000
0000
2002
0000
0000
0000
0000
3003
0000
0000
,  // measure 44
0010
0100
0001
1000
,  // measure 45
0100
0010
1001
1001
,  // measure 46
0010
0100
1000
0010
,  // measure 47
0100
0001
1010
1010
,  // measure 48
0100
0001
1000
0100
,  // measure 49
0010
0001
1100
1100
,  // measure 50
0010
1000
0001
0010
,  // measure 51
0100
1000
0101
0101
,  // measure 52
2002
0000
0000
0000
,  // measure 53
0000
0000
0000
0000
,  // measure 54
3003
0000
0000
0000
;

//---------------dance-single - Challenge Edit----------------
#NOTES:
     dance-single:
     Challenge Edit:
     Edit:
     12:
     1.000,1.000,1.000,0.886,1.000,622.000,146.000,104.000,0.000,1.000:  // measure 1
0022
0033
0100
0000
1010
0000
0100
0000
0011
0000
0100
0000
1010
0000
0001
0000
,  // measure 2
2200
3300
0010
0000
0101
0000
0010
0000
1100
0000
0010
0000
0101
0000
1000
0000
,  // measure 3
0022
0033
0100
0000
1010
0000
0100
0000
0011
0000
0100
0000
1010
0000
0100
0000
,  // measure 4
1001
0001
0010
0100
1000
0010
0100
0001
1000
0100
0010
0001
0100
0010
1000
0001
,  // measure 5
1100
0000
0000
0010
0000
0000
0000
0000
0100
0001
0000
0000
0010
0000
0000
0000
0000
0000
0100
0000
0000
1000
0000
0000
0001
0000
0000
1000
0000
0000
0010
0000
0000
0000
0000
0000
0100
0000
0000
0001
0000
0000
0100
0000
0000
1000
0000
0000
,  // measure 6
1001
0000
0000
0010
0000
0000
0000
0000
0000
0001
0000
0000
0100
0000
0000
0000
0000
0000
0010
0000
0100
1000
0000
0000
0000
0000
0000
0010
0000
0000
0001
0000
0000
0000
0000
0000
0010
0000
0000
0100
0000
0000
1000
0000
0000
0001
0000
0000
,  // measure 7
1100
0000
0000
0010
0000
0000
0000
0000
0000
0010
0000
0000
0100
0000
0000
0000
0000
0000
0001
0000
0000
0010
0000
0000
0000
0000
0100
0001
0000
0000
1000
0000
0000
0000
0000
0000
0100
0000
0000
0010
0000
0000
0100
0000
0000
1000
0000
0000
,  // measure 8
1010
0000
0000
0001
0000
0000
0000
0000
0100
0001
0000
0000
1000
0000
0000
0000
0000
0000
0100
0000
0000
1000
0001
0000
0000
0000
0000
0010
0000
0000
0100
0000
0000
0000
1000
0000
0001
0000
0000
0100
0000
0000
0001
0000
0000
0010
0000
0000
,  // measure 9
1001
0000
0000
0010
0000
0000
0000
0000
0000
1000
0000
0000
0100
0000
0001
0000
0000
0000
0100
0000
0000
0010
0000
0000
0000
0000
1000
0001
0000
0000
0010
0000
0000
0000
0000
0000
0100
0000
0000
1000
0000
0000
0001
0000
0000
0010
0000
0000
,  // measure 10
1001
0000
0000
0100
0000
0000
0000
0000
0000
0010
0000
0000
0100
0000
1000
0000
0000
0000
0010
0000
0000
0001
0000
0000
0000
0000
0100
1000
0000
0000
0010
0000
0000
0000
0000
0000
0100
0000
0000
0001
0000
0000
0100
0000
0000
1000
0000
0000
,  // measure 11
1001
0000
0000
0010
0000
0000
0000
0000
0100
0001
0000
0000
1000
0000
0000
0000
0000
0000
0100
0000
0010
1000
0000
0000
0000
0000
0000
0100
0000
0000
0010
0000
0000
0000
1000
0000
0001
0000
0000
0010
0000
0000
0100
0000
0000
1000
0000
0000
,  // measure 12
1001
0000
0000
0100
0000
0000
0000
0000
0000
0010
0000
0000
0100
0000
0000
0000
0000
0000
1000
0000
0000
0001
0000
0000
0000
0000
0000
0010
0000
0000
0100
0000
0001
0000
0000
0000
1000
0000
0000
0010
0000
0000
1000
0000
0000
0100
0000
0000
,  // measure 13
1001
0000
0000
1001
0000
0000
0100
0000
0100
0010
0000
0000
1001
0000
0000
0101
0000
0000
0100
0000
0100
0010
0000
0000
,  // measure 14
1001
0000
0000
1100
0000
0000
0100
0000
0100
0010
0000
0000
0011
0000
0000
1001
0000
0000
0100
0000
0100
1000
0000
0000
,  // measure 15
0011
0000
0000
1100
0000
0000
0100
0000
0100
0010
0000
0000
1001
0000
0000
0101
0000
0000
0010
0000
0010
0100
0000
0000
,  // measure 16
0011
0000
0000
0110
0000
0000
1000
0000
1000
0001
0000
0000
1010
0000
0000
1100
0000
0000
0010
0000
0010
0001
0000
0000
,  // measure 17
0101
0000
0000
0011
0000
0000
0100
0000
0100
1000
0000
0000
1100
0000
0000
0011
0000
0000
0100
0000
0010
0001
0000
0000
,  // measure 18
1001
0000
0000
1100
0000
0000
0100
0000
0100
0010
0000
0000
1001
0000
0000
0011
0000
0000
0100
0000
0100
1000
0000
0000
,  // measure 19
1100
0000
0000
0110
0000
0000
0001
0000
0001
0100
0000
0000
1001
0000
0000
1010
0000
0000
0100
0000
0100
0010
0000
0000
,  // measure 20
1001
0000
0000
0000
0000
0000
1001
0000
0000
0000
0000
0000
0100
0000
0000
0000
0100
0000
0010
0000
0000
0000
0000
0000
1001
0000
0000
1001
0000
0000
1001
0000
0000
1001
0000
0000
2002
0000
0000
0000
0000
0000
3003
0000
0000
0000
0000
0000
,  // measure 21
0110
0000
0000
0110
0000
0000
1000
0000
0100
0001
0000
0000
0011
0000
0000
0110
0000
0000
1000
0000
0100
0010
0000
0000
,  // measure 22
1001
0000
0000
1100
0000
0000
0100
0000
0100
0010
0000
0000
0011
0000
0000
1001
0000
0000
0100
0000
0100
1000
0000
0000
,  // measure 23
1010
0000
0000
0110
0000
0000
0100
0000
0100
0001
0000
0000
0011
0000
0000
0110
0000
0000
1000
0000
0001
1000
0000
0000
,  // measure 24
0101
0000
0000
0101
0000
0000
0010
0000
0100
1000
0000
0000
0101
0000
0000
1001
0000
0000
0100
0000
1000
0010
0000
0000
,  // measure 25
1001
0000
0000
0101
0000
0000
0010
0000
1000
0100
0000
0000
1001
0000
0000
1001
0000
0000
0010
0000
0010
0100
0000
0000
,  // measure 26
1100
0000
0000
1001
0000
0000
0010
0000
0010
0100
0000
0000
1001
0000
0000
1100
0000
0000
0010
0000
0100
0010
0000
0000
,  // measure 27
1010
0000
0000
1100
0000
0000
0001
0000
0001
0010
0000
0000
0110
0000
0000
0101
0000
0000
1000
0000
1000
0010
0000
0000
,  // measure 28
0101
0000
0000
0000
0100
0000
1000
0000
0000
0000
0000
0000
1100
0000
0000
0000
0000
0000
0101
0000
0000
0000
0000
0000
1001
0000
0000
1001
0000
0000
2002
0000
0000
0000
0000
0000
0000
0000
0000
0000
0000
0000
3003
0000
0000
0000
0000
0000
,  // measure 29
0110
0100
0001
1000
0001
0000
0010
0100
0000
1000
0100
0000
0010
0001
1000
0010
,  // measure 30
1100
0000
0000
0010
0000
0000
0000
0000
0000
0100
0000
0000
0001
0000
0000
0000
1000
0000
0001
0000
0000
0010
0000
0000
0000
0000
0000
0100
0000
0000
1000
0000
0000
0000
0000
0000
0100
0000
0000
0010
0000
0000
0001
0000
0000
0010
0000
0000
,  // measure 31
1001
0000
0000
0100
0000
0000
0000
0000
0000
0010
0000
0000
1000
0000
0000
0000
0001
0000
1000
0000
0000
0100
0000
0000
0000
0000
0000
0010
0000
0000
0001
0000
0000
0000
0000
0000
0100
0000
0000
0010
0000
0000
0100
0000
0000
0010
0000
0000
,  // measure 32
1001
0000
0000
0100
0000
0000
0000
0000
0000
1000
0000
0000
0001
0000
0000
0000
1000
0000
0010
0000
0000
0100
0000
0000
0000
0000
0000
1000
0000
0000
0100
0000
0000
0000
0000
0000
0010
0000
0000
0001
0000
0000
1000
0000
0000
0010
0000
0000
,  // measure 33
1001
0000
0000
0100
0000
0000
0000
0000
0000
0001
0000
0000
0100
0000
0000
0000
1000
0000
0010
0000
0000
1000
0000
0000
0000
0000
0000
0010
0000
0000
0100
0000
0000
0000
1000
0000
0001
0000
0000
0010
0000
0000
0001
0000
0000
0100
0000
0000
,  // measure 34
1010
0000
0000
0100
0000
0000
0000
0000
0000
1000
0000
0000
0100
0000
0000
0000
0000
0000
0010
0000
0000
0001
0100
0000
0000
0000
0000
1000
0000
0000
0001
0000
0000
0000
0100
0000
0010
0000
0000
0100
0000
0000
1000
0000
0000
0100
0000
0000
,  // measure 35
1001
0000
0000
0010
0000
0000
0000
0000
0000
0100
0000
0000
0001
0000
0000
0000
0010
0000
1000
0000
0000
0100
0000
0000
0000
0000
0000
0010
0000
0000
0001
0000
1000
0000
0000
0000
0100
0000
0000
0010
0000
0000
0100
0000
0000
0010
0000
0000
,  // measure 36
1001
0000
0000
0100
0000
0000
0000
0000
1000
0100
0000
0000
0001
0000
0000
0000
0000
0000
0010
0000
0000
0100
0000
0000
0000
0000
0000
1000
0000
0000
0010
0000
0000
0000
0000
0000
0100
0000
1000
0001
0000
0000
0100
0000
0000
0010
0000
0000
,  // measure 37
0220
0000
0000
0000
0000
0000
0000
0000
0000
0000
0000
0000
0000
0330
0000
0000
,  // measure 38
2002
3003
2002
3003
0220
0330
2200
3300
0022
0033
2002
3003
2020
3030
2200
3300
,  // measure 39
0220
0330
0022
0033
0202
0303
2200
3322
0033
0000
0220
0330
0022
0033
2002
3003
,  // measure 40
0220
0330
2200
3300
0202
0303
2200
3300
0022
0033
0220
0330
2020
3030
0220
0330
,  // measure 41
2200
3300
2020
3030
2002
3003
2200
3300
0220
0330
2200
3300
0202
0303
2200
3300
,  // measure 42
0220
0330
0022
0033
2020
3030
0220
0330
0202
0303
2002
3003
0022
0033
0202
0303
,  // measure 43
2020
3030
2200
3300
0220
0330
0022
0033
2002
0000
0000
0000
0000
0000
3003
0000
,  // measure 44
0110
0000
0000
0010
0000
0000
1000
0000
0001
0100
0000
0000
1000
0000
0001
0100
0000
0000
0010
0000
0000
0001
0000
0000
0100
0000
0000
0010
0000
0000
1000
0000
0000
0100
0000
0000
0010
0000
0001
1000
0100
0000
0010
0000
0000
1000
0000
0000
,  // measure 45
0001
0000
0010
0100
0000
0000
1000
0000
0000
0010
0000
0000
0100
0000
0000
0001
1000
0000
0100
0000
0000
0010
0000
0000
0001
0000
0000
0100
0010
0000
1000
0000
0000
0000
0010
0000
0100
0000
0001
1000
0000
0000
0001
0000
0000
0010
0000
0000
,  // measure 46
1000
0000
0000
0100
0000
0000
0010
0000
0001
0000
0000
0000
0100
0000
0000
0010
0000
0000
1000
0000
0001
0010
0000
0000
0100
0000
0000
1000
0000
0000
0100
0000
0010
0001
0000
0000
1000
0000
0000
0010
0000
0000
0100
0000
0001
1000
0000
0000
,  // measure 47
0100
0000
0000
0010
0001
0000
0100
0000
0000
0010
0000
0000
1000
0000
0000
0001
0010
0000
0100
0000
0000
1000
0000
0000
0010
0000
0100
0001
0000
0000
1000
0000
0000
0100
0000
0000
0010
0000
0001
0000
0100
0000
0010
0000
0000
1000
0000
0000
,  // measure 48
0001
0000
0000
0010
0100
0000
1000
0000
0000
0010
0000
0000
0100
0000
0000
0001
1000
0000
0010
0000
0000
0100
0000
0000
1000
0000
0010
0100
0000
0000
0001
0000
0000
0010
0000
0000
0100
0000
0000
1000
0010
0000
0100
0000
0000
0001
0000
0000
,  // measure 49
0010
0000
0000
0100
0000
0000
1000
0000
0010
0100
0000
0000
0001
0000
0000
0010
0100
0000
1000
0000
0000
0010
0000
0000
0100
0000
0001
1000
0000
0000
0100
0000
0000
0010
0001
0000
0100
0000
0000
0010
0000
0000
1000
0000
0001
0000
0010
0000
,  // measure 50
0100
0000
0000
1000
0010
0000
0100
0000
0000
0001
0000
0000
0010
0000
0000
0100
1000
0000
0010
0000
0000
0100
0000
0000
0001
0000
1000
0100
0000
0000
0010
0000
0001
1000
0000
0000
0010
0000
0000
0100
0000
0000
0001
0000
0000
0010
0000
0000
,  // measure 51
0100
0000
1000
0001
0000
0000
0100
0000
0000
0010
0000
0000
1000
0000
0000
0100
0010
0000
0001
0000
0000
0100
0000
0000
0010
0000
0000
1000
0000
0000
0001
0000
0000
0010
0000
0000
0100
0000
0000
1000
0000
0000
0010
0000
0000
0100
0000
0000
,  // measure 52
2002
0000
0000
0000
,  // measure 53
0000
0000
0000
0000
,  // measure 54
3003
0000
0000
0000
;

//---------------dance-double - ----------------
#NOTES:
     dance-double:
     :
     Hard:
     9:
     0.453,0.406,0.077,0.136,0.000,347.000,9.000,16.000,0.000,0.000:  // measure 1
00100000
00100000
00100000
00100000
,  // measure 2
00010000
00010000
00010000
00010000
,  // measure 3
00001000
00001000
00001000
00001000
,  // measure 4
00000220
00000000
00000000
00000330
,  // measure 5
00001000
00010000
00100000
01000000
10000000
00100000
00010000
00001000
,  // measure 6
00000100
00000001
00000010
00000100
00001000
00010000
00010000
00100000
,  // measure 7
01000000
10000000
00100000
01000000
00010000
00100000
00001000
00100000
,  // measure 8
01000000
10000000
00100000
01000000
00001000
00010000
00000010
00001000
,  // measure 9
00000001
00000010
00000100
00001000
00010000
00100000
01000000
10000000
,  // measure 10
00100000
00010000
00100000
00001000
00010000
00100000
01000000
10000000
,  // measure 11
00100000
01000000
00001000
00010000
00100000
00010000
00001000
00000100
,  // measure 12
00000010
00001000
00000001
00000010
00000100
00001000
00010000
01000000
,  // measure 13
01010000
00001000
00100000
00010000
00001000
00000100
00000010
00000001
,  // measure 14
00000000
00000010
00000100
00001000
00010000
00100000
01000000
10000000
,  // measure 15
00000000
00100000
01000000
00001000
00100000
00010000
00001000
00000100
,  // measure 16
00000000
00000010
00000001
00000100
00001000
00010000
00100000
00010000
,  // measure 17
00000000
00100000
00010000
00001000
00100000
00010000
01000000
00010000
,  // measure 18
00000000
00100000
01000000
00001000
00010000
00000100
00000010
00000001
,  // measure 19
00000000
00000010
00000100
00010000
00001000
00000100
00001000
00010000
,  // measure 20
00000000
00010000
01000000
00100000
00022000
00000000
00033000
00000000
,  // measure 21
00001100
00000100
00000010
00000001
00000100
00001000
00010000
00100000
,  // measure 22
00000000
10000000
01000000
00100000
00001000
00010000
01000000
10000000
,  // measure 23
00000000
00100000
01000000
00010000
00001000
00000100
00001000
00000010
,  // measure 24
00000000
00000001
00000100
00001000
00010000
00100000
01000000
10000000
,  // measure 25
00000000
00010000
00100000
01000000
00001000
00010000
00100000
00001000
,  // measure 26
00000000
00010000
00001000
00000100
00000010
00000001
00000100
00001000
,  // measure 27
00000000
00100000
00010000
00001000
00010000
01000000
10000000
00100000
,  // measure 28
01000000
00110000
00022000
00033000
,  // measure 29
00000100
00000010
00000001
00001000
00000010
00010000
00001000
00000100
,  // measure 30
00000010
00000001
00000100
00001000
00010000
00001000
00000010
00000001
,  // measure 31
00000100
00000010
00001000
00000100
00010000
00001000
00100000
00010000
,  // measure 32
01000000
00100000
10000000
01000000
00010000
00001000
00000010
00000001
,  // measure 33
00001000
00000010
00000100
00000001
00000010
00000100
00010000
00001000
,  // measure 34
00000100
00001000
00010000
00100000
01000000
10000000
00100000
01000000
,  // measure 35
00001000
00010000
00000100
00000010
00000001
00001000
00000010
00000100
,  // measure 36
00000001
00000010
00001000
00010000
00100000
10000000
01000000
00100000
,  // measure 37
00220000
00000000
00000000
00330000
,  // measure 38
00020000
00000000
00032000
00000000
,  // measure 39
00003200
00000000
00000320
00000000
,  // measure 40
00000031
00000001
00000001
00000001
00000100
00000100
00000100
00000100
,  // measure 41
00001000
00001000
00001000
00001000
00010000
00010000
00010000
00010000
,  // measure 42
00100000
00100000
00100000
00100000
10000000
10000000
10000000
10000000
,  // measure 43
01000000
00100000
00010000
00001000
00022000
00000000
00000000
00033000
,  // measure 44
00000100
00000010
00000001
00000100
00000010
00001000
00000001
00000010
,  // measure 45
00001000
00010000
00100000
10000000
01000000
00100000
00010000
01000000
,  // measure 46
00100000
10000000
00010000
00100000
00001000
00010000
00000100
00000010
,  // measure 47
00000001
00000100
00001000
00000010
00000100
00010000
00001000
00100000
,  // measure 48
00010000
01000000
00100000
10000000
01000000
00010000
00001000
00000100
,  // measure 49
00000001
00000010
00000100
00010000
00001000
00100000
00010000
01000000
,  // measure 50
00100000
10000000
00010000
00100000
00001000
00010000
00000100
00000010
,  // measure 51
00001000
00000100
00000001
00000100
00000010
00000001
00000100
00001000
,  // measure 52
00022000
00000000
00000000
00000000
,  // measure 53
00000000
00000000
00000000
00000000
,  // measure 54
00033000
00000000
00000000
00000000
;

//---------------dance-double - ----------------
#NOTES:
     dance-double:
     :
     Challenge:
     10:
     0.590,0.768,0.784,0.153,0.085,375.000,92.000,18.000,0.000,0.000:  // measure 1
01100000
00101000
01100000
00101000
,  // measure 2
00011000
00010100
00011000
00010100
,  // measure 3
00001100
00011000
00001100
00011000
,  // measure 4
00000100
00000010
00000100
00000010
00000100
00000010
00000100
00000010
00000100
00000010
00000100
00000010
00000100
00000010
00000100
00000010
,  // measure 5
00001000
00010000
00100000
01000000
10000000
00100000
00010000
00001000
,  // measure 6
00000100
00000001
00000010
00000100
00001000
00010000
00011000
00100000
,  // measure 7
01000000
10000000
00100000
01000000
00010000
00100000
00001000
00100000
,  // measure 8
01000000
10000000
00100000
01000000
00001000
00010000
00010010
00001000
,  // measure 9
00000001
00000010
00000100
00001000
00010000
00100000
01000000
10000000
,  // measure 10
00100000
00010000
00100000
00001000
00010000
00100000
11000000
10000000
,  // measure 11
00100000
01000000
00001000
00010000
00100000
00010000
00001000
00000100
,  // measure 12
00000010
00001000
00000001
00000010
00000100
00001000
00011000
01000000
,  // measure 13
01010000
00101000
00100000
00010000
00001000
00000100
00000010
00000011
,  // measure 14
00000000
00000110
00000100
00001000
00010000
00100000
01000000
11000000
,  // measure 15
00000000
01100000
01000000
00001000
00100000
00010000
00001000
00001100
,  // measure 16
00000000
00000011
00000001
00000100
00001000
00010000
00100000
01010000
,  // measure 17
00000000
01100000
00010000
00001000
00100000
00010000
01000000
10010000
,  // measure 18
00000000
01100000
01000000
00001000
00010000
00000100
00000010
00001001
,  // measure 19
00000000
00001010
00000100
00010000
00001000
00000100
00001000
00011000
,  // measure 20
00000000
00000000
00010000
00100000
01000000
10000000
00100000
00000000
00022000
00000000
00000000
00000000
00033000
00000000
00000000
00000000
,  // measure 21
00001100
00000100
00000010
00000001
00000100
00001000
00010000
00110000
,  // measure 22
00000000
11000000
01000000
00100000
00001000
00010000
01000000
10010000
,  // measure 23
00000000
01100000
01000000
00010000
00001000
00000100
00001000
00010010
,  // measure 24
00000000
00000011
00000100
00001000
00010000
00100000
01000000
10010000
,  // measure 25
00000000
00110000
00100000
01000000
00001000
00010000
00100000
01001000
,  // measure 26
00000000
00110000
00001000
00000100
00000010
00000001
00000100
00011000
,  // measure 27
00000000
01100000
00010000
00001000
00010000
01000000
10000000
10100000
,  // measure 28
01000000
00000000
00110000
00011000
00022000
00000000
00033000
00000000
,  // measure 29
00001100
00000010
00000001
00001000
00000010
00010000
00001000
00000100
,  // measure 30
00000010
00000001
00000100
00001000
00010000
00001000
00000110
00000001
,  // measure 31
00000100
00000010
00001000
00000100
00010000
00001000
00100000
00010000
,  // measure 32
01000000
00100000
10000000
01000000
00010000
00001000
00000110
00000001
,  // measure 33
00001000
00000010
00000100
00000001
00000010
00000100
00010000
00001000
,  // measure 34
00000100
00001000
00010000
00100000
01000000
10000000
10100000
01000000
,  // measure 35
00001000
00010000
00000100
00000010
00000001
00001000
00000010
00000100
,  // measure 36
00000001
00000100
00000001
00000000
00001000
00000100
00001000
00000000
00000100
00010000
00000100
00010000
00001000
00100000
00001000
00000000
,  // measure 37
00220000
00000000
00000000
00330000
,  // measure 38
00022000
00033000
00002200
00003300
,  // measure 39
00000220
00000330
00000022
00000033
,  // measure 40
00000011
00000011
00000011
00000011
00001100
00001100
00001100
00001100
,  // measure 41
00011000
00011000
00011000
00011000
00110000
00110000
00110000
00110000
,  // measure 42
10100000
10100000
10100000
10100000
11000000
11000000
11000000
11000000
,  // measure 43
01100000
00110000
00011000
00001100
00000220
00000000
00000000
00000330
,  // measure 44
00001001
00000010
00000001
00000100
00000010
00001000
00000001
00000010
,  // measure 45
00001000
00010000
00100000
10000000
01000000
00100000
10010000
01000000
,  // measure 46
00100000
10000000
00010000
00100000
00001000
00010000
00000100
00000010
,  // measure 47
00000001
00000100
00001000
00000010
00000100
00010000
00011000
00100000
,  // measure 48
00010000
01000000
00100000
10000000
01000000
00010000
00001000
00000100
,  // measure 49
00000001
00000010
00000100
00010000
00001000
00100000
10010000
01000000
,  // measure 50
00100000
10000000
00010000
00100000
00001000
00010000
00000100
00000010
,  // measure 51
00001000
00000100
00001000
00000000
00000001
00000100
00000001
00000000
00000010
00000100
00001000
00010000
00100000
01000000
10000000
00000000
,  // measure 52
20020000
00000000
00000000
00000000
,  // measure 53
00000000
00000000
00000000
00000000
,  // measure 54
30030000
00000000
00000000
00000000
;

//---------------dance-double - ----------------
#NOTES:
     dance-double:
     :
     Medium:
     8:
     0.394,0.384,0.153,0.222,0.000,280.000,18.000,26.000,0.000,0.000:  // measure 1
00100000
00100000
00100000
00100000
,  // measure 2
00000100
00000100
00000100
00000100
,  // measure 3
00010000
00010000
00010000
00010000
,  // measure 4
00022000
00000000
00000000
00033000
,  // measure 5
00010000
00010000
00010000
00000000
00200000
00000000
02300000
00000000
,  // measure 6
13000000
10000000
10000000
10000000
10000000
00000000
00010000
00000000
,  // measure 7
00001000
00001000
00001000
00000000
00000100
00000100
00000100
00000000
,  // measure 8
00000010
00000010
00000010
00000000
00000002
00000000
00000103
00000000
,  // measure 9
00001000
00001000
00001000
00000000
00010000
00000000
01100000
00000000
,  // measure 10
10000000
10000000
10000000
10000000
20000000
00000000
31000000
00000000
,  // measure 11
00010000
00010000
00010000
00000000
00001000
00001000
00001000
00000000
,  // measure 12
00000100
00000100
00000100
00000100
00000100
00000000
00000011
00000000
,  // measure 13
00000000
00000001
00000001
00000001
00000000
00000010
00000010
00000010
,  // measure 14
00000000
00000100
00000100
00000100
00000000
00001000
00001000
00001000
,  // measure 15
00000000
00010000
00010000
00010000
00000000
00100000
00100000
00100000
,  // measure 16
00000000
10000000
10000000
10000000
10000000
20000000
00000000
30010000
,  // measure 17
00000000
00100000
00100000
00100000
00100000
00100000
00000000
00011000
,  // measure 18
00000000
00000100
00000100
00000100
00000000
00000001
00000001
00000001
,  // measure 19
00000000
00000010
00000010
00000010
00000000
00001000
00001000
00001000
,  // measure 20
00000000
00010000
00010000
00010000
02200000
00000000
03300000
00000000
,  // measure 21
00000000
00100000
00100000
00100000
00000000
10000000
10000000
10000000
,  // measure 22
00000000
00010000
00010000
00010000
00000000
00001000
00001000
00001000
,  // measure 23
00000000
00000100
00000100
00000100
00000000
00000010
00000010
00000010
,  // measure 24
00000000
00000001
00000001
00000001
00000000
00002000
00000000
00013000
,  // measure 25
00000000
00100000
00100000
00100000
00000000
02000000
00000000
03001000
,  // measure 26
00000000
00010000
00010000
00010000
00000000
00000100
00000100
00000100
,  // measure 27
00000000
00000001
00000001
00000001
00000000
00000100
00000100
00000100
,  // measure 28
00001000
00110000
20020000
30030000
,  // measure 29
00100000
00100000
00100000
00000000
01000000
00000000
00011000
00000000
,  // measure 30
00000010
00000010
00000010
00000010
00000020
00000000
00000031
00000000
,  // measure 31
00000100
00000100
00000100
00000000
00002000
00000000
00013000
00000000
,  // measure 32
00100000
00100000
00100000
00100000
00100000
00000000
10010000
00000000
,  // measure 33
00001000
00001000
00001000
00000000
00000200
00000000
00000310
00000000
,  // measure 34
00000001
00000001
00000001
00000001
00000001
00000000
00001100
00000000
,  // measure 35
00010000
00010000
00010000
00000000
00100000
00100000
00100000
00000000
,  // measure 36
00010000
00010000
00010000
00010000
00010000
00000000
00011000
00000000
,  // measure 37
00000022
00000000
00000000
00000033
,  // measure 38
00000020
00000000
00002030
00000000
,  // measure 39
00203000
00000000
20300000
00000000
,  // measure 40
31000000
01000000
01000000
01000000
00100000
00100000
00100000
00100000
,  // measure 41
00010000
00010000
00010000
00010000
00001000
00001000
00001000
00001000
,  // measure 42
00000100
00000100
00000100
00000100
00000010
00000010
00000010
00000010
,  // measure 43
00000001
00000001
00000001
00000001
00022000
00000000
00000000
00033000
,  // measure 44
01000000
01000000
01000000
00000000
00110000
00000000
00011000
00000000
,  // measure 45
00000010
00000010
00000010
00000010
00000010
00000010
00000010
00000000
,  // measure 46
00000001
00000001
00000001
00000000
00001100
00000000
00011000
00000000
,  // measure 47
10000000
10000000
10000000
10000000
10000000
10000000
10000000
00000000
,  // measure 48
00010000
00010000
00010000
00010000
00010000
00010000
00010000
00000000
,  // measure 49
00001000
00001000
00001000
00001000
00001000
00001000
00001000
00000000
,  // measure 50
00000010
00000010
00000010
00000010
00000010
00000010
00000010
00000000
,  // measure 51
01000000
01000000
01000000
01000000
01000000
01000000
01000000
01000000
,  // measure 52
00022000
00000000
00000000
00000000
,  // measure 53
00000000
00000000
00000000
00000000
,  // measure 54
00033000
00000000
00000000
00000000
;

//---------------dance-double - ----------------
#NOTES:
     dance-double:
     :
     Easy:
     6:
     0.247,0.226,0.000,0.153,0.000,185.000,0.000,18.000,0.000,0.000:  // measure 1
00100000
00100000
00100000
00100000
,  // measure 2
00100000
00100000
00100000
00100000
,  // measure 3
00100000
00100000
00100000
00100000
,  // measure 4
00002000
00000000
00000000
00003000
,  // measure 5
00000100
00000010
00000001
00000100
,  // measure 6
00010000
00100000
01000000
10000000
,  // measure 7
00100000
01000000
00001000
00000001
,  // measure 8
00010000
10000000
00100000
00000010
,  // measure 9
00000100
00100000
01000000
10000000
,  // measure 10
00100000
00000100
00000010
00000001
,  // measure 11
00000100
00010000
00100000
01000000
,  // measure 12
10000000
00100000
01000000
00001000
,  // measure 13
00000000
00000001
00000000
00010000
00000000
00001000
00000000
10000000
,  // measure 14
00000000
01000000
00000000
00000100
00000000
00100000
00000000
00000010
,  // measure 15
00000000
00000001
00000000
00001000
00000000
00010000
00000000
10000000
,  // measure 16
00000000
00100000
00000000
01000000
00000000
00000010
00000000
00000100
,  // measure 17
00000000
00001000
00000000
00010000
00000000
00100000
00000000
01000000
,  // measure 18
00000000
10000000
00000000
00100000
00000000
00010000
00000000
00000100
,  // measure 19
00000000
00000001
00000000
00000010
00000000
00001000
00000000
01000000
,  // measure 20
00000000
00100000
00000000
10000000
00020000
00000000
00030000
00000000
,  // measure 21
00000000
10000000
00000000
00010000
00000000
00001000
00000000
00000001
,  // measure 22
00000000
00000010
00000000
00000100
00000000
00001000
00000000
00010000
,  // measure 23
00000000
00100000
00000000
01000000
00000000
10000000
00000000
00100000
,  // measure 24
00000000
01000000
00000000
00001000
00000000
00000100
00000000
00000010
,  // measure 25
00000000
00001000
00000000
00010000
00000000
00100000
00000000
10000000
,  // measure 26
00000000
00010000
00000000
00001000
00000000
00000001
00000000
00010000
,  // measure 27
00000000
00001000
00000000
00100000
00000000
00010000
00000000
01000000
,  // measure 28
00000000
00100000
00020000
00000000
00032000
00000000
00003000
00000000
,  // measure 29
00000100
00000010
00000001
00000100
,  // measure 30
00100000
01000000
10000000
00100000
,  // measure 31
01000000
00000100
00001000
00000010
,  // measure 32
00010000
00001000
00000100
00000010
,  // measure 33
00000001
00000100
00010000
00100000
,  // measure 34
01000000
10000000
00010000
00100000
,  // measure 35
00001000
00010000
00000001
00000100
,  // measure 36
01000000
00100000
00010000
00001000
,  // measure 37
00020000
00000000
00000000
00030000
,  // measure 38
00020000
00000000
02030000
00000000
,  // measure 39
03200000
00000000
20300000
00000000
,  // measure 40
32000000
00000000
03200000
00000000
,  // measure 41
00320000
00000000
00032000
00000000
,  // measure 42
00003200
00000000
00000320
00000000
,  // measure 43
00000032
00000000
00000000
00000000
00000000
00000000
00000000
00000000
00000203
00000000
00000000
00000000
00000000
00000300
00000000
00000000
,  // measure 44
00001000
01000000
00100000
10000000
,  // measure 45
00001000
00010000
00000001
00000010
,  // measure 46
00100000
00001000
00010000
00000100
,  // measure 47
00001000
00010000
00100000
01000000
,  // measure 48
00000100
00001000
00000010
00000100
,  // measure 49
00001000
00010000
00100000
01000000
,  // measure 50
10000000
00010000
00001000
00000001
,  // measure 51
00000010
00000100
00100000
01000000
,  // measure 52
20000000
00000000
00000000
00000000
,  // measure 53
00000000
00000000
00000000
00000000
,  // measure 54
30000000
00000000
00000000
00000000
;
