#TITLE:Brainstorm;
#SUBTITLE:;
#ARTIST:DJ Kambel VS. MC MAGIKA;
#TITLETRANSLIT:;
#SUBTITLETRANSLIT:;
#ARTISTTRANSLIT:;
#CREDIT:;
#BANNER:brainstormbanner.png;
#BACKGROUND:brainstormBG.png;
#LYRICSPATH:;
#CDTITLE:sq3rtitle.png;
#MUSIC:BRAINSTORM.mp3;
#OFFSET:-0.320;
#SAMPLESTART:59.980;
#SAMPLELENGTH:12.000;
#SELECTABLE:YES;
#BPMS:0.000=186.940;
#STOPS:;
#BGCHANGES:;
// cache tags:
#FIRSTBEAT:32.000;
#LASTBEAT:351.000;
#SONGFILENAME:Songs/IzzySM Keyboard Mega Pack/Brainstorm/brainstorm.sm;
#HASMUSIC:1;
#HASBANNER:1;
#MUSICLENGTH:113.319;
// end cache tags

//---------------dance-single - ----------------
#NOTES:
     dance-single:
     :
     Challenge:
     10:
     1.000,1.000,0.812,0.000,1.000,897.000,92.000,0.000,0.000,0.000:
0000
0000
0000
0000
,
0000
0000
0000
0000
,
0000
0000
0000
0000
,
0000
0000
0000
0000
,
0000
0000
0000
0000
,
0000
0000
0000
0000
,
0000
0000
0000
0000
,
0000
0000
0000
0000
,
1000
0100
0010
0001
0010
0100
0010
0100
0010
0001
0010
0100
1000
0010
0100
0001
,
0010
0100
1000
0010
0100
0010
1000
0001
0010
0001
0010
0001
0010
0100
0010
0001
,
0010
0100
1000
0100
0010
0100
1000
0100
0010
0100
0010
0100
0010
0100
1000
0100
,
0010
0001
1000
0010
0100
0001
0010
0100
0010
0100
1000
0100
0010
0001
1000
0010
,
0100
0001
1000
0010
0100
0010
1000
0100
0010
0100
0010
0001
0010
0100
0010
0100
,
1000
0001
0010
0001
1000
0100
1000
0010
0100
0001
0010
0001
1000
0010
1000
0001
,
0100
0001
1000
0010
1000
0010
0100
0001
1000
0001
0100
0001
1000
0001
0100
0001
,
1000
0010
0100
0001
0010
0001
1000
0100
0010
0100
1000
0010
0100
0001
0010
0001
,
1000
0100
0010
0001
0010
0001
1000
0100
1000
0010
0100
0001
1000
0010
0100
0001
,
0010
0100
0010
0001
0100
0010
0100
0001
0010
0100
1000
0100
0010
0100
0010
0100
,
1000
0001
0010
0001
1000
0010
1000
0001
0010
0001
1000
0010
1000
0001
0010
0100
,
1000
0100
0010
0001
1000
0010
0100
0010
0100
0001
1000
0010
0100
0010
1000
0100
,
1000
0001
0010
0100
1000
0100
1000
0001
0010
0001
0100
0010
1000
0001
0100
0010
,
1000
0100
0010
0100
1000
0010
0100
0001
1000
0100
0010
0001
0010
0100
0010
0100
,
1000
0001
1000
0001
0100
0010
0100
0010
1000
0100
1000
0001
0100
0001
0100
0001
,
0100
0010
1000
0001
0100
0010
1000
0100
0010
0001
0100
0010
0100
0001
0010
0100
,
1000
0010
0100
0010
1000
0100
0010
0001
1000
0001
0010
0100
0010
0001
1000
0001
,
0010
0100
0010
0001
1000
0100
0010
0100
1000
0100
0010
0001
0010
0100
0010
0100
,
0010
0001
1000
0100
0010
0001
1000
0100
0010
0001
0010
0100
0010
0001
0010
0100
,
1000
0100
1000
0001
1000
0100
1000
0010
1000
0100
1000
0001
1000
0100
0010
0001
,
0010
0100
0010
0001
1000
0010
1000
0001
0100
0001
1000
0100
1000
0001
0010
0001
,
0010
0100
1000
0100
1000
0100
0010
0001
0100
0010
1000
0100
0010
0001
0100
0010
,
1000
0100
0010
0001
0010
0100
0010
0001
1000
0001
0100
0010
1000
0100
1000
0001
,
0010
0100
1000
0100
1000
0001
0100
0010
1000
0010
0100
0001
0010
0100
0010
0001
,
0100
0010
1000
0100
1000
0001
0100
0010
1000
0100
1000
0001
0010
0100
0010
0001
,
1000
0100
1000
0001
0010
0001
1000
0100
1000
0001
0010
0001
0100
0010
1000
0100
,
1000
0010
0100
0001
0010
0001
0100
0010
1000
0100
1000
0100
0010
0001
0010
0100
,
1000
0100
1000
0010
0100
0010
0100
0001
0010
0001
0010
0100
0010
0100
1000
0100
,
0010
0001
1000
0010
0100
0010
0100
0001
1000
0001
1000
0010
0100
0010
1000
0001
,
0010
0001
1000
0001
0010
0001
1000
0001
0010
0001
1000
0001
0100
0010
0100
0010
,
1000
0100
0010
0001
1000
0100
0010
0001
0010
0100
0010
0001
0010
0100
1000
0001
,
0010
0100
1000
0100
0010
0100
0010
0001
0010
0001
1000
0001
1000
0001
0010
0100
,
1000
0001
1000
0000
0100
0001
0100
0000
0010
0001
0010
0000
0001
1000
0001
0000
,
0010
1000
0010
0000
0100
1000
0100
0000
1000
0001
1000
0000
0100
0001
0100
0000
,
0010
0001
0010
0000
0001
1000
0001
0000
0010
1000
0010
0000
0100
1000
0100
0000
,
1000
0001
1000
0000
0100
0001
0100
0000
0010
0001
0010
0000
0001
1000
0001
0000
,
0010
1000
0010
0000
0100
1000
0100
0000
1000
0001
1000
0000
0100
0001
0100
0000
,
0010
0001
0010
0000
0001
1000
0001
0000
0010
1000
0010
0000
0100
1000
0100
0000
,
1000
0001
1000
0000
0100
0001
0100
0000
0010
0001
0010
0000
0001
1000
0001
0000
,
0010
1000
0010
0000
0100
1000
0100
0000
1000
0001
1000
0000
0100
0001
0100
0000
,
0010
0001
0010
0000
0001
1000
0001
0000
0010
1000
0010
0000
0100
1000
0100
0000
,
1000
0001
1000
0000
0100
0001
0100
0000
0010
0001
0010
0000
0001
1000
0001
0000
,
0010
1000
0010
0000
0100
1000
0100
0000
1000
0001
1000
0000
0100
0001
0100
0000
,
0010
0001
0010
0000
0001
1000
0001
0000
0010
1000
0010
0000
0100
1000
0100
0000
,
1000
0001
1000
0000
0100
0001
0100
0000
0010
0001
0010
0000
0001
1000
0001
0000
,
0010
1000
0010
0000
0100
1000
0100
0000
1000
0001
1000
0000
0100
0001
0100
0000
,
0010
0001
0010
0100
1000
0001
1000
0000
0010
1000
0010
0000
0100
1000
0100
0000
,
0001
1000
0001
0000
1000
0001
1000
0000
0001
1000
0001
0000
1000
0000
0001
0000
,
1001
0000
0110
0000
1001
0000
1000
0100
,
0011
0000
1100
0000
0001
0010
0100
1000
,
0101
0000
1010
0000
1001
0000
0001
0010
,
1100
0000
0101
0000
1010
0010
0100
0100
,
0110
0000
1001
0000
0110
0000
0010
1000
,
0101
0000
1010
0000
0100
0001
1000
0010
,
1100
0000
0011
0000
0110
0000
0100
0001
,
1010
0000
1100
0000
0011
0001
1000
1000
,
1001
0000
0110
0000
1001
0000
1000
0100
,
0011
0000
1100
0000
0001
0010
0100
1000
,
0101
0000
1010
0000
1001
0000
0001
0010
,
1100
0000
0101
0000
1010
0010
0100
0100
,
0110
0000
1001
0000
0110
0000
0010
1000
,
0101
0000
1010
0000
0100
0001
1000
0010
,
1100
0000
0011
0000
0110
0000
0100
0001
,
1010
0000
1100
0000
0011
0001
1000
1000
,
0101
1100
0000
1010
0000
0110
0010
1001
,
0000
0101
0000
1010
0000
1100
0100
0101
,
0000
0110
0000
1001
0000
1001
0010
1100
,
0000
0110
0000
1001
0000
0110
0000
0011
,
0000
1010
0000
1001
0000
1001
0100
0110
,
0000
1001
0110
0101
0110
1001
0010
0110
,
0000
1001
0000
0101
0000
1001
0000
1010
,
0000
0110
0000
1010
0000
0110
0000
0011
,
0000
1100
0000
1010
0000
1100
0010
0011
,
0000
0110
0000
0101
0000
0110
0100
0110
,
0000
1010
0000
1010
0000
1001
0010
1100
,
0000
0000
1100
0000
0100
0000
0010
0000
0000
0100
0000
0000
0010
0000
1000
0001
,
1000
0000
0001
0000
1000
0001
1000
0001
,
1000
0001
1000
0001
1000
0001
1000
0001
,
1000
0001
1000
0001
1000
0001
1000
0001
1000
0001
1000
0001
1000
0001
1000
0001
,
1000
0001
1000
0001
1000
0001
1000
0001
1000
0001
1000
0001
1000
0000
0000
0000
;
