#TITLE:The Creator;
#SUBTITLE:I challenge u to play X-mode here;
#ARTIST:Yousei Teikoku;
#TITLETRANSLIT:;
#SUBTITLETRANSLIT:;
#ARTISTTRANSLIT:;
#CREDIT:;
#BANNER:bn.jpg;
#BACKGROUND:bg.jpg;
#LYRICSPATH:;
#CDTITLE:bombastik.png;
#MUSIC:The Creator.ogg;
#OFFSET:-0.400;
#SAMPLESTART:99.960;
#SAMPLELENGTH:12.000;
#SELECTABLE:YES;
#BPMS:0.000=140.000,20.000=280.000,84.000=140.000,85.000=420.000,86.500=140.000,88.000=280.000,90.000=140.000,91.000=420.000,92.500=140.000,94.000=280.000,96.000=140.000,97.000=420.000,98.500=140.000,101.000=420.000,104.000=140.000,106.000=280.000,140.000=140.000,141.000=420.000,142.500=140.000,144.000=280.000,146.000=140.000,147.000=420.000,148.500=140.000,150.000=280.000,152.000=140.000,153.000=420.000,154.500=140.000,156.000=280.000,158.000=140.000,161.000=280.000,163.000=140.000,167.500=280.000,169.000=140.000,173.250=280.000,175.000=140.000,179.000=280.000,180.750=140.000,185.500=280.000,186.500=140.000,187.000=140.000,190.000=280.000,222.000=350.000,223.750=140.000,225.000=350.000,226.750=140.000,228.000=350.000,229.750=140.000,231.000=350.000,232.750=140.000,234.000=280.000,242.000=350.000,244.000=140.000,245.500=280.000,249.000=140.000,257.000=280.000,337.000=140.000,343.500=280.000,346.500=140.000,350.500=280.000,353.500=140.000,356.000=280.000,388.000=140.000,389.000=420.000,390.750=140.000,393.000=420.000,394.750=140.000,399.250=420.000,400.750=140.000,404.250=420.000,405.750=140.000,408.750=280.000,416.750=420.000,419.500=280.000,427.500=420.000,430.250=280.000,448.750=420.000,451.000=140.000,452.750=210.000,453.500=280.000,487.500=420.000,489.750=140.000,490.000=140.000,491.000=420.000,493.250=140.000,493.500=140.000,494.500=420.000,494.750=420.000,496.750=140.000,497.000=140.000,498.000=420.000,500.250=140.000,501.500=280.000,509.500=420.000,513.500=280.000;
#STOPS:352.500=0.060
,408.750=0.040
,419.500=0.040
,430.250=0.040
,438.250=0.080
,509.500=0.100
,511.000=0.100
,512.500=0.100
;
#BGCHANGES:;
// cache tags:
#FIRSTBEAT:4.000;
#LASTBEAT:549.500;
#SONGFILENAME:Songs/FUCK ANIME PACK/The Creator/The Creator.sm;
#HASMUSIC:1;
#HASBANNER:1;
#MUSICLENGTH:165.379;
// end cache tags

//---------------dance-single - Blank----------------
#NOTES:
     dance-single:
     Blank:
     Beginner:
     12:
     1.000,1.000,1.000,1.000,0.511,930.000,577.000,188.000,0.000,126.000:

0000
0000
0000
0000
,
1000
0001
0010
0000
1100
0000
0011
0000
0000
0000
0000
0000
0000
0000
0000
0000
,
0100
0010
0100
0000
0011
0000
1100
0000
0000
0000
0000
0000
1100
0000
0000
0000
,
0111
1000
0010
0000
1001
0000
1100
0000
0000
0000
0000
0000
0000
0000
0000
0000
,
0101
0000
0010
0000
1100
0000
0001
0000
0000
0000
0000
0000
0001
0100
0010
0001
,
1110
0100
0011
0100
1110
0010
1100
0010
,
0111
0100
1100
0110
0222
0000
0000
0333
,
1100
0000
0011
0000
1100
0000
0022
0000
0000
0033
0000
0000
1101
0000
0000
0000
0000
0000
0111
0000
0000
0000
0000
0000
,
1011
0100
0011
0100
2220
0000
0000
3330
,
1110
0100
0011
0010
1100
0001
0110
0100
,
1100
0000
0000
0110
0000
0000
0011
0000
0000
0110
0000
0000
1100
0000
0011
0000
1100
0000
0011
0000
0000
0000
0000
0000
,
1101
1100
1110
1001
,
0011
0000
0000
0110
0000
0000
1100
0000
0000
0110
0000
0000
0111
0000
1000
0000
0100
0000
0010
0000
0100
0000
1000
0000
,
0111
1110
1110
1110
,
1110
0011
0110
1100
0222
0000
0000
0333
,
1101
0100
0011
0010
1100
0010
0101
1000
,
0111
0110
0011
0110
2220
0000
0000
3330
,
1110
0010
0101
0100
1011
0010
1001
0100
,
0111
0000
0000
1000
0000
0000
0010
0000
0000
0100
0000
0000
1100
0000
0011
0000
1100
0000
0011
0000
0000
0000
0000
0000
,
1110
1010
0111
0101
,
1110
0000
0000
0011
0000
0000
0110
0000
0000
1100
0000
0000
0111
0000
1000
0000
0100
0000
0010
0000
0100
0000
1000
0000
,
0011
0000
0010
0000
2200
0000
3300
0000
0000
0000
0011
1100
0000
0110
1001
0000
,
1100
0110
0011
0110
1100
0011
0220
0330
,
0000
0000
1001
0110
0000
0011
1100
0000
0001
0000
0010
0000
0100
0000
0010
0000
,
1001
0000
0011
0000
2200
0000
3300
0000
0000
0000
0011
1100
0000
0110
0011
1000
,
0100
0010
0100
0010
2002
0000
0000
0000
0000
3003
0220
0000
0000
0000
0000
0330
,
2200
3300
0011
2200
0000
3301
0110
0000
1100
0000
0011
0000
0011
0000
0110
0000
,
1110
0100
0011
0100
1011
0010
1100
0001
,
1110
0011
0110
1100
2220
0000
0000
3330
,
0111
0100
1100
0001
1101
0010
0011
0100
,
1110
0110
0011
0110
2220
0000
0000
3330
,
0111
1000
0011
0100
1010
0001
0110
1000
,
0011
0000
0000
0110
0000
0000
1100
0000
0000
0110
0000
0000
0111
0000
1000
0000
0100
0000
0010
0000
0100
0000
0010
0000
,
1101
0100
1010
0001
1110
1000
0011
0100
,
1110
0000
0000
1100
0000
0000
0110
0000
0000
0011
0000
0000
0111
0000
1000
0000
0100
0000
1000
0000
0100
0000
0010
0000
,
1101
0000
0100
0000
2002
0000
3003
0000
0000
0000
0110
1001
0000
0110
1001
0010
,
0100
0010
0100
1000
0110
0100
0022
0033
,
0000
0000
1100
0110
0000
0022
0000
0033
1100
0000
0000
0000
0110
0000
0000
0000
,
1100
0000
0010
0000
2200
0000
3300
0000
0000
0000
0011
1100
0000
0011
1100
0010
,
0001
0000
0100
0000
0010
0000
1000
0000
0011
0000
1100
0000
0101
0000
0010
2200
,
0000
0001
3310
0000
1000
0000
0001
0000
0100
0000
0010
0000
1000
0001
0110
0000
,
1100
0011
1100
0101
0110
0110
0111
2200
,
0000
0000
3300
0000
0000
0011
0000
0110
0000
1100
0000
1001
0000
1110
0000
0011
,
0000
0110
0000
0110
0000
2200
0000
0000
3300
0000
0000
0000
0111
0000
1100
0000
,
0001
0110
0110
1001
1100
0011
0220
0000
,
0330
0000
0111
1100
0011
0011
0110
1001
,
0110
0000
1100
0000
1100
0000
2200
0000
0000
0000
3300
0011
1100
0000
0110
1001
,
0000
1100
0011
0000
1100
0110
0011
0110
1001
0000
0100
0000
0010
0000
0100
0000
,
1011
0100
0001
1000
0100
0010
0001
1000
,
0111
0100
0001
1000
0010
0100
0001
1000
,
0111
1000
0010
0100
0001
1000
0010
0100
,
1011
1000
0010
1000
0001
0100
1000
0010
,
1101
0010
0001
1000
0100
0001
0010
0100
,
1011
0100
0001
1000
0010
0100
0010
0001
,
1110
0001
0100
1000
0010
0100
0001
0010
,
1101
0000
0010
0000
1000
0000
0001
0000
2220
0000
0000
0000
0000
3330
0000
0222
,
0000
0333
0011
0110
2202
0000
0000
0000
0000
0000
3303
2220
0000
3330
0011
0110
,
2202
0000
0000
0000
0000
0000
3303
2220
0000
3330
0011
0110
2202
0000
0000
0000
,
0000
0000
3303
2220
0000
3330
0011
0110
2101
0000
0010
0000
0001
0000
0100
0000
,
0011
3100
0001
0100
1010
0100
0001
1000
,
0011
0000
0100
0000
1000
0000
0001
0000
2220
0000
0000
0000
0000
0000
0000
3330
,
0022
0000
0033
1100
0000
0000
0000
0000
0011
0000
0110
0000
1100
0000
0110
0000
,
0011
0110
1000
0001
0200
0300
0002
0003
,
0200
0000
0000
0000
2302
0000
0000
0000
3003
0000
0000
0000
0100
0000
0000
0001
,
0000
1000
0011
1000
0110
0001
1110
0000
,
0100
1011
0000
0010
1101
0000
0011
0110
,
1101
0000
0110
0001
1100
0010
1101
0000
,
0010
1101
0000
0001
1110
0000
0011
0110
,
2200
3300
0111
1000
0101
0010
1100
0001
,
1110
0001
0101
1000
0110
0100
2002
0000
,
3003
0000
0000
0000
0000
0000
0011
0000
1100
0000
0011
0000
1100
0000
0000
0001
0000
0000
0110
0000
0000
1000
0000
0000
,
0101
0010
1100
0001
0101
0010
2202
0000
,
3303
0000
1101
0010
0101
1000
0011
0010
,
1100
0110
0011
0110
1100
0110
0222
0000
,
0333
0000
1110
0001
0111
1000
1101
0010
,
0111
1000
0101
0010
1001
0100
0011
2000
,
3002
0203
2322
3133
0011
0100
1010
0100
,
1100
0001
0110
1000
0011
0110
2220
0000
,
3330
0000
0000
0000
0000
0000
0011
0000
1100
0000
0011
0000
1100
0000
0000
0001
0000
0000
0110
0000
0000
1000
0000
0000
,
0101
1000
0011
0100
1100
0010
2202
0000
,
3303
0000
1101
0100
0011
0100
1001
0010
,
1100
0010
0011
0110
1100
0011
2220
0000
,
3330
0000
0111
1000
0101
0010
1100
0001
,
0110
0000
0000
1000
0000
0000
0101
0000
0000
0010
0000
0000
1100
0000
0000
0010
0000
0000
1100
0000
0011
0000
1100
0000
,
0011
0000
0000
0000
1100
0000
0000
0000
0011
0000
0000
0000
1100
0000
0000
0000
0000
0000
0011
0000
0000
0000
0000
0000
0110
0000
0000
0000
0000
0000
1001
0000
0000
0110
0000
0000
0000
0000
0000
1000
0000
0000
0110
0000
0000
0001
0000
0000
,
1010
0100
0011
1000
0011
0000
0110
0000
1001
0000
0110
1100
0000
1100
0012
0000
,
0000
0003
1000
0000
0010
0000
0100
0000
1000
0000
0011
0000
0011
0000
2200
3300
,
0011
1100
0000
0001
1010
0000
0100
1000
0101
0010
2200
0000
0000
3300
0220
0000
,
0000
0330
0022
0000
0000
0033
1100
0022
0000
0133
1000
0000
0001
0100
0010
1000
,
0111
0100
1001
0010
0101
0010
1100
0001
,
1110
0000
0000
0100
0000
0000
0011
0000
0000
0110
0000
0000
2220
0000
0000
0000
0000
0000
3330
0000
0000
0000
1000
0000
,
0100
0000
0010
0000
0001
0000
1100
0000
0000
0010
0000
0000
0101
0000
0000
1000
0000
0000
0110
0000
0000
0100
0000
0000
,
0011
0110
1100
0110
0222
0000
0333
0000
,
1011
0100
0011
1000
0101
0010
0110
0100
,
0011
0110
1100
0110
0222
0000
0333
0000
,
1110
0111
0111
1110
,
1110
0000
0000
0010
0000
0000
1100
0000
0000
0001
0000
0000
1100
0000
0001
0000
0010
0000
0100
0000
0010
0000
0100
0000
,
1001
0000
0110
0000
2200
0000
3300
0000
0000
0000
0000
0011
1100
0000
0110
1001
,
0100
0010
0001
0010
2200
0000
3300
0000
0000
0000
0000
0011
0000
0220
0330
1001
,
0110
0000
2000
0000
3000
0001
1010
0100
1001
0110
0000
1100
0000
0022
0000
0033
,
0000
0000
0000
1100
0011
0000
0110
1001
0110
1000
0011
0100
1010
0101
0000
0110
,
0000
2200
3300
0000
0000
0000
0000
0011
2200
3300
0110
1001
0010
0100
0011
1100
,
0011
1100
0000
0011
0000
0000
0000
0110
0000
0000
0000
1100
0000
0000
0000
0110
,
0000
0000
0000
1001
0000
0000
0000
1100
0000
0000
0000
1100
0000
0000
0000
0011
,
0000
1000
0000
0220
0000
0330
0000
0000
0000
0000
0000
0000
0000
0000
1001
0000
,
0000
0110
0000
1100
0000
1100
0000
0011
,
0000
0110
0000
1001
0000
1001
0000
0220
,
0330
0000
0000
0000
0000
0000
0000
0000
0000
1100
0000
0000
0000
0011
0000
0000
,
0000
1100
0000
0000
0000
1001
0000
0000
0000
0011
0000
0000
0000
0011
0000
0000
,
0000
1100
0000
0001
0000
1100
0000
0000
0000
0011
0000
0000
0000
1000
0000
0010
,
0000
0000
0000
1100
0000
0000
0000
0011
0000
0000
0000
0110
0000
0000
0000
1100
,
0000
0000
0000
1001
0000
0000
0000
0110
0000
0000
0000
1100
0000
0000
0000
1100
,
0000
0000
0000
2100
0000
0000
0000
0000
0000
0000
0000
0000
0010
0101
0000
0010
,
3101
0000
0010
0101
0000
0000
1100
0000
0001
0000
0100
0000
0010
0000
1101
0000
,
0010
1100
0001
0110
0100
0011
1000
0101
,
0010
1100
0001
1001
0100
0011
1000
0022
,
0033
0000
0220
0330
0000
2200
3300
0101
,
0010
0000
0110
0000
1000
0000
0011
0000
0110
0000
1100
0000
0110
0000
0222
0333
,
1000
0101
0010
1100
0100
0011
0010
1001
,
0010
1100
0001
0110
1000
0101
0010
1010
,
1000
0011
0100
1001
0010
2200
0000
3300
,
0000
0000
0000
0001
0110
1000
0011
2220
,
0000
0000
3330
0000
0000
0000
0000
0022
0033
0000
0011
0110
2220
0000
0000
0000
,
3330
0000
0000
0000
0000
0022
0033
0000
0011
0110
2220
0000
0000
0000
3330
0000
,
0000
0000
0000
0022
0033
0000
0011
0110
2220
0000
0000
0000
3330
0000
0000
0000
,
0000
0022
0033
0000
0011
0110
2110
0000
0001
0000
0110
0000
3001
0000
1100
0000
,
0010
0101
1000
0011
0100
1001
0010
1100
,
0001
0110
1000
0011
0000
0000
1100
0000
,
0000
0011
0000
1100
0001
0110
1000
0011
,
0100
0000
0011
0000
0001
0000
2202
3303
0010
0000
1001
0000
0100
0000
0011
0000
,
1000
0110
0100
1010
1000
0101
0010
0110
,
1000
0000
0011
0000
0100
0000
2022
3033
0100
0000
1100
0000
0001
0000
1100
0000
,
0010
0101
1000
0011
0100
1001
0010
0110
,
0001
1010
0100
1101
0000
0010
0100
1011
,
0000
0100
1011
0000
0010
1101
0000
1100
,
0110
0011
0000
1110
0000
0001
0010
1101
,
0000
0010
1101
0000
0010
1101
0000
0011
,
0110
1100
0110
0110
0000
0000
0000
0000
;
