#TITLE:Last Boss Battle Theme #2;
#SUBTITLE:;
#ARTIST:Reone662;
#TITLETRANSLIT:;
#SUBTITLETRANSLIT:;
#ARTISTTRANSLIT:;
#CREDIT:SulferDragon;
#BANNER:Last Boss Battle-banner.png;
#BACKGROUND:Last Boss Battle-bg.png;
#LYRICSPATH:;
#CDTITLE:!SulferDragon.png;
#MUSIC:Last Boss Battle Theme #2.mp3;
#OFFSET:-0.494;
#SAMPLESTART:42.563;
#SAMPLELENGTH:18.000;
#SELECTABLE:YES;
#BPMS:0.000=119.840;
#STOPS:;
#BGCHANGES:;
// cache tags:
#FIRSTBEAT:4.000;
#LASTBEAT:180.000;
#SONGFILENAME:Songs/KBU/Last Boss Battle Theme #2 (SulferDragon)/Last Boss Battle Theme #2.sm;
#HASMUSIC:1;
#HASBANNER:1;
#MUSICLENGTH:99.892;
// end cache tags

//---------------dance-single - ----------------
#NOTES:
     dance-single:
     :
     Challenge:
     12:
     1.000,1.000,1.000,1.000,1.000,588.000,228.000,140.000,0.000,98.000:
0000
0000
0000
0000
,
2020
3030
0000
0000
0000
0000
0100
0000
0000
0000
0000
0000
1000
0000
0000
1000
0000
0000
0000
0000
0000
0100
0000
0000
0000
0000
0000
0010
0000
0000
0100
0000
0000
0000
0000
0000
1000
0000
0000
0000
0000
0000
0100
0000
0000
0000
0000
0000
,
1000
0000
0100
0000
1000
1000
0000
0100
0000
0010
0100
0000
1000
0000
0100
0000
,
2020
3030
0000
0000
0000
0000
0100
0000
0000
0000
0000
0000
1000
0000
0000
1000
0000
0000
0000
0000
0000
0100
0000
0000
0000
0000
0000
0010
0000
0000
0100
0000
0000
0000
0000
0000
1000
0000
0000
0000
0000
0000
0100
0000
0000
0000
0000
0000
,
1000
0000
0000
0000
0000
0000
0000
0000
0100
0000
0000
0000
0000
0000
0000
0000
1000
0000
0000
0000
1000
0000
0000
0000
0000
0000
0000
0000
0100
0000
0000
0000
0000
0000
0000
0001
0110
0000
0000
0000
0100
0000
0000
0000
0010
0000
0000
0000
1000
0000
0100
0000
0010
0000
0001
0000
1100
0000
0000
0000
0000
0000
0000
0000
,
2021
3030
0000
0000
0000
0000
0100
0000
0000
0000
0000
0000
1010
0000
0000
1000
0000
0000
0000
0000
0000
0101
0000
0000
0000
0000
0000
0011
0000
0000
0110
0000
0000
0000
0000
0000
1100
0000
0000
0000
0000
0000
0110
0000
0000
0000
0000
0000
,
1010
0000
0100
0000
1010
1000
0000
0101
0000
0011
0110
0000
1100
0000
0110
0000
,
2020
3030
0000
0000
0000
0000
0100
0000
0000
0000
0000
0000
1010
0000
0000
1000
0000
0000
0000
0000
0000
0101
0000
0000
0000
0000
0000
0011
0000
0000
0110
0000
0000
0000
0000
0000
1100
0000
0000
0000
0000
0000
0110
0000
0000
0000
0000
0000
,
1010
0000
0100
0000
1010
1000
0000
0101
0000
0011
0110
0000
1100
0000
0110
0100
,
2021
3030
0000
0001
0000
0000
0010
0000
0000
0100
0000
0000
1010
0000
0000
1000
0000
0000
0010
0000
0000
0101
0000
0000
1000
0000
0000
0011
0000
0000
0110
0000
0000
0001
0000
0000
1100
0000
0000
0000
0000
0000
0110
0000
0000
0100
0000
0000
,
1010
0001
0010
0100
1010
1000
0010
0101
1000
0011
0110
0001
1100
0000
0110
0100
,
2020
3030
0000
0001
0000
0000
0010
0000
0000
0100
0000
0000
1010
0000
0000
1000
0000
0000
0010
0000
0000
0101
0000
0000
1000
0000
0000
0011
0000
0000
0110
0000
0000
0001
0000
0000
1100
0000
0000
0000
0000
0000
0110
0000
0000
0100
0000
0000
,
1010
0000
0001
0000
0010
0000
0100
0000
1010
0000
1000
0000
0001
0000
0100
0010
0101
0000
1000
0000
1010
0000
0100
0010
1100
0011
0100
0010
1001
0000
0100
0000
,
2011
0001
0110
0000
0000
0001
0110
0010
0100
0100
0110
0001
0000
0001
0110
0010
,
0100
0000
0100
0000
0110
0000
0000
0000
0000
0000
0100
0000
0110
0000
0010
3000
1000
0000
1000
0000
0110
0000
0100
0000
0000
0000
0100
0000
0110
0000
0010
0000
,
1101
0001
0110
0000
0000
0001
0110
0010
0100
0100
0110
0001
0000
0001
0110
0010
,
0100
0000
0100
0000
0110
0000
0000
0000
0000
0000
0100
0000
0110
0000
0010
0000
1000
0000
1000
0000
0110
0000
0100
0000
2000
3000
0200
0300
0120
0030
0002
0003
,
1201
0001
1010
0000
0300
0001
1010
0010
0200
1000
1010
0001
0300
0001
1010
0010
,
0200
0000
0001
0000
1010
0000
0000
0000
0300
0000
0100
0000
1010
0000
0010
0000
0200
0000
1000
0000
1010
0000
0001
0000
0300
0000
0200
0300
1020
0030
0002
0003
,
1201
0001
1010
0000
0300
0001
1010
0010
0200
1000
1010
0001
0300
0001
1010
0010
,
0200
0001
1010
0000
0300
0101
0101
0101
1011
1011
1011
0000
0000
0000
0000
0000
,
1002
0010
1100
0023
0100
1000
0231
0010
1300
0010
0102
1000
0023
1000
0231
0010
,
2300
0000
0100
0000
0011
0000
3200
0000
0010
0000
0001
0000
1320
0000
0001
0000
0230
0000
1000
0000
0311
1000
0200
0320
0032
0000
0100
0000
1010
0000
0100
0003
,
1002
0010
1100
0023
0100
1000
0231
0010
1300
0010
0102
1000
0023
1000
0231
0010
,
2311
0000
3010
0000
1200
0000
1321
0000
0130
0000
2010
0000
3112
0000
0000
0000
0000
0000
1000
0000
0100
0000
0010
0000
0010
0100
0010
0000
0010
0000
0010
0003
,
1002
0010
1100
0023
0100
1000
0231
0010
1300
0010
0102
1000
0023
1000
0231
0010
,
2300
0000
0100
0000
0011
0000
3200
0000
0010
0000
0001
0000
1320
0000
0001
0000
0230
0000
1000
0000
0311
1000
0200
0320
0032
0000
0100
0000
1010
0000
0100
0003
,
1002
0010
1100
0023
0100
1000
0231
0010
1300
0010
0102
1000
0023
1000
0231
0010
,
2311
0000
0000
0000
0000
0000
0000
0000
0000
0000
0000
0000
3010
0000
0000
0000
0000
0000
0000
0000
0000
0000
0000
0000
1200
0000
0000
0000
0000
0000
0000
0000
0000
0000
0000
0000
1321
0000
0000
0000
0000
0000
0000
0000
0000
0000
0000
0000
0130
0000
0000
0000
0000
0000
0000
0000
0000
0000
0000
0000
2010
0000
0000
0000
0000
0000
0000
0000
0000
0000
0000
0000
3112
0000
0000
0000
0000
0000
0000
0000
0000
0000
0000
0000
0000
0000
0000
0000
0000
0000
0000
0000
0000
0000
0000
0000
0000
0000
0000
0000
0000
0000
0000
0000
0000
0000
0000
0000
1000
0000
0000
0000
0000
0000
0000
0000
0000
0000
0000
0000
0100
0000
0000
0000
0000
0000
0000
0000
0000
0000
0000
0000
0010
0000
0000
0000
0000
0000
0000
0000
0000
0000
0000
0000
0010
0000
0000
0000
0000
0000
0100
0000
0000
0000
0000
0000
0010
0000
0000
0000
0000
0000
0000
0000
0000
0000
0000
0000
0010
0000
0000
0000
0000
0000
0000
0000
0000
0000
0000
0000
0010
0003
0000
0000
0000
0000
0000
0000
0000
0000
0000
0000
,
1011
0000
0101
0000
0110
0000
1110
0000
1100
0000
0110
0000
1021
0000
0000
0000
0000
0000
0000
0000
0001
0000
0000
0000
0001
0000
0000
0000
0001
0000
0000
0030
,
1011
0000
0110
0000
1100
0000
1110
0000
1100
0000
0101
0000
2011
0000
0000
0000
0000
0000
0000
0000
0010
0000
0000
0000
0010
0000
0000
0000
0010
0000
0000
3000
,
1011
0000
0101
0000
0110
0000
1110
0000
1100
0000
0110
0000
1021
0000
0000
0000
0000
0000
0000
0000
0001
0000
0000
0000
0001
0000
0000
0000
0001
0000
0000
0030
,
2011
0000
3010
0000
1200
0000
1321
0000
0130
0000
2010
0000
3112
0000
0000
0000
0000
0000
1000
0000
0100
0000
0010
0000
0010
0100
0010
0000
0010
0000
0010
0003
,
1002
0010
1100
0023
0100
1000
0231
0010
1300
0010
0102
1000
0023
1000
0231
0010
,
2300
0000
0100
0000
0011
0000
3200
0000
0010
0000
0001
0000
1320
0000
0001
0000
0230
0000
1000
0000
0311
1000
0200
0320
0032
0000
0100
0000
1010
0000
0100
0003
,
1002
0010
1100
0023
0100
1000
0231
0010
1300
0010
0102
1000
0023
1000
0231
0010
,
2311
0000
3010
0000
1200
0000
1321
0000
0130
0000
2010
0000
3112
0000
0000
0000
0000
0000
1000
0000
0100
0000
0010
0000
0010
0100
0010
0000
0010
0000
0010
0003
,
1002
0010
1100
0023
0100
1000
0231
0010
1300
0010
0102
1000
0023
1000
0231
0010
,
2300
0000
0100
0000
0011
0000
3200
0000
0010
0000
0001
0000
1320
0000
0001
0000
0230
0000
1000
0000
0311
1000
0200
0320
0032
0000
0100
0000
1010
0000
0100
0003
,
1002
0010
1100
0023
0100
1000
0231
0010
1300
0010
0102
1000
0023
1000
0231
0010
,
2311
0000
0000
0000
0000
0000
0000
0000
0000
0000
0000
0000
3010
0000
0000
0000
0000
0000
0000
0000
0000
0000
0000
0000
1200
0000
0000
0000
0000
0000
0000
0000
0000
0000
0000
0000
1321
0000
0000
0000
0000
0000
0000
0000
0000
0000
0000
0000
0130
0000
0000
0000
0000
0000
0000
0000
0000
0000
0000
0000
2010
0000
0000
0000
0000
0000
0000
0000
0000
0000
0000
0000
3112
0000
0000
0000
0000
0000
0000
0000
0000
0000
0000
0000
0000
0000
0000
0000
0000
0000
0000
0000
0000
0000
0000
0000
0000
0000
0000
0000
0000
0000
0000
0000
0000
0000
0000
0000
1000
0000
0000
0000
0000
0000
0000
0000
0000
0000
0000
0000
0100
0000
0000
0000
0000
0000
0000
0000
0000
0000
0000
0000
0010
0000
0000
0000
0000
0000
0000
0000
0000
0000
0000
0000
0010
0000
0000
0000
0000
0000
0100
0000
0000
0000
0000
0000
0010
0000
0000
0000
0000
0000
0000
0000
0000
0000
0000
0000
0010
0000
0000
0000
0000
0000
0000
0000
0000
0000
0000
0000
0010
0003
0000
0000
0000
0000
0000
0000
0000
0000
0000
0000
,
1011
0000
0101
0000
0110
0000
1110
0000
1100
0000
0110
0000
1021
0000
0000
0000
0000
0000
0000
0000
0001
0000
0000
0000
0001
0000
0000
0000
0001
0000
0000
0030
,
1011
0000
0110
0000
1100
0000
1110
0000
1100
0000
0101
0000
2011
0000
0000
0000
0000
0000
0000
0000
0010
0000
0000
0000
0010
0000
0000
0000
0010
0000
0000
3000
,
1011
0000
0101
0000
0110
0000
1110
0000
1100
0000
0110
0000
1021
0000
0000
0000
0000
0000
0000
0000
0001
0000
0000
0000
0001
0000
0000
0000
0001
0000
0000
0030
,
2011
0000
3010
0000
1200
0000
1321
0000
0130
0000
2010
0000
3112
0000
0000
0000
0000
0000
0000
0000
0020
0000
0000
0000
0000
0000
0000
0000
0000
0000
0000
0033
,
1001
0000
0000
0000
;

//---------------dance-single - ----------------
#NOTES:
     dance-single:
     :
     Hard:
     11:
     1.000,1.000,1.000,1.000,0.976,481.000,181.000,103.000,0.000,24.000:
0000
0000
0000
0000
,
1010
0000
0100
0000
1000
1000
0000
0100
0000
0010
0100
0000
1000
0000
0100
0000
,
1000
0000
0100
0000
1000
1000
0000
0100
0000
0010
0100
0000
1000
0000
0100
0000
,
1010
0000
0100
0000
1000
1000
0000
0100
0000
0010
0100
0000
1000
0000
0100
0000
,
1000
0000
0000
0000
0100
0000
0000
0000
1000
0000
1000
0000
0000
0000
0100
0000
0000
0000
0011
0000
0100
0000
0010
0000
1000
0001
1000
0001
1100
0000
0000
0000
,
1010
0000
0100
0000
1010
1000
0000
0101
0000
0011
0110
0000
1100
0000
0110
0000
,
1010
0000
0100
0000
1010
1000
0000
0101
0000
0011
0110
0000
1100
0000
0110
0000
,
1010
0000
0100
0000
1010
1000
0000
0101
0000
0011
0110
0000
1100
0000
0110
0000
,
1010
0000
0100
0000
1010
1000
0000
0101
0000
0011
0110
0000
1100
0000
0110
0100
,
1010
0001
0010
0100
1010
1000
0010
0101
1000
0011
0110
0001
1100
0000
0110
0100
,
1010
0001
0010
0100
1010
1000
0010
0101
1000
0011
0110
0001
1100
0000
0110
0100
,
1010
0001
0010
0100
1010
1000
0010
0101
1000
0011
0110
0001
1100
0000
0110
0100
,
1010
0000
0001
0000
0010
0000
0100
0000
1010
0000
1000
0000
0000
0000
0100
0010
0100
0000
0001
0000
1010
0000
0100
0010
0100
0001
0100
0010
1001
0000
0000
0000
,
1001
0001
0110
0000
0000
0001
0110
0010
0100
0100
0110
0001
0000
0001
0110
0010
,
0100
0100
0110
0000
0000
0100
0110
0010
1000
1000
0110
0100
0000
0100
0110
0010
,
0101
0001
0110
0000
0000
0001
0110
0010
0100
0100
0110
0001
0000
0001
0110
0010
,
0100
0000
0100
0000
0110
0000
0000
0000
0000
0000
0100
0000
0110
0000
0010
0000
1000
0000
1000
0000
0110
0000
0100
0000
2000
3000
0200
0300
0120
0030
0002
0003
,
0201
0301
1010
0000
0000
0001
1010
0010
0200
1300
1010
0001
0000
0001
1010
0010
,
0200
0000
0301
0000
1010
0000
0000
0000
0000
0000
0100
0000
1010
0000
0010
0000
0200
0000
1300
0000
1010
0000
0100
0000
0000
0000
0200
0300
1020
0030
0002
0003
,
0201
0301
1010
0000
0000
0001
1010
0010
0200
1300
1010
0001
0000
0001
1010
0010
,
0200
0301
1010
0000
0000
0101
0101
0101
1001
1001
1001
0000
0000
0000
0000
0000
,
1002
0000
0100
0023
0000
0000
0231
0000
0300
0000
0102
0000
0023
0000
0231
0000
,
2300
0000
0000
0000
0010
0000
3200
0000
0000
0000
0000
0000
1320
0000
0000
0000
0230
0000
0000
0000
1300
0000
0200
0320
0032
0000
0000
0000
0100
0000
0000
0003
,
1002
0000
0100
0023
0000
0000
0231
0000
0300
0000
0102
0000
0023
0000
0231
0000
,
1301
0000
0010
0000
1100
0000
1001
0000
0100
0000
1001
0000
0102
0000
0000
0000
0000
0000
1000
0000
0103
0000
0010
0000
0010
0100
0010
0000
0010
0000
0010
0000
,
1002
0000
0100
0023
0000
0000
0231
0000
0300
0000
0102
0000
0023
0000
0231
0000
,
2300
0000
0000
0000
0010
0000
3200
0000
0000
0000
0000
0000
1320
0000
0000
0000
0230
0000
0000
0000
1300
0000
0200
0320
0032
0000
0000
0000
0100
0000
0000
0003
,
1002
0000
0100
0023
0000
0000
0231
0000
0300
0000
0102
0000
0023
0000
0231
0000
,
1301
0000
0010
0000
1100
0000
1001
0000
0100
0000
1001
0000
0102
0000
0000
0000
0000
0000
1000
0000
0103
0000
0010
0000
0010
0100
0010
0000
0010
0000
0010
0000
,
1001
0000
0001
0000
0010
0000
1100
0000
0010
0000
0001
0000
0021
0000
0000
0000
0000
0000
0000
0000
0001
0000
0000
0000
0001
0000
0000
0000
0001
0000
0000
0030
,
1010
0000
0100
0000
0001
0000
1100
0000
0001
0000
0100
0000
2010
0000
0000
0000
0000
0000
0000
0000
0010
0000
0000
0000
0010
0000
0000
0000
0010
0000
0000
3000
,
1001
0000
0001
0000
0010
0000
1100
0000
0010
0000
0001
0000
0021
0000
0000
0000
0000
0000
0000
0000
0001
0000
0000
0000
0001
0000
0000
0000
0001
0000
0000
0030
,
1001
0000
0010
0000
1100
0000
1001
0000
0100
0000
1001
0000
0102
0000
0000
0000
0000
0000
1000
0000
0103
0000
0010
0000
0010
0100
0010
0000
0010
0000
0010
0000
,
1002
0000
0100
0023
0000
0000
0231
0000
0300
0000
0102
0000
0023
0000
0231
0000
,
2300
0000
0000
0000
0010
0000
3200
0000
0000
0000
0000
0000
1320
0000
0000
0000
0230
0000
0000
0000
1300
0000
0200
0320
0032
0000
0000
0000
0100
0000
0000
0003
,
1002
0000
0100
0023
0000
0000
0231
0000
0300
0000
0102
0000
0023
0000
0231
0000
,
1301
0000
0010
0000
1100
0000
1001
0000
0100
0000
1001
0000
0102
0000
0000
0000
0000
0000
1000
0000
0103
0000
0010
0000
0010
0100
0010
0000
0010
0000
0010
0000
,
1002
0000
0100
0023
0000
0000
0231
0000
0300
0000
0102
0000
0023
0000
0231
0000
,
2300
0000
0000
0000
0010
0000
3200
0000
0000
0000
0000
0000
1320
0000
0000
0000
0230
0000
0000
0000
1300
0000
0200
0320
0032
0000
0000
0000
0100
0000
0000
0003
,
1002
0000
0100
0023
0000
0000
0231
0000
0300
0000
0102
0000
0023
0000
0231
0000
,
1301
0000
0010
0000
1100
0000
1001
0000
0100
0000
1001
0000
0102
0000
0000
0000
0000
0000
1000
0000
0103
0000
0010
0000
0010
0100
0010
0000
0010
0000
0010
0000
,
1001
0000
0001
0000
0010
0000
1100
0000
0010
0000
0001
0000
0021
0000
0000
0000
0000
0000
0000
0000
0001
0000
0000
0000
0001
0000
0000
0000
0001
0000
0000
0030
,
1010
0000
0100
0000
0001
0000
1100
0000
0001
0000
0100
0000
2010
0000
0000
0000
0000
0000
0000
0000
0010
0000
0000
0000
0010
0000
0000
0000
0010
0000
0000
3000
,
1001
0000
0001
0000
0010
0000
1100
0000
0010
0000
0001
0000
0021
0000
0000
0000
0000
0000
0000
0000
0001
0000
0000
0000
0001
0000
0000
0000
0001
0000
0000
0030
,
1001
0000
0010
0000
1100
0000
1001
0000
0100
0000
1001
0000
0102
0000
0000
0000
0000
0000
0000
0000
0020
0000
0000
0000
0000
0000
0000
0000
0000
0000
0000
0033
,
1001
0000
0000
0000
;

//---------------dance-single - ----------------
#NOTES:
     dance-single:
     :
     Edit:
     13:
     1.000,1.000,1.000,1.000,1.000,635.000,263.000,225.000,0.000,145.000:
0000
0000
0000
0000
,
1020
0030
0000
0000
0000
0000
0000
0000
0100
0000
0000
0000
0020
0030
0000
0000
1000
0000
0000
0000
1000
0000
0000
0000
0020
0030
0000
0000
0100
0000
0000
0000
0000
0000
0000
0000
0020
0030
0000
0000
0100
0000
0000
0000
0000
0000
0000
0000
2000
3000
0000
0000
0000
0000
0000
0000
0200
0300
0000
0000
0000
0000
0000
0000
,
2000
3000
0000
0000
0000
0000
0000
0000
0100
0000
0000
0000
0020
0030
0000
0000
1000
0000
0000
0000
1000
0000
0000
0000
0020
0030
0000
0000
0100
0000
0000
0000
0000
0000
0000
0000
0020
0030
0000
0000
0100
0000
0000
0000
0000
0000
0000
0000
2000
3000
0000
0000
0000
0000
0000
0000
0200
0300
0000
0000
0000
0000
0000
0000
,
2010
3000
0000
0000
0000
0000
0000
0000
0100
0000
0000
0000
0020
0030
0000
0000
1000
0000
0000
0000
1000
0000
0000
0000
0020
0030
0000
0000
0100
0000
0000
0000
0000
0000
0000
0000
0020
0030
0000
0000
0100
0000
0000
0000
0000
0000
0000
0000
2000
3000
0000
0000
0000
0000
0000
0000
0200
0300
0000
0000
0000
0000
0000
0000
,
2000
3000
0000
0000
0000
0000
0000
0000
0100
0000
0000
0000
0020
0030
0000
0000
1000
0000
0000
0000
1000
0000
0000
0000
0020
0030
0000
0000
0100
0000
0000
0000
0000
0000
0000
0001
0120
0030
0000
0000
0100
0000
0000
0000
0010
0000
0000
0000
2000
3000
0100
0000
0010
0000
0001
0000
1210
0300
0000
0000
0000
0000
0000
0000
,
2011
3000
0000
0000
0000
0000
0000
0000
0100
0000
0000
0000
0002
0003
0000
0000
1010
0000
0000
0000
1000
0000
0000
0000
0020
0030
0000
0000
0101
0000
0000
0000
0000
0000
0000
0000
0012
0003
0000
0000
0110
0000
0000
0000
0000
0000
0000
0000
2100
3000
0000
0000
0000
0000
0000
0000
0210
0300
0000
0000
0000
0000
0000
0000
,
2010
3000
0000
0000
0000
0000
0000
0000
0100
0000
0000
0000
0002
0003
0000
0000
1010
0000
0000
0000
1000
0000
0000
0000
0020
0030
0000
0000
0101
0000
0000
0000
0000
0000
0000
0000
0012
0003
0000
0000
0110
0000
0000
0000
0000
0000
0000
0000
2100
3000
0000
0000
0000
0000
0000
0000
0210
0300
0000
0000
0000
0000
0000
0000
,
2010
3000
0000
0000
0000
0000
0000
0000
0100
0000
0000
0000
0002
0003
0000
0000
1010
0000
0000
0000
1000
0000
0000
0000
0020
0030
0000
0000
0101
0000
0000
0000
0000
0000
0000
0000
0012
0003
0000
0000
0110
0000
0000
0000
0000
0000
0000
0000
2100
3000
0000
0000
0000
0000
0000
0000
0210
0300
0000
0000
0000
0000
0000
0000
,
2010
0000
0000
3000
0000
0000
0000
0000
0000
0000
0000
0000
0000
0000
0000
0000
0000
0000
0000
0000
0000
0000
0000
0000
0100
0000
0000
0000
0000
0000
0000
0000
0000
0000
0000
0000
0002
0000
0000
0003
0000
0000
0000
0000
0000
0000
0000
0000
1010
0000
0000
0000
0000
0000
0000
0000
0000
0000
0000
0000
1000
0000
0000
0000
0000
0000
0000
0000
0000
0000
0000
0000
0020
0000
0000
0030
0000
0000
0000
0000
0000
0000
0000
0000
0101
0000
0000
0000
0000
0000
0000
0000
0000
0000
0000
0000
0000
0000
0000
0000
0000
0000
0000
0000
0000
0000
0000
0000
0012
0000
0000
0003
0000
0000
0000
0000
0000
0000
0000
0000
0110
0000
0000
0000
0000
0000
0000
0000
0000
0000
0000
0000
0000
0000
0000
0000
0000
0000
0000
0000
0000
0000
0000
0000
2100
0000
0000
3000
0000
0000
0000
0000
0000
0000
0000
0000
0000
0000
0000
0000
0000
0000
0000
0000
0000
0000
0000
0000
0120
0000
0000
0000
0030
0000
0000
0000
0000
0000
0000
0000
0200
0000
0000
0000
0300
0000
0000
0000
0000
0000
0000
0000
,
1021
0030
0000
0002
0003
0000
0020
0030
0000
0200
0300
0000
1010
0000
0000
1000
0000
0000
0020
0030
0000
0201
0300
0000
2000
3000
0000
0021
0030
0000
0210
0300
0000
0002
0003
0000
1100
0000
0000
0000
0000
0000
0120
0030
0000
0200
0300
0000
,
1020
0030
0000
0002
0003
0000
0020
0030
0000
0200
0300
0000
1010
0000
0000
1000
0000
0000
0020
0030
0000
0201
0300
0000
2000
3000
0000
0021
0030
0000
0210
0300
0000
0002
0003
0000
1100
0000
0000
0000
0000
0000
0120
0030
0000
0200
0300
0000
,
1020
0030
0000
0002
0003
0000
0020
0030
0000
0200
0300
0000
1010
0000
0000
1000
0000
0000
0020
0030
0000
0201
0300
0000
2000
3000
0000
0021
0030
0000
0210
0300
0000
0002
0003
0000
1100
0000
0000
0000
0000
0000
0120
0030
0000
0200
0300
0000
,
1020
0000
0000
0000
0030
0000
0000
0000
0000
0000
0000
0000
0002
0000
0000
0000
0003
0000
0000
0000
0000
0000
0000
0000
0020
0000
0000
0000
0030
0000
0000
0000
0000
0000
0000
0000
0200
0000
0000
0000
0300
0000
0000
0000
0000
0000
0000
0000
1010
0000
0000
0000
0000
0000
0000
0000
0000
0000
0000
0000
1000
0000
0000
0000
0000
0000
0000
0000
0000
0000
0000
0000
0020
0000
0000
0000
0030
0000
0000
0000
0000
0000
0000
0000
0200
0000
0000
0000
0300
0000
0001
0000
0000
0000
0000
0000
2010
0000
0000
3000
0000
0000
0000
0000
0000
0000
0000
0000
0020
0000
0000
0030
0000
0000
0000
0000
0000
0000
0000
0000
0201
0000
0000
0300
0000
0000
0000
0000
0000
0000
0000
0000
0002
0000
0000
0003
0000
0000
1000
0000
0000
0000
0000
0000
0110
0000
0000
0000
0000
0000
0110
0000
0000
0000
0000
0000
0002
0000
0000
0000
0003
0000
1000
0000
0000
0000
0000
0000
0021
0000
0000
0000
0030
0000
0000
0000
0000
0000
0000
0000
0200
0000
0000
0000
0300
0000
0000
0000
0000
0000
0000
0000
,
2011
0001
0110
0000
0010
0001
0110
0010
0100
0100
0110
0001
0010
0001
0110
0010
,
0100
0000
0100
0000
0110
0000
0000
0000
0010
0000
0100
0000
0110
0000
0010
3000
1000
0000
1000
0000
0110
0000
0100
0000
0010
0000
0100
0000
0110
0000
0010
0000
,
1101
0001
0110
0000
0010
0001
0110
0010
0100
0100
0110
0001
0010
0001
0110
0010
,
0100
0000
0100
0000
0110
0000
0000
0000
0010
0000
0100
0000
0110
0000
0010
0000
1000
0000
1000
0000
0110
0000
0100
0000
2000
3000
0200
0300
0120
0030
0002
0003
,
1201
0001
1010
0000
0310
0001
1010
0010
0200
1000
1010
0001
0310
0001
1010
0010
,
0200
0000
0001
0000
1010
0000
0000
0000
0310
0000
0100
0000
1010
0000
0010
0000
0200
0000
1000
0000
1010
0000
0001
0000
1300
0000
0200
0300
1020
0030
0002
0003
,
1201
0001
1010
0000
0310
0001
1010
0010
0200
1000
1010
0001
0310
0001
1010
0010
,
0200
0001
1010
0000
0310
1101
1101
1101
1111
1111
1111
0000
0000
0000
0000
0000
,
1102
0010
1100
0023
0100
1000
0231
0010
1300
0010
0102
1000
0023
1000
0231
0010
,
2300
0000
0100
0000
0011
0000
3200
0000
0010
0000
0001
0000
1320
0000
0001
0000
0230
0000
1000
0000
0311
1000
0200
0320
0032
0000
0100
0000
1010
0000
0100
0003
,
1102
0010
1100
0023
0100
1000
0231
0010
1300
0010
0102
1000
0023
1000
0231
0010
,
2311
0000
3010
0000
1200
0000
1321
0000
0130
0000
2010
0000
3112
0000
0000
0000
0000
0000
0100
0000
1010
0000
0110
0000
0110
0110
0110
0000
0110
0000
0110
0003
,
1102
0010
1100
0023
0100
1000
0231
0010
1300
0010
0102
1000
0023
1000
0231
0010
,
2300
0000
0100
0000
0011
0000
3200
0000
0010
0000
0001
0000
1320
0000
0001
0000
0230
0000
1000
0000
0311
1000
0200
0320
0032
0000
0100
0000
1010
0000
0100
0003
,
1102
0010
1100
0023
0100
1000
0231
0010
1300
0010
0102
1000
0023
1000
0231
0010
,
2311
0000
0000
0000
0000
0000
0000
0000
0000
0000
0000
0000
3010
0000
0000
0000
0000
0000
0000
0000
0000
0000
0000
0000
1200
0000
0000
0000
0000
0000
0000
0000
0000
0000
0000
0000
1321
0000
0000
0000
0000
0000
0000
0000
0000
0000
0000
0000
0130
0000
0000
0000
0000
0000
0000
0000
0000
0000
0000
0000
2010
0000
0000
0000
0000
0000
0000
0000
0000
0000
0000
0000
3112
0000
0000
0000
0000
0000
0000
0000
0000
0000
0000
0000
0000
0000
0000
0000
0000
0000
0000
0000
0000
0000
0000
0000
0000
0000
0000
0000
0000
0000
0000
0000
0000
0000
0000
0000
0100
0000
0000
0000
0000
0000
0000
0000
0000
0000
0000
0000
1010
0000
0000
0000
0000
0000
0000
0000
0000
0000
0000
0000
0110
0000
0000
0000
0000
0000
0000
0000
0000
0000
0000
0000
0110
0000
0000
0000
0000
0000
0110
0000
0000
0000
0000
0000
0110
0000
0000
0000
0000
0000
0000
0000
0000
0000
0000
0000
0110
0000
0000
0000
0000
0000
0000
0000
0000
0000
0000
0000
0110
0003
0000
0000
0000
0000
0000
0000
0000
0000
0000
0000
,
1011
0000
0101
0000
0110
0000
1110
0000
1100
0000
0110
0000
1021
0000
0000
0000
0000
0000
0000
0000
0001
0000
0000
0000
0001
0000
0000
0000
0001
0000
0000
0030
,
1011
0000
0110
0000
1100
0000
1110
0000
1100
0000
0101
0000
2011
0000
0000
0000
0000
0000
0000
0000
0010
0000
0000
0000
0010
0000
0000
0000
0010
0000
0000
3000
,
1011
0000
0101
0000
0110
0000
1110
0000
1100
0000
0110
0000
1021
0000
0000
0000
0000
0000
0000
0000
0001
0000
0000
0000
0001
0000
0000
0000
0001
0000
0000
0030
,
2011
0000
3010
0000
1200
0000
1321
0000
0130
0000
2010
0000
3112
0000
0000
0000
0000
0000
0100
0000
1010
0000
0110
0000
0110
0110
0110
0000
0110
0000
0110
0003
,
1102
0010
1100
0023
0100
1000
0231
0010
1300
0010
0102
1000
0023
1000
0231
0010
,
2300
0000
0100
0000
0011
0000
3200
0000
0010
0000
0001
0000
1320
0000
0001
0000
0230
0000
1000
0000
0311
1000
0200
0320
0032
0000
0100
0000
1010
0000
0100
0003
,
1102
0010
1100
0023
0100
1000
0231
0010
1300
0010
0102
1000
0023
1000
0231
0010
,
2311
0000
3010
0000
1200
0000
1321
0000
0130
0000
2010
0000
3112
0000
0000
0000
0000
0000
0100
0000
1010
0000
0110
0000
0110
0110
0110
0000
0110
0000
0110
0003
,
1102
0010
1100
0023
0100
1000
0231
0010
1300
0010
0102
1000
0023
1000
0231
0010
,
2300
0000
0100
0000
0011
0000
3200
0000
0010
0000
0001
0000
1320
0000
0001
0000
0230
0000
1000
0000
0311
1000
0200
0320
0032
0000
0100
0000
1010
0000
0100
0003
,
1102
0010
1100
0023
0100
1000
0231
0010
1300
0010
0102
1000
0023
1000
0231
0010
,
2311
0000
0000
0000
0000
0000
0000
0000
0000
0000
0000
0000
3010
0000
0000
0000
0000
0000
0000
0000
0000
0000
0000
0000
1200
0000
0000
0000
0000
0000
0000
0000
0000
0000
0000
0000
1321
0000
0000
0000
0000
0000
0000
0000
0000
0000
0000
0000
0130
0000
0000
0000
0000
0000
0000
0000
0000
0000
0000
0000
2010
0000
0000
0000
0000
0000
0000
0000
0000
0000
0000
0000
3112
0000
0000
0000
0000
0000
0000
0000
0000
0000
0000
0000
0000
0000
0000
0000
0000
0000
0000
0000
0000
0000
0000
0000
0000
0000
0000
0000
0000
0000
0000
0000
0000
0000
0000
0000
0100
0000
0000
0000
0000
0000
0000
0000
0000
0000
0000
0000
1010
0000
0000
0000
0000
0000
0000
0000
0000
0000
0000
0000
0110
0000
0000
0000
0000
0000
0000
0000
0000
0000
0000
0000
0110
0000
0000
0000
0000
0000
0110
0000
0000
0000
0000
0000
0110
0000
0000
0000
0000
0000
0000
0000
0000
0000
0000
0000
0110
0000
0000
0000
0000
0000
0000
0000
0000
0000
0000
0000
0110
0003
0000
0000
0000
0000
0000
0000
0000
0000
0000
0000
,
1011
0000
0101
0000
0110
0000
1110
0000
1100
0000
0110
0000
1021
0000
0000
0000
0000
0000
0000
0000
0001
0000
0000
0000
0001
0000
0000
0000
0001
0000
0000
0030
,
1011
0000
0110
0000
1100
0000
1110
0000
1100
0000
0101
0000
2011
0000
0000
0000
0000
0000
0000
0000
0010
0000
0000
0000
0010
0000
0000
0000
0010
0000
0000
3000
,
1011
0000
0101
0000
0110
0000
1110
0000
1100
0000
0110
0000
1021
0000
0000
0000
0000
0000
0000
0000
0001
0000
0000
0000
0001
0000
0000
0000
0001
0000
0000
0030
,
2011
0000
0000
0000
0000
0000
0000
0000
0000
0000
0000
0000
3010
0000
0000
0000
0000
0000
0000
0000
0000
0000
0000
0000
1200
0000
0000
0000
0000
0000
0000
0000
0000
0000
0000
0000
1321
0000
0000
0000
0000
0000
0000
0000
0000
0000
0000
0000
0130
0000
0000
0000
0000
0000
0000
0000
0000
0000
0000
0000
2010
0000
0000
0000
0000
0000
0000
0000
0000
0000
0000
0000
3112
0000
0000
0000
0000
0000
0000
0000
0000
0000
0000
0000
0000
0000
0000
0000
0000
0000
0000
0000
0000
0000
0000
0000
0000
0000
0000
0000
0000
0000
0000
0000
0000
0000
0000
0000
0000
0000
0000
0000
0000
0000
0000
0000
0000
0000
0000
0000
0010
0000
0000
0000
0100
0000
0000
0000
0010
0000
0000
0000
0100
0000
0000
0000
0010
0000
0000
0000
0100
0000
0000
0000
0010
0000
0000
0000
0100
0000
0000
0000
0010
0000
0000
0000
0100
0000
0000
0000
0010
0000
0000
0000
0100
0000
0000
0000
0010
0000
0000
0000
0100
0000
0000
0000
0010
0000
0000
0000
0100
0000
0000
0000
0010
0000
0003
0000
0100
0000
0000
0000
,
1001
0000
0000
0000
;
