#TITLE:St. Scarhand;
#SUBTITLE:;
#ARTIST:AKIMO;
#TITLETRANSLIT:;
#SUBTITLETRANSLIT:;
#ARTISTTRANSLIT:;
#CREDIT:;
#BANNER:../banner.png;
#BACKGROUND:../bg.png;
#LYRICSPATH:;
#CDTITLE:;
#MUSIC:St Scarhand.ogg;
#OFFSET:-0.035;
#SAMPLESTART:44.053;
#SAMPLELENGTH:21.520;
#SELECTABLE:YES;
#BPMS:0.000=179.914,292.000=89.957,308.000=179.914,372.000=89.957,399.000=179.914;
#STOPS:;
#BGCHANGES:;
// cache tags:
#FIRSTBEAT:4.000;
#LASTBEAT:503.000;
#SONGFILENAME:Songs/Cirque du Lykan/St. Scarhand - [Zaia]/St Scarhand.sm;
#HASMUSIC:1;
#HASBANNER:1;
#MUSICLENGTH:185.234;
// end cache tags

//---------------dance-single - Zaia - 15(low) FS----------------
#NOTES:
     dance-single:
     Zaia - 15(low) FS:
     Challenge:
     15:
     1.000,1.000,0.146,0.918,1.000,1822.000,27.000,170.000,9.000,0.000:
0000
0000
0000
0000
,
1000
0010
0100
0001
1000
0010
1000
0001
0100
0010
1000
0010
1000
0001
1000
0100
,
0010
0001
0010
0100
1000
0001
0010
0001
1000
0100
0010
0100
1000
0001
1000
0001
,
1000
0010
0100
0010
1000
0001
0100
0001
1000
0010
0100
0010
1000
0001
1000
0001
,
0010
0100
0010
0001
1000
0100
0010
0001
1000
0001
0010
0100
1000
0001
1000
0001
,
1000
0010
0100
0010
1000
0001
0100
0010
1000
0001
1000
0010
0100
0001
1000
0001
,
1000
0100
0010
0001
0010
0100
1000
0001
0010
0001
1000
0010
0100
0001
1000
0001
,
1000
0010
0100
0010
1000
0001
0100
0010
1000
0010
0100
0010
1000
0001
1000
0001
,
1000
0100
0010
0100
1000
0001
0010
0100
0010
0001
1000
0010
0100
0001
1000
0010
,
1000
0010
0100
0001
1000
0010
1000
0001
0100
0010
1000
0001
1000
0001
1000
0010
,
1000
0001
0010
0100
1000
0001
0010
0001
1000
0100
0010
0100
1000
0001
1000
0001
,
1000
0010
0100
0010
1000
0001
0100
0001
1000
0010
0100
0010
1000
0001
1000
0001
,
0010
0100
0010
0001
1000
0100
0010
0001
1000
0001
0010
0100
1000
0001
1000
0001
,
1000
0010
0100
0010
1000
0001
0100
0010
1000
0001
1000
0010
0100
0001
1000
0001
,
1000
0100
0010
0001
0010
0100
1000
0001
0010
0001
1000
0010
0100
0001
1000
0001
,
1000
0100
0010
0001
0010
0100
1000
0100
0010
0100
1000
0001
0100
0010
0100
0001
,
1000
0010
0100
0001
1000
0100
0010
0001
0100
0010
0100
0001
0010
0100
1000
0010
,
0100
0001
1000
0100
1000
0001
0100
0010
1000
0001
0010
0001
0100
0010
0100
0001
,
1000
0100
1000
0001
1000
0100
0010
0001
0100
0010
1000
0001
0010
0100
0010
0001
,
1000
0100
1000
0010
1000
0001
0010
0100
1000
0001
0100
0001
0010
0100
0010
0001
,
1000
0010
1000
0001
1000
0010
0100
0001
0010
0100
1000
0001
0100
0010
0100
0001
,
1000
0010
1000
0100
1000
0001
0100
0010
1000
0001
0010
0001
0100
0010
0100
0001
,
1000
0100
1000
0001
1000
0100
0010
0001
0100
0010
1000
0001
0010
0100
0010
0001
,
1000
0100
1000
0010
1000
0001
0010
0100
1000
0001
0100
0001
0010
0100
0010
0001
,
1000
0010
1000
0001
1000
0010
0100
0001
1000
0100
0100
0001
0100
0100
1000
0001
,
0100
0001
1000
0100
1000
0001
0100
0010
1000
0001
0010
0001
0100
0010
0100
0001
,
1000
0100
1000
0001
1000
0100
0010
0001
0100
0010
1000
0001
0010
0100
0010
0001
,
1000
0100
1000
0010
1000
0001
0010
0100
1000
0001
0100
0001
0010
0100
0010
0001
,
1000
0010
1000
0001
1000
0010
0100
0001
0010
0100
1000
0001
0100
0010
0100
0001
,
1000
0010
1000
0100
1000
0001
0100
0010
1000
0001
0010
0001
0100
0010
0100
0001
,
1000
0100
1000
0001
1000
0100
0010
0001
0100
0010
1000
0001
0010
0100
0010
0001
,
1000
0100
1000
0010
1000
0001
0010
0100
1000
0001
0100
0001
0010
0100
0010
0001
,
1000
0010
0010
0001
0010
0010
1000
0100
0100
0001
0100
0100
1000
0100
0010
0001
,
1000
0000
1000
0100
0010
0100
1000
0001
1000
0010
1000
0001
1000
0100
0010
0001
,
0010
0100
0010
0001
1000
0001
0100
0001
1000
0001
0010
0001
1000
0001
0010
0100
,
0010
0000
0010
0001
0010
0100
0010
0001
0010
0100
1000
0010
1000
0100
0010
0100
,
1000
0100
0010
0001
0010
0100
1000
0100
0010
0100
1000
0001
0010
0001
1000
0010
,
0100
0000
0000
0000
0000
0000
0000
0000
0020
0000
0000
0000
0000
0000
0000
0000
MM0M
0000
0000
0000
0000
0000
0000
0000
0000
0000
0000
0000
0000
0000
0000
0030
MM2M
0000
0000
0000
0000
0000
0000
0000
0000
0000
0000
0000
0000
0000
0000
0000
MM0M
0000
0000
0000
0000
0000
0000
0030
0010
0000
0000
0000
0100
0000
0000
0000
,
0001
0100
0010
0100
0001
0100
0010
1000
0010
0100
0010
1000
0001
0010
0001
1000
,
0001
0100
0010
1000
0001
0010
0100
1000
0001
0100
0010
1000
0001
0010
0100
1000
,
0010
0100
0001
0010
0100
1000
0100
0010
0001
0100
0010
1000
0001
0100
0010
0100
,
0002
0003
0000
0000
1000
0000
0000
0000
0001
0000
0100
0000
0002
0000
0003
0000
2000
0000
3000
0000
0010
0000
0200
0000
0300
0000
0001
0000
2000
0000
3000
0000
,
0200
0000
0310
0000
0000
0000
0001
1000
0100
1000
0001
0100
0010
1000
0001
0000
,
2000
0000
3010
0000
1000
0100
1000
0100
0010
0100
0010
0100
2000
0000
0000
0000
,
3002
0000
0000
0000
0000
0000
0000
0000
0000
0000
0000
0000
0000
0000
0000
0000
0003
0000
0000
0000
0000
0000
0000
0000
1000
0000
0000
0000
0001
0000
0000
0000
0100
0000
0000
0000
0001
0000
0000
0000
0100
0000
0000
0000
0010
0000
0000
0000
1000
0000
0000
0000
0010
0000
0000
0000
1000
0000
0000
0000
0002
0003
0000
0000
,
0200
0300
0000
0000
0000
0000
0000
0000
0001
0000
0000
0000
0000
0000
0000
0000
1000
0000
0000
0000
0100
0000
0000
0000
1000
0000
0000
0000
0001
0000
0000
0000
0010
0000
0000
0000
0001
0000
0000
0000
1000
0000
0000
0000
0010
0000
0000
0000
0100
0000
0000
0000
0010
0000
0000
0000
1000
0000
0000
0000
0000
0000
0000
0000
,
0002
0000
1000
0000
0003
0000
0001
0100
0010
1000
0010
0100
0001
1000
0100
0010
,
0001
0000
1000
0000
0001
0010
0001
0010
0100
0000
0010
0001
0000
1000
0001
0000
,
1000
0010
0100
0001
0010
0100
1000
0010
1000
0100
0010
0001
0100
0010
2000
0000
,
0000
0000
3001
0010
0100
0010
0001
1000
0010
0100
0001
0010
0001
1000
0100
1000
,
0010
0100
0001
0010
0001
1000
0100
0010
0001
1000
0001
0100
0010
1000
0001
1000
,
0100
0010
0001
0100
0001
0010
0100
1000
0010
0100
0001
0010
0001
0100
0010
1000
,
0001
1000
0100
1000
0100
0010
0100
0010
0001
1000
0001
0100
0001
1000
0010
1000
,
0001
0010
0100
1000
0001
0100
0010
1000
0100
0010
0001
0100
0010
1000
0100
1000
,
0010
0100
0001
0010
0100
1000
0010
1000
0001
1000
0100
1000
0001
1000
0010
0100
,
0010
1000
0100
1000
0001
0100
0001
1000
0010
1000
0001
0010
0001
1000
0010
1000
,
0001
0010
0001
1000
0001
0100
0001
0010
0001
1000
0010
1000
0001
1000
0100
0010
,
0001
0200
0000
0000
0000
0000
0310
1000
,
0001
0100
0010
1000
0001
0010
0100
1000
0001
0100
0010
0100
0001
0100
0010
0100
,
0001
1000
0100
0010
0001
0100
0010
1000
0010
0100
0001
0010
0100
1000
0010
0100
,
0001
0010
0001
0100
0001
1000
0010
1000
0100
1000
0001
0100
0001
0010
0001
1000
,
0010
0100
0010
1000
0100
0010
0001
0100
0001
0010
0100
1000
0010
0100
0001
0010
,
0100
0010
0001
1000
0010
0100
0001
1000
0100
0010
0001
1000
0001
0100
0010
0100
,
0001
0010
0010
1000
0001
0010
0010
1000
0001
0100
0100
1000
0001
0100
0100
1000
,
0001
0000
1000
0010
0000
1000
0010
0000
1000
0000
0010
0000
1000
0000
0010
1000
,
0001
0010
0100
0010
0001
0010
0100
0010
0001
0010
0100
0010
0001
0010
0100
0010
,
0001
0100
0001
1000
0001
0010
0001
1000
0001
0100
0001
1000
0001
0010
0001
1000
,
0010
0100
0010
1000
0010
0100
0010
1000
0010
0100
0010
1000
0010
0100
0010
1000
,
0001
1000
0100
1000
0010
1000
0001
1000
0010
0100
0001
0100
0010
0100
0001
1000
,
0001
0100
0001
0010
0001
1000
0001
0100
0001
0010
0001
1000
0001
0100
0001
1000
,
0100
0010
0100
1000
0100
0010
0100
1000
0100
0010
0100
1000
0100
0010
0100
1000
,
0001
0100
0001
1000
0001
0010
0001
0100
0001
1000
0001
0010
0001
0100
0001
1000
,
0001
0100
0001
0100
0010
0100
0010
0100
0010
1000
0010
1000
0001
1000
0001
1000
,
0002
0000
0000
0003
0022
0000
0000
0033
,
0220
0000
0000
0330
2200
3300
2002
3003
,
2020
0000
0000
3030
0202
0000
0000
0303
,
0220
0000
0000
0000
0000
0000
0330
0000
2020
0000
3030
0000
2200
0300
3001
0000
,
1000
0010
0100
0010
1000
0001
1000
0100
0010
0001
0100
0001
1000
0010
1000
0001
,
0010
0100
1000
0001
0100
0010
1000
0001
0010
0100
1000
0010
1000
0001
0100
0001
,
1000
0001
0010
0100
1000
0001
1000
0010
0100
0001
0010
0001
1000
0100
1000
0001
,
0100
0010
1000
0001
0010
0100
1000
0001
0100
0010
1000
0001
1000
0100
0010
0100
,
1000
0010
0100
0010
1000
0001
1000
0100
0010
0001
0100
0001
1000
0010
1000
0001
,
0010
0100
1000
0001
0100
0010
1000
0001
0010
0100
1000
0010
1000
0001
0100
0001
,
1000
0001
0010
0100
1000
0001
1000
0010
0100
0001
0010
0001
1000
0100
1000
0001
,
0100
0010
1000
0001
1000
0100
0010
0001
0100
0001
1000
0010
0100
0001
0010
0100
,
2000
3000
0000
0020
0030
0000
2000
3000
0000
0200
0300
0000
2000
3000
0000
0002
0003
0000
0020
0030
0000
0002
0003
0000
0200
0300
0000
0002
0003
0000
2000
3000
0000
0200
0300
0000
2000
3000
0000
0002
0003
0000
2000
3000
0000
0002
0003
0000
,
0200
0300
0000
0000
0002
0003
0000
0000
0020
0030
0000
0000
0002
0003
0000
0000
2000
3000
0000
0000
0200
0300
0000
0000
2000
3000
0000
0000
0020
0030
0000
0000
2000
3000
0000
0000
0002
0003
0000
0000
0200
0300
0000
0000
0002
0003
0000
0000
0020
0030
0000
0000
0002
0003
0000
0000
2000
3000
0000
0000
0200
0300
0000
0000
,
2000
3000
0000
0000
0000
0000
0000
0000
0000
0000
0000
0000
0020
0030
0000
0000
0000
0000
0000
0000
0000
0000
0000
0000
2000
3000
0000
0000
0000
0000
0000
0000
0000
0000
0000
0000
0002
0003
0000
0000
0000
0000
0000
0000
0000
0000
0000
0000
0200
0300
0000
0000
0000
0000
0000
0000
0000
0000
0000
0000
0002
0003
0000
0000
0000
0000
0000
0000
0000
0000
0000
0000
2000
3000
0000
0000
0000
0000
0000
0000
0000
0000
0000
0000
0002
0003
0000
0000
0000
0000
0000
0000
0000
0000
0000
0000
2000
3000
0000
0000
0000
0000
0000
0000
0000
0000
0000
0000
0020
0030
0000
0000
0000
0000
0000
0000
0000
0000
0000
0000
2000
3000
0000
0000
0000
0000
0000
0000
0000
0000
0000
0000
0200
0300
0000
0000
0000
0000
0000
0000
0000
0000
0000
0000
2000
3000
0000
0000
0000
0000
0000
0000
0000
0000
0000
0000
0002
0003
0000
0000
0000
0000
0000
0000
0000
0000
0000
0000
0020
0030
0000
0000
0000
0000
0000
0000
0000
0000
0000
0000
0002
0003
0000
0000
0000
0000
0000
0000
0000
0000
0000
0000
,
0200
0000
0000
0300
0000
0000
0000
0000
0000
0000
0000
0000
0020
0000
0000
0030
0000
0000
0000
0000
0000
0000
0000
0000
2000
0000
0000
3000
0000
0000
0000
0000
0000
0000
0000
0000
0002
0000
0000
0003
0000
0000
0000
0000
0000
0000
0000
0000
0200
0000
0000
0300
0000
0000
0000
0000
0000
0000
0000
0000
0002
0000
0000
0003
0000
0000
0000
0000
0000
0000
0000
0000
2000
0000
0000
3000
0000
0000
0000
0000
0000
0000
0000
0000
0200
0000
0000
0300
0000
0000
0000
0000
0000
0000
0000
0000
2000
3000
0000
0000
0000
0000
0000
0000
0000
0000
0000
0000
0002
0003
0000
0000
0000
0000
0000
0000
0000
0000
0000
0000
0200
0300
0000
0000
0000
0000
0000
0000
0000
0000
0000
0000
0002
0003
0000
0000
0000
0000
0000
0000
0000
0000
0000
0000
2000
3000
0000
0000
0000
0000
0000
0000
0000
0000
0000
0000
0200
0300
0000
0000
0000
0000
0000
0000
0000
0000
0000
0000
0020
0030
0000
0000
0000
0000
0000
0000
0000
0000
0000
0000
0002
0003
0000
0000
0000
0000
0000
0000
0000
0000
0000
0000
,
2000
3000
0000
0020
0030
0000
2000
3000
0000
0200
0300
0000
2000
3000
0000
0002
0003
0000
0020
0030
0000
0002
0003
0000
0200
0300
0000
0002
0003
0000
2000
3000
0000
0020
0030
0000
2000
3000
0000
0200
0300
0000
2000
3000
0000
0002
0003
0000
,
0020
0030
0000
0000
0002
0003
0000
0000
0200
0300
0000
0000
0002
0003
0000
0000
2000
3000
0000
0000
0020
0030
0000
0000
2000
3000
0000
0000
0002
0003
0000
0000
2000
3000
0000
0000
0002
0003
0000
0000
0020
0030
0000
0000
0002
0003
0000
0000
0200
0300
0000
0000
0002
0003
0000
0000
2000
3000
0000
0000
0020
0030
0000
0000
,
2000
3000
0000
0000
0000
0000
0000
0000
0000
0000
0000
0000
0200
0300
0000
0000
0000
0000
0000
0000
0000
0000
0000
0000
2000
3000
0000
0000
0000
0000
0000
0000
0000
0000
0000
0000
0002
0003
0000
0000
0000
0000
0000
0000
0000
0000
0000
0000
0200
0300
0000
0000
0000
0000
0000
0000
0000
0000
0000
0000
0002
0003
0000
0000
0000
0000
0000
0000
0000
0000
0000
0000
0020
0030
0000
0000
0000
0000
0000
0000
0000
0000
0000
0000
0002
0003
0000
0000
0000
0000
0000
0000
0000
0000
0000
0000
2000
3000
0000
0000
0000
0000
0000
0000
0000
0000
0000
0000
0200
0300
0000
0000
0000
0000
0000
0000
0000
0000
0000
0000
2000
3000
0000
0000
0000
0000
0000
0000
0000
0000
0000
0000
0020
0030
0000
0000
0000
0000
0000
0000
0000
0000
0000
0000
2000
3000
0000
0000
0000
0000
0000
0000
0000
0000
0000
0000
0002
0003
0000
0000
0000
0000
0000
0000
0000
0000
0000
0000
0200
0300
0000
0000
0000
0000
0000
0000
0000
0000
0000
0000
0002
0003
0000
0000
0000
0000
0000
0000
0000
0000
0000
0000
,
2000
3000
0000
0000
0020
0030
0000
0000
0200
0300
0000
0000
0002
0003
0000
0000
0200
0300
0000
0000
0020
0030
0000
0000
0200
0300
0000
0000
0002
0003
0000
0000
2000
3000
0000
0000
0200
0300
0000
0000
0020
0030
0000
0000
0002
0003
0000
0000
2000
3000
0000
0000
0020
0030
0000
0000
0200
0300
0000
0000
0002
0003
0000
0000
,
1000
0010
1010
0001
0011
0100
1010
1000
,
0101
0001
0010
0100
1100
0001
1010
0001
,
0101
1000
0010
0110
0101
0100
0110
1000
,
0001
0000
0100
0000
0010
1000
0010
1000
0001
0100
0001
0100
0001
1000
0001
1000
0100
0010
0100
1000
0001
1000
0001
0100
0010
0100
0001
1000
0100
0010
0001
1000
,
0002
0000
0203
0000
0310
1000
0001
0010
0100
1000
0001
0100
0010
0100
0001
1000
0100
1000
0100
0010
0001
1000
0010
0100
0001
1000
0100
0010
0100
1000
0100
0010
,
0001
0000
0000
1000
1000
0000
1000
1000
0000
1000
1000
0000
1000
1000
0000
1000
,
1001
0000
0000
0001
0001
0000
0001
0001
0000
0001
0001
0000
1000
0010
0100
0001
,
0010
0100
1000
0010
1000
0001
1000
0000
0001
0000
1000
0010
0100
0000
0010
0100
,
0000
0001
0100
0000
0001
0010
0100
0000
1000
0000
0010
1000
0001
0000
0010
0001
,
0000
1000
0010
0000
1001
0000
1001
0000
1000
0000
0010
0100
0001
0000
0100
0001
,
0000
1000
0100
0000
0010
0001
1000
0000
0100
0000
0010
0001
0100
0000
0010
1000
,
0000
0001
1000
0000
0011
0000
0011
0000
0001
0000
0010
0100
1000
0000
0100
0010
,
0000
0100
1000
0000
0001
1000
0010
0000
0100
0000
0001
1000
0100
0000
0010
0001
,
0000
1000
0001
0000
1100
0000
1100
0000
0100
0000
0010
0001
1000
0000
0010
1000
,
0000
0001
1000
0000
0001
0100
0001
0000
1000
0000
0001
1000
0001
0010
0100
1000
,
0020
0000
0000
0030
0100
0000
0010
0000
1000
0000
0001
0000
0010
0000
0100
0000
1000
0000
0001
0000
1000
0000
0010
0000
0100
0000
0001
0000
0010
0000
0001
0000
,
1000
0100
1000
0001
0100
0010
1000
0001
0010
0100
1000
0001
0100
0010
1000
0100
,
1000
0001
0010
0001
1000
0001
0100
0010
1000
0001
1000
0100
0010
0001
0100
0001
,
1000
0010
1000
0001
0010
0100
1000
0001
0100
0010
1000
0001
0010
0100
1000
0001
,
1000
0010
0100
0010
1000
0001
0010
0100
1000
0001
1000
0010
0100
0001
0010
0001
,
1000
0100
1000
0001
0100
0010
1000
0001
0010
0100
1000
0001
0100
0010
1000
0100
,
1000
0001
0010
0001
1000
0001
0100
0010
1000
0001
1000
0100
0010
0001
0100
0001
,
1000
0010
1000
0001
0010
0100
1000
0001
0100
0010
1000
0001
1000
0100
0100
0001
,
0100
0100
1000
0001
0100
0010
1000
0100
0010
0001
1000
0010
1000
0001
0010
0001
,
1000
0100
1000
0010
0100
0001
1000
0100
0010
0100
1000
0001
0100
0010
1000
0001
,
1000
0100
0010
0100
1000
0001
0100
0001
0010
0100
1000
0001
0100
0001
0010
0100
,
1000
0001
0100
0001
0010
0100
0010
0001
1000
0001
0010
0001
0100
0010
1000
0001
,
0100
0010
1000
0100
0010
0001
1000
0010
1000
0001
0010
0001
1000
0010
0100
0010
,
1000
0100
0010
0001
1000
0010
1000
0001
0010
0100
0010
0001
1000
0001
0100
0010
,
0100
0001
1000
0100
0010
0001
0100
0010
1000
0001
1000
0010
1000
0100
0010
0001
,
0100
0010
1000
0001
0010
0001
0100
0010
1000
0100
0010
0001
0100
0001
1000
0100
,
1000
0001
1000
0010
0100
0001
0100
0001
0100
0010
0100
0010
1000
0010
1000
0010
,
1000
0000
0000
0000
0001
0000
0000
0000
1000
0000
0000
0000
0002
0000
0000
0000
2000
0000
0000
0000
0000
0000
0000
0000
0000
0000
0000
0000
0000
0000
0000
3003
2002
0000
0000
0000
0000
0000
0000
0000
0000
0000
0000
0000
0000
0000
0000
0000
3003
0000
0000
0000
0000
0000
0000
0000
0000
0000
0000
0000
0000
0000
0000
0000
;

//---------------dance-single - Zaia - 13(mid-high)----------------
#NOTES:
     dance-single:
     Zaia - 13(mid-high):
     Hard:
     13:
     1.000,1.000,0.130,0.993,1.000,1527.000,24.000,184.000,9.000,0.000:
0000
0000
0000
0000
,
1000
0010
0100
0001
1000
0001
0100
0010
1000
0001
1000
0010
2000
0000
0000
0000
,
3001
0010
0100
0010
0001
1000
0100
0010
0001
1000
0100
1000
0002
0000
0000
0000
,
0103
0010
0100
0001
1000
0010
0100
0010
1000
0001
0100
0010
2000
0000
0000
0000
,
3001
0010
0100
1000
0001
0010
0001
1000
0100
0010
0001
1000
0002
0000
0000
0000
,
1003
0010
0100
0010
1000
0001
0100
0010
1000
0010
0100
0001
2000
0000
0000
0000
,
3100
0010
0100
1000
0001
0010
0001
1000
0100
0010
0001
1000
0002
0000
0000
0000
,
0103
0010
1000
0010
0100
0001
1000
0001
0100
0010
1000
0001
2000
0000
0000
0000
,
3001
0010
0001
1000
0100
0010
0001
1000
0001
0010
0100
0010
0002
0000
0000
0000
,
1003
0010
0100
0001
1000
0001
0100
0010
1000
0001
1000
0010
2000
0000
0000
0000
,
3001
0010
0100
0010
0001
1000
0100
0010
0001
1000
0100
1000
0002
0000
0000
0000
,
0103
0010
0100
0001
1000
0010
0100
0010
1000
0001
0100
0010
2000
0000
0000
0000
,
3001
0010
0100
1000
0001
0010
0001
1000
0100
0010
0001
1000
0002
0000
0000
0000
,
1003
0010
0100
0010
1000
0001
0100
0010
1000
0010
0100
0001
2000
0000
0000
0000
,
3100
0010
0100
1000
0001
0010
0001
1000
0100
0010
0001
1000
0002
0000
0000
0000
,
1003
0100
0010
0001
0010
0100
1000
0100
0010
0100
1000
0001
0100
0010
0100
0001
,
1000
0010
0100
0001
1000
0100
0010
0001
0100
0010
0100
0001
0010
0100
1000
0010
,
0100
0001
1000
0100
1000
0001
0100
0010
1000
0001
0010
0001
0100
0010
0100
0001
,
1000
0100
1000
0001
1000
0100
0010
0001
0100
0010
1000
0001
0010
0100
0010
0001
,
1000
0100
1000
0010
1000
0001
0010
0100
1000
0001
0100
0001
0010
0100
0010
0001
,
1000
0010
1000
0001
1000
0010
0100
0001
0010
0100
1000
0001
0100
0010
0100
0001
,
1000
0010
1000
0100
1000
0001
0100
0010
1000
0001
0010
0001
0100
0010
0100
0001
,
1000
0100
1000
0001
1000
0100
0010
0001
0100
0010
1000
0001
0010
0100
0010
0001
,
1000
0100
1000
0010
1000
0001
0010
0100
1000
0001
0100
0001
0010
0100
0010
0001
,
1000
0010
1000
0001
1000
0010
0100
0001
1000
0001
1000
0001
1000
0001
1000
0001
,
0100
0001
1000
0100
1000
0001
0100
0010
1000
0001
0010
0001
0100
0010
0100
0001
,
1000
0100
1000
0001
1000
0100
0010
0001
0100
0010
1000
0001
0010
0100
0010
0001
,
1000
0100
1000
0010
1000
0001
0010
0100
1000
0001
0100
0001
0010
0100
0010
0001
,
1000
0010
1000
0001
1000
0010
0100
0001
0010
0100
1000
0001
0100
0010
0100
0001
,
1000
0010
1000
0100
1000
0001
0100
0010
1000
0001
0010
0001
0100
0010
0100
0001
,
1000
0100
1000
0001
1000
0100
0010
0001
0100
0010
1000
0001
0010
0100
0010
0001
,
1000
0100
1000
0010
1000
0001
0010
0100
1000
0001
0100
0001
0010
0100
0010
0001
,
1000
0100
1000
0100
0010
0001
0010
0001
1000
0001
1000
0001
1000
0100
0010
0001
,
1000
0010
0100
0010
1000
0010
0100
0001
,
0010
0100
1000
0001
1000
0100
0010
0100
,
1000
0001
0010
0001
1000
0010
1000
0001
,
0010
0100
1000
0001
0100
0010
1000
0001
,
0010
0000
0000
0000
0000
0000
0000
0000
0200
0000
0000
0000
0000
0000
0000
0000
M0MM
0000
0000
0000
0000
0000
0000
0000
0000
0000
0000
0000
0000
0000
0000
0300
M2MM
0000
0000
0000
0000
0000
0000
0000
0000
0000
0000
0000
0000
0000
0000
0000
M0MM
0000
0000
0000
0000
0000
0000
0300
0100
0000
0000
0000
0000
0000
0000
0000
,
1000
0001
0010
0001
1000
0010
1000
0001
,
0100
0010
1000
0100
0010
0001
0100
0010
,
0100
0001
1000
0100
0010
0100
1000
0010
,
2000
3000
0000
0000
0001
0000
0000
0000
1000
0000
0010
0000
2000
0000
3000
0000
0002
0000
0003
0000
0100
0000
0020
0000
0030
0000
1000
0000
0002
0000
0003
0000
,
0020
0000
0130
0000
0000
0000
1000
0001
0010
0001
1000
0010
0100
0001
1000
0000
,
0002
0000
0103
0000
0001
0010
0001
0010
0100
0010
0100
0010
0002
0000
0000
0000
,
2003
0000
0000
0000
0000
0000
0000
0000
0000
0000
0000
0000
0000
0000
0000
0000
3000
0000
0000
0000
0000
0000
0000
0000
0001
0000
0000
0000
1000
0000
0000
0000
0010
0000
0000
0000
1000
0000
0000
0000
0010
0000
0000
0000
0100
0000
0000
0000
0001
0000
0000
0000
0100
0000
0000
0000
0001
0000
0000
0000
2000
3000
0000
0000
,
0020
0030
0000
0000
0000
0000
0000
0000
1000
0000
0000
0000
0000
0000
0000
0000
0001
0000
0000
0000
0010
0000
0000
0000
0001
0000
0000
0000
1000
0000
0000
0000
0100
0000
0000
0000
1000
0000
0000
0000
0001
0000
0000
0000
0100
0000
0000
0000
0010
0000
0000
0000
0100
0000
0000
0000
0001
0000
0000
0000
0000
0000
0000
0000
,
2000
0000
0001
0000
3000
0000
1000
0010
0100
0001
0100
0010
1000
0001
0010
0100
,
1000
0000
0001
0000
1000
0100
1000
0100
0010
0000
0100
1000
0000
0001
1000
0000
,
0001
0100
0010
1000
0100
0010
0001
0100
0001
0010
0100
1000
0010
0100
0002
0000
,
0000
1003
0100
0010
0100
1000
0100
0010
,
0001
0100
0010
0100
0001
0100
0010
0100
,
0001
1000
0100
0010
0001
1000
0010
0100
,
0001
1000
0010
1000
0100
0010
0001
0100
,
0001
0010
0100
1000
0001
0100
0010
1000
0100
0010
0001
0100
0010
1000
0100
1000
,
0010
0100
0001
0010
0100
1000
0010
1000
0001
1000
0100
1000
0001
1000
0010
0100
,
0010
1000
0100
1000
0001
0100
0001
1000
0010
1000
0001
0010
0001
1000
0010
1000
,
0001
0010
0001
1000
0001
0100
0001
0010
0001
1000
0010
1000
0001
1000
0100
0010
,
0001
0200
0000
0000
0000
0000
0310
1000
,
0001
0010
0100
1000
0001
0100
0010
1000
,
0001
0100
0001
1000
0100
1000
0001
1000
,
0010
0100
0010
1000
0100
0010
0001
0010
,
0100
1000
0001
1000
0010
0100
0001
1000
,
0001
0010
0001
1000
0010
0100
0001
1000
,
0100
1000
0001
1000
0010
0100
0010
1000
,
0001
0000
1000
0010
0000
1000
0010
0000
1000
0000
0010
0000
1000
0000
0010
1000
,
0001
0010
0100
0010
0001
0010
0100
0010
0001
0010
0100
0010
0001
0010
0100
0010
,
0001
0100
0001
1000
0001
0010
0001
1000
0001
0100
0001
1000
0001
0010
0001
1000
,
0010
0100
0010
1000
0010
0100
0010
1000
0010
0100
0010
1000
0010
0100
0010
1000
,
0001
1000
0100
1000
0010
1000
0001
1000
0010
0100
0001
0100
0010
0100
0001
1000
,
0001
0100
0001
0010
0001
1000
0001
0100
0001
0010
0001
1000
0001
0100
0001
1000
,
0100
0010
0100
1000
0100
0010
0100
1000
0100
0010
0100
1000
0100
0010
0100
1000
,
0001
0100
0001
1000
0001
0010
0001
0100
0001
1000
0001
0010
0001
0100
0001
1000
,
0001
0100
0001
0100
0010
0100
0010
0100
0010
1000
0010
1000
0001
1000
0001
1000
,
0002
0000
0000
0003
0022
0000
0000
0033
,
0220
0000
0000
0330
2200
3300
2002
3003
,
2020
0000
0000
3030
0202
0000
0000
0303
,
0220
0000
0000
0000
0000
0000
0330
0000
2020
0000
3030
0000
2200
0300
3001
0000
,
1000
0010
0100
0010
1000
0001
0010
0001
,
1000
0010
1000
0001
0010
0100
0010
0001
,
1000
0010
0100
0001
0010
0100
0010
0001
,
1000
0010
0100
0010
1000
0001
0010
0001
,
1000
0001
0100
0000
0010
0000
0100
0000
0001
0000
1000
0000
0100
0000
1000
0000
,
0001
0100
0001
1000
0100
0010
0100
1000
,
0001
0100
0010
1000
0100
0010
0100
1000
,
0001
0100
0001
0000
1000
0100
1000
0000
0001
1000
0010
0000
1000
0001
0010
0000
,
0002
0003
0000
0200
0300
0000
0002
0003
0000
0020
0030
0000
0002
0003
0000
2000
3000
0000
0200
0300
0000
2000
3000
0000
0020
0030
0000
2000
3000
0000
0002
0003
0000
0020
0030
0000
0002
0003
0000
2000
3000
0000
0002
0003
0000
2000
3000
0000
,
0020
0030
0000
0000
2000
3000
0000
0000
0200
0300
0000
0000
2000
3000
0000
0000
0002
0003
0000
0000
0020
0030
0000
0000
0002
0003
0000
0000
0200
0300
0000
0000
0002
0003
0000
0000
2000
3000
0000
0000
0020
0030
0000
0000
2000
3000
0000
0000
0200
0300
0000
0000
2000
3000
0000
0000
0002
0003
0000
0000
0020
0030
0000
0000
,
0002
0003
0000
0000
0000
0000
0000
0000
0000
0000
0000
0000
0200
0300
0000
0000
0000
0000
0000
0000
0000
0000
0000
0000
0002
0003
0000
0000
0000
0000
0000
0000
0000
0000
0000
0000
2000
3000
0000
0000
0000
0000
0000
0000
0000
0000
0000
0000
0020
0030
0000
0000
0000
0000
0000
0000
0000
0000
0000
0000
2000
3000
0000
0000
0000
0000
0000
0000
0000
0000
0000
0000
0002
0003
0000
0000
0000
0000
0000
0000
0000
0000
0000
0000
2000
3000
0000
0000
0000
0000
0000
0000
0000
0000
0000
0000
0002
0003
0000
0000
0000
0000
0000
0000
0000
0000
0000
0000
0200
0300
0000
0000
0000
0000
0000
0000
0000
0000
0000
0000
0002
0003
0000
0000
0000
0000
0000
0000
0000
0000
0000
0000
0020
0030
0000
0000
0000
0000
0000
0000
0000
0000
0000
0000
0002
0003
0000
0000
0000
0000
0000
0000
0000
0000
0000
0000
2000
3000
0000
0000
0000
0000
0000
0000
0000
0000
0000
0000
0200
0300
0000
0000
0000
0000
0000
0000
0000
0000
0000
0000
2000
3000
0000
0000
0000
0000
0000
0000
0000
0000
0000
0000
,
0020
0000
0000
0030
0000
0000
0000
0000
0000
0000
0000
0000
0200
0000
0000
0300
0000
0000
0000
0000
0000
0000
0000
0000
0002
0000
0000
0003
0000
0000
0000
0000
0000
0000
0000
0000
2000
0000
0000
3000
0000
0000
0000
0000
0000
0000
0000
0000
0020
0000
0000
0030
0000
0000
0000
0000
0000
0000
0000
0000
2000
0000
0000
3000
0000
0000
0000
0000
0000
0000
0000
0000
0002
0000
0000
0003
0000
0000
0000
0000
0000
0000
0000
0000
0020
0000
0000
0030
0000
0000
0000
0000
0000
0000
0000
0000
0002
0003
0000
0000
0000
0000
0000
0000
0000
0000
0000
0000
2000
3000
0000
0000
0000
0000
0000
0000
0000
0000
0000
0000
0020
0030
0000
0000
0000
0000
0000
0000
0000
0000
0000
0000
2000
3000
0000
0000
0000
0000
0000
0000
0000
0000
0000
0000
0002
0003
0000
0000
0000
0000
0000
0000
0000
0000
0000
0000
0020
0030
0000
0000
0000
0000
0000
0000
0000
0000
0000
0000
0200
0300
0000
0000
0000
0000
0000
0000
0000
0000
0000
0000
2000
3000
0000
0000
0000
0000
0000
0000
0000
0000
0000
0000
,
0002
0003
0000
0200
0300
0000
0002
0003
0000
0020
0030
0000
0002
0003
0000
2000
3000
0000
0200
0300
0000
2000
3000
0000
0020
0030
0000
2000
3000
0000
0002
0003
0000
0200
0300
0000
0002
0003
0000
0020
0030
0000
0002
0003
0000
2000
3000
0000
,
0200
0300
0000
0000
2000
3000
0000
0000
0020
0030
0000
0000
2000
3000
0000
0000
0002
0003
0000
0000
0200
0300
0000
0000
0002
0003
0000
0000
2000
3000
0000
0000
0002
0003
0000
0000
2000
3000
0000
0000
0200
0300
0000
0000
2000
3000
0000
0000
0020
0030
0000
0000
2000
3000
0000
0000
0002
0003
0000
0000
0200
0300
0000
0000
,
0002
0003
0000
0000
0000
0000
0000
0000
0000
0000
0000
0000
0020
0030
0000
0000
0000
0000
0000
0000
0000
0000
0000
0000
0002
0003
0000
0000
0000
0000
0000
0000
0000
0000
0000
0000
2000
3000
0000
0000
0000
0000
0000
0000
0000
0000
0000
0000
0020
0030
0000
0000
0000
0000
0000
0000
0000
0000
0000
0000
2000
3000
0000
0000
0000
0000
0000
0000
0000
0000
0000
0000
0200
0300
0000
0000
0000
0000
0000
0000
0000
0000
0000
0000
2000
3000
0000
0000
0000
0000
0000
0000
0000
0000
0000
0000
0002
0003
0000
0000
0000
0000
0000
0000
0000
0000
0000
0000
0020
0030
0000
0000
0000
0000
0000
0000
0000
0000
0000
0000
0002
0003
0000
0000
0000
0000
0000
0000
0000
0000
0000
0000
0200
0300
0000
0000
0000
0000
0000
0000
0000
0000
0000
0000
0002
0003
0000
0000
0000
0000
0000
0000
0000
0000
0000
0000
2000
3000
0000
0000
0000
0000
0000
0000
0000
0000
0000
0000
0020
0030
0000
0000
0000
0000
0000
0000
0000
0000
0000
0000
2000
3000
0000
0000
0000
0000
0000
0000
0000
0000
0000
0000
,
0002
0003
0000
0000
0200
0300
0000
0000
0020
0030
0000
0000
2000
3000
0000
0000
0020
0030
0000
0000
0200
0300
0000
0000
0020
0030
0000
0000
2000
3000
0000
0000
0002
0003
0000
0000
0020
0030
0000
0000
0200
0300
0000
0000
2000
3000
0000
0000
0002
0003
0000
0000
0200
0300
0000
0000
0020
0030
0000
0000
2000
3000
0000
0000
,
0001
0100
0101
1000
1100
0010
0101
0001
,
1010
1000
0100
0010
0011
1000
0101
1000
,
1010
0001
0100
0110
1010
0010
0110
0001
,
1000
0000
0010
0000
0100
0001
0100
0001
1000
0010
1000
0010
1000
0001
1000
0001
0010
0100
0010
0001
1000
0001
1000
0010
0100
0010
1000
0001
0010
0100
1000
0001
,
2000
0000
3020
0000
0130
0001
1000
0100
0010
0001
1000
0010
0100
0010
1000
0001
0010
0001
0010
0100
1000
0001
0100
0010
1000
0001
0010
0100
0010
0001
0010
0100
,
1000
0000
0000
0001
0001
0000
0001
0001
0000
0001
0001
0000
0001
0001
0000
0001
,
1001
0000
0000
1000
1000
0000
1000
1000
0000
1000
1000
0000
0001
0100
0010
1000
,
0100
0010
0001
0100
0001
1000
0001
0000
1000
0000
0001
0100
0010
0000
0100
0010
,
0000
1000
0010
0000
1000
0100
0010
0000
0001
0000
0100
0001
1000
0000
0100
1000
,
0000
0001
0100
0000
1001
0000
1000
0000
0001
0000
0100
0010
1000
0000
0010
1000
,
0000
0001
0010
0000
0100
1000
0001
0000
0010
0000
0100
1000
0010
0000
0100
0001
,
0000
1000
0001
0000
1100
0000
0100
0000
1000
0000
0100
0010
0001
0000
0010
0100
,
0000
0010
0001
0000
1000
0001
0100
0000
0010
0000
1000
0001
0010
0000
0100
1000
,
0000
0001
1000
0000
0011
0000
0001
0000
0010
0000
0100
1000
0001
0000
0100
0001
,
0000
1000
0001
0000
1000
0010
1000
0000
0001
0000
1000
0001
1000
0100
0010
0001
,
0200
0000
0000
0300
0010
0000
0100
0000
0001
0000
0000
0000
1000
0000
0000
0000
0100
0000
0000
0000
0010
0000
0000
0000
0100
0000
0000
0000
1000
0000
0000
0000
,
0001
0100
0010
1000
0001
0010
0001
1000
,
0010
1000
0001
0010
0100
1000
0001
0100
,
0010
1000
0001
0010
0001
0100
0001
1000
,
0010
1000
0100
1000
0001
0010
0100
0010
,
0001
1000
0001
0100
0010
0100
0001
1000
,
0100
0010
0001
0100
0010
1000
0001
1000
,
0100
0000
1000
0000
0001
0000
0100
0000
0001
0000
1000
0000
0001
1000
0001
1000
,
0001
0010
0001
1000
0010
0100
0001
0010
0100
1000
0001
0100
0001
1000
0100
1000
,
0001
0010
0001
0100
0010
1000
0001
0010
0100
0010
0001
1000
0010
0100
0001
1000
,
0001
0010
0100
0010
0001
1000
0010
1000
0100
0010
0001
1000
0010
1000
0100
0010
,
0001
1000
0010
1000
0100
0010
0100
1000
0001
1000
0100
1000
0010
0100
0001
1000
,
0010
0100
0001
0010
0100
1000
0001
0100
0001
1000
0100
1000
0001
0100
0010
0100
,
0001
0010
0100
1000
0001
0100
0001
1000
0100
0010
0100
1000
0001
1000
0010
0100
,
0010
1000
0001
0010
0100
1000
0010
0100
0001
1000
0001
0100
0001
0010
0100
1000
,
0010
0100
0001
1000
0100
1000
0010
0100
0001
0010
0100
1000
0010
1000
0001
0010
,
0001
1000
0001
0100
0010
1000
0010
1000
0010
0100
0010
0100
0001
0100
0001
0100
,
0001
0000
0000
0000
1000
0000
0000
0000
0001
0000
0000
0000
2000
0000
0000
0000
0002
0000
0000
0000
0000
0000
0000
0000
0000
0000
0000
0000
0000
0000
0000
3003
2002
0000
0000
0000
0000
0000
0000
0000
0000
0000
0000
0000
0000
0000
0000
0000
3003
0000
0000
0000
0000
0000
0000
0000
0000
0000
0000
0000
0000
0000
0000
0000
;

//---------------dance-single - Zaia - 10(high)----------------
#NOTES:
     dance-single:
     Zaia - 10(high):
     Medium:
     10:
     0.861,1.000,0.135,0.329,0.383,1029.000,25.000,61.000,9.000,0.000:
0000
0000
0000
0000
,
1000
0000
0001
0100
0010
0000
1000
0001
1000
0000
0100
0000
0010
0000
0100
0000
,
1000
0000
0001
0100
0010
0000
0100
0001
0100
0000
0010
0000
1000
0000
0001
0000
,
0010
0000
0100
1000
0001
0000
0100
0010
0100
0000
0001
0000
1000
0000
0001
0000
,
0010
0000
0100
1000
0001
0000
1000
0010
1000
0000
0001
0000
1000
0000
0100
0000
,
1000
0000
0010
0100
0001
0000
1000
0100
1000
0000
0001
0000
0100
0000
0010
0000
,
1000
0000
0001
0010
0100
0000
1000
0001
1000
0000
0010
0000
0100
0000
0001
0000
,
0010
0000
0100
1000
0001
0000
1000
0010
1000
0000
0100
0000
0010
0000
0100
0000
,
1000
0000
0001
0100
0010
0000
0100
0001
0100
0000
0010
0000
1000
0000
0001
0000
,
0100
0000
0001
0010
0100
0000
1000
0001
1000
0000
0010
0000
0100
0000
0010
0000
,
1000
0000
0001
0010
0100
0000
0010
0001
0010
0000
0100
0000
1000
0000
0001
0000
,
0100
0000
0010
1000
0001
0000
0010
0100
0010
0000
0001
0000
1000
0000
0001
0000
,
0100
0000
0010
1000
0001
0000
1000
0100
1000
0000
0001
0000
1000
0000
0010
0000
,
1000
0000
0100
0010
0001
0000
1000
0010
1000
0000
0001
0000
0010
0000
0100
0000
,
1000
0000
0001
0100
0010
0000
1000
0001
1000
0000
0100
0000
0010
0000
0001
0000
,
0400
0000
0000
0000
,
0000
0000
0000
0000
0000
0000
0000
0000
0300
0000
0000
0000
0001
0000
1000
0001
,
0100
0000
0010
0000
0100
0000
0001
0000
1000
0000
0100
0010
0000
0100
1000
0000
,
0001
0000
0100
0000
0010
0000
0100
0000
0001
0000
1000
0001
0000
0010
0001
0000
,
0100
0000
0010
0000
1000
0000
0001
0000
0010
0000
0100
1000
0000
0001
0010
0000
,
0001
0000
0100
0000
0010
0000
0100
0000
0001
0000
1000
0100
0000
1000
0001
0000
,
0100
0000
0001
0000
1000
0000
0100
0000
0010
0000
0100
0010
0000
0001
1000
0000
,
0010
0000
0100
0000
0001
0000
1000
0000
0100
0000
0010
0001
0000
0010
0100
0000
,
1000
0000
0001
0000
0100
0000
0010
0000
1000
0000
0001
0010
0000
0001
1000
0000
,
0010
0000
0100
0000
0001
0000
0010
0000
0100
1000
0001
1000
0001
0000
0100
0001
,
1000
0000
0100
0000
0010
0000
0001
0000
1000
0000
0010
0100
0000
0010
1000
0000
,
0001
0000
0010
0000
0100
0000
0010
0000
0001
0000
1000
0001
0000
0100
0001
0000
,
0010
0000
0100
0000
1000
0000
0001
0000
0100
0000
0010
1000
0000
0001
0100
0000
,
0001
0000
0010
0000
0100
0000
0010
0000
0001
0000
1000
0010
0000
1000
0001
0000
,
0010
0000
0001
0000
1000
0000
0010
0000
0100
0000
0010
0100
0000
0001
1000
0000
,
0100
0000
0010
0000
0001
0000
1000
0000
0010
0000
0100
0001
0000
0100
0010
0000
,
1000
0000
0001
0000
0010
0000
0100
0000
1000
0000
0001
0100
0000
0001
1000
0000
,
0001
0100
0001
0100
0001
0000
0010
0000
0001
1000
0001
1000
0001
0000
1000
0000
,
0001
0100
0010
0100
0001
0100
0010
1000
,
0100
0010
0001
1000
0001
0010
0100
0010
,
0002
1003
0100
1000
0001
0100
0001
1000
,
0100
0010
0001
1000
0010
0100
0001
1000
,
0100
0000
0000
0000
0000
0000
0000
0000
0020
0000
0000
0000
0000
0000
0000
0000
MM0M
0000
0000
0000
0000
0000
0000
0000
0000
0000
0000
0000
0000
0000
0000
0030
MM2M
0000
0000
0000
0000
0000
0000
0000
0000
0000
0000
0000
0000
0000
0000
0000
MM0M
0000
0000
0000
0000
0000
0000
0030
0010
0000
0000
0000
0000
0000
0000
0000
,
0001
1000
0100
1000
0001
0100
0001
1000
,
0010
0100
0001
0010
0100
1000
0010
0100
,
0010
1000
0001
0010
0100
0010
0001
0100
,
0020
0000
0000
0000
2030
0000
0000
0000
3002
0000
0000
0023
0000
0000
0230
0000
,
2300
0000
0000
0000
3000
0000
0002
0000
2003
0000
0000
3020
0000
0000
0230
0000
,
0302
0023
0230
2300
,
3020
0000
0000
0000
,
0230
0000
0000
0000
0302
0000
0000
0000
0023
0000
0000
0032
0000
0000
0203
0000
,
0320
0000
0000
0000
0000
0000
2030
0000
3002
0000
0000
0023
0000
0000
0230
0000
,
2300
0000
0000
0000
0000
0000
3020
0000
0230
0000
0000
0302
0000
0000
2003
0000
,
3400
0000
0000
0000
0000
0000
0000
2300
,
0000
3001
0010
0100
0010
0001
0010
0100
,
1000
0010
0100
0010
1000
0010
0100
0010
,
1000
0001
0010
0100
1000
0001
0100
0010
,
1000
0001
0100
0001
0010
0100
1000
0010
,
1000
0001
0010
0001
1000
0010
1000
0001
,
0010
0100
1000
0001
0100
0001
1000
0100
,
1000
0001
0100
0010
1000
0001
0010
0100
,
1000
0001
0100
0010
1000
0001
1000
0010
,
0100
0020
0000
0000
0000
0000
0130
0001
,
1000
0100
0010
0001
1000
0010
0100
0001
,
1000
0010
1000
0001
0010
0001
1000
0001
,
0100
0010
0100
0001
0010
0100
1000
0100
,
0010
0001
1000
0001
0100
0010
1000
0001
,
1000
0100
1000
0001
0100
0010
1000
0001
,
0010
0001
1000
0001
0100
0010
0100
0001
,
1000
0000
0001
0100
0000
0001
0100
0000
0001
0000
0100
0000
0001
0000
0100
0001
,
1000
0000
0100
0000
0010
0000
0100
0000
1000
0000
0100
0000
0010
0000
0100
1000
,
0001
0000
0100
0000
0010
0000
0100
0000
0001
0000
0100
0000
0010
0000
0100
0001
,
0010
0000
0100
0000
0010
0000
0001
0000
0010
0000
0100
0000
0010
0000
0001
1000
,
0010
0000
0100
0000
0010
0000
1000
0000
0010
0000
0100
0000
0010
0000
1000
0001
,
0010
0000
0100
0000
1000
0000
0100
0000
0010
0000
0100
0000
1000
0000
0100
0010
,
0001
0000
0100
0000
0010
0000
0100
0000
0001
0000
0100
0000
0010
0000
0100
0001
,
0010
0000
0100
0000
0010
0000
0001
0000
0010
0000
0100
0000
0010
0000
0001
0100
,
0010
1000
0010
0100
0010
1000
0010
0100
,
0002
0000
0000
0003
0022
0000
0000
0033
,
0220
0000
0000
0330
2200
3300
2002
3003
,
2020
0000
0000
3030
0202
0000
0000
0303
,
0220
0000
0000
0000
0000
0000
0330
0000
2020
0000
3030
0000
2200
0300
3001
0000
,
1000
0010
0100
0010
1000
0001
0010
0001
,
1000
0010
1000
0001
0010
0100
0010
0001
,
1000
0010
0100
0001
0010
0100
0010
0001
,
1000
0010
0100
0010
1000
0001
0010
0001
,
1000
0001
0100
0000
0010
0000
0100
0000
0001
0000
1000
0000
0100
0000
1000
0000
,
0001
0100
0001
1000
0100
0010
0100
1000
,
0001
0100
0010
1000
0100
0010
0100
1000
,
0001
0100
0001
0000
1000
0100
1000
0000
0001
1000
0010
0000
1000
0001
0010
0000
,
0001
0100
0001
0010
0100
1000
0010
0100
,
0001
0010
0001
0100
0010
1000
0100
0010
,
0100
1000
0010
1000
0100
0010
0001
0100
,
0010
1000
0100
1000
0010
0100
0001
1000
,
0100
1000
0010
0100
0001
0010
0100
1000
,
0010
1000
0100
0010
0001
0100
0010
0100
,
0001
0010
0001
0100
0010
1000
0100
0010
,
0001
0100
0001
0010
0100
1000
0010
1000
,
0001
0100
0101
1000
1100
0010
0101
0001
,
1010
1000
0100
0010
0011
1000
0101
1000
,
1010
0001
0100
0110
1010
0010
0110
0001
,
1000
0010
0100
0001
0100
0010
1000
0100
0010
0001
1000
0001
0100
0010
0100
0001
,
2000
3020
0130
0001
1000
0100
0010
0100
1000
0010
0100
0001
0010
0100
0010
0001
,
1000
0000
0000
0001
0001
0000
0001
0001
0000
0001
0001
0000
0001
0001
0000
0001
,
1001
0000
0000
1000
1000
0000
1000
1000
0000
1000
1000
0000
0001
1000
0001
1000
,
0001
1000
0001
1000
0001
0010
0100
0000
1000
0000
0001
0100
0010
0000
1000
0010
,
0000
1000
0010
0000
1000
0100
0010
0000
0001
0000
0100
0001
1000
0000
0100
0010
,
0000
0100
0010
0000
1001
0000
1000
0000
0001
0000
0100
0010
1000
0000
0010
1000
,
0000
0010
1000
0000
0001
1000
0100
0000
0010
0000
0100
1000
0001
0000
1000
0001
,
0000
1000
0001
0000
1100
0000
0100
0000
1000
0000
0100
0010
0001
0000
0010
0100
,
0000
0010
0100
0000
1000
0001
0100
0000
0010
0000
1000
0001
0010
0000
0100
1000
,
0000
0100
1000
0000
0011
0000
0001
0000
0010
0000
0100
1000
0001
0000
0100
0001
,
0000
0100
0001
0000
1000
0010
1000
0000
0001
0000
1000
0001
1000
0001
1000
0001
,
0200
0000
0000
0300
0010
0000
0100
0000
0001
0000
0000
0000
1000
0000
0000
0000
0100
0000
0000
0000
0010
0000
0000
0000
0100
0000
0000
0000
1000
0000
0000
0000
,
0001
0100
0010
1000
0001
0010
0001
1000
,
0010
1000
0001
0010
0100
1000
0001
0100
,
0010
1000
0001
0010
0001
0100
0001
1000
,
0010
1000
0100
1000
0001
0010
0100
0010
,
0001
1000
0001
0100
0010
0100
0001
1000
,
0100
0010
0001
0100
0010
1000
0001
1000
,
0100
1000
0001
0100
0001
1000
0001
0100
,
0010
0100
0001
1000
0100
0010
0100
1000
,
0010
0100
0001
1000
0100
1000
0001
0100
,
0001
0010
0001
1000
0100
1000
0010
1000
,
0001
0010
0100
1000
0010
0100
0001
1000
,
0100
0010
0001
0100
0010
1000
0001
0010
,
0001
1000
0100
1000
0010
0100
0001
1000
,
0100
0010
0001
1000
0010
0100
0001
1000
,
0010
1000
0001
0010
0100
0010
0001
1000
,
0010
0100
0010
1000
0001
0010
0100
1000
,
0010
0000
0000
0000
0000
0000
0000
0000
2000
0000
0000
0000
0000
0000
0000
0000
0002
0000
0000
0000
0000
0000
0000
0000
0000
0000
0000
0000
0000
0000
0000
3003
2002
0000
0000
0000
0000
0000
0000
0000
0000
0000
0000
0000
0000
0000
0000
0000
3003
0000
0000
0000
0000
0000
0000
0000
0000
0000
0000
0000
0000
0000
0000
0000
;
