#TITLE:It's Gonna Be Me;
#SUBTITLE:;
#ARTIST:N*Sync;
#TITLETRANSLIT:;
#SUBTITLETRANSLIT:;
#ARTISTTRANSLIT:;
#CREDIT:Arch0wl;
#BANNER:itsgonnabeme-bn.png;
#BACKGROUND:itsgonnabeme-bg.png;
#LYRICSPATH:;
#CDTITLE:!arch0wltitle.png;
#MUSIC:itsgonnabeme.ogg;
#OFFSET:0.625;
#SAMPLESTART:34.980;
#SAMPLELENGTH:21.000;
#SELECTABLE:YES;
#BPMS:0.000=165.000;
#STOPS:;
#BGCHANGES:0.000=itsgonnabeme-bg.png=1.000=0=0=1,
99999=-nosongbg-=1.000=0=0=0 // don't automatically add -songbackground-
;
// cache tags:
#FIRSTBEAT:1.938;
#LASTBEAT:524.000;
#SONGFILENAME:Songs/Archmage and Dark0wl Hammer of Thor UltraHyperMegaPack/It's Gonna Be Me/itsgonnabeme.sm;
#HASMUSIC:1;
#HASBANNER:1;
#MUSICLENGTH:105.000;
// end cache tags

//---------------dance-single - Arch0wl----------------
#NOTES:
     dance-single:
     Arch0wl:
     Challenge:
     21:
     1.000,1.000,1.000,0.371,1.000,2325.000,130.000,39.000,0.000,11.000:
0000
0000
0000
0000
0000
0000
0000
0000
0000
0000
0000
0000
0000
0000
0000
0000
0000
0000
0000
0000
0000
0000
0000
0000
0000
0000
0000
0000
0000
0000
0000
0000
0000
0000
0000
0000
0000
0000
0000
0000
0000
0000
0000
0000
0000
0000
0000
0000
0000
0000
0000
0000
0000
0000
0000
0000
0000
0000
0000
0000
0000
0000
0000
0000
0000
0000
0000
0000
0000
0000
0000
0000
0000
0000
0000
0000
0000
0000
0000
0000
0000
0000
0000
0000
0000
0000
0000
0000
0000
0000
0000
0000
0000
0010
0000
0000
0001
0000
0000
0100
0000
0000
0000
0000
0000
0000
0000
0000
0000
0000
0000
0000
0000
0000
0000
0000
0000
0000
0000
0000
0110
0000
0000
0000
0000
0000
0000
0000
0000
0000
0000
0000
0000
0000
0000
0000
0000
0000
0000
0000
0100
0000
0000
0000
1000
0000
0000
0000
0000
0000
0000
0000
0000
0000
0000
0000
0000
0000
0000
0000
0000
0000
0000
0000
0000
0000
0000
0000
0011
0000
0000
0000
0000
0000
0000
0000
0000
0000
0000
0000
0000
0000
0000
0000
0000
0000
0000
0000
0000
0000
0000
0000
,
1100
0100
0000
0000
0010
0000
0000
0000
1001
0001
0000
0000
0010
0000
0000
0000
2001
0000
0000
0000
0100
0000
0000
0000
0010
0000
0000
0000
0100
0000
0000
0000
,
0001
0000
0000
0000
0010
0000
0000
0000
0100
0000
0000
0000
0010
0000
0000
0000
0001
0000
0000
0000
0100
0000
0000
0000
0001
0001
0000
0000
0100
0000
0000
0000
,
3001
0000
0000
0000
0100
0000
0000
0000
0000
0000
0000
0000
0000
0000
0000
0000
0000
0000
0000
0000
0000
0000
0000
0000
0010
0000
0000
0000
1000
0000
0000
0000
0000
0000
0000
0000
0000
0000
0000
0000
0000
0000
0000
0000
1000
0000
0000
0000
0100
0000
0000
0000
0000
0000
0000
0000
0000
0000
0000
0000
0000
0000
0000
0000
0000
0000
0000
0000
0001
0000
0000
0000
1000
0000
0000
0000
0000
0000
0000
0000
0000
0000
0000
0000
0000
0000
0000
0000
0000
0000
0000
0000
0100
0000
0000
0000
0001
0000
0000
0000
0000
0000
0000
0000
0000
0000
0000
0000
0000
0000
0000
0000
0000
0000
0000
0000
0000
0000
0000
0000
0010
0000
0000
0000
1000
0000
0000
0000
0000
0000
0000
0000
0000
0000
0000
0000
0000
0000
0000
0000
0000
1000
0000
0000
0100
0000
0000
0000
0000
0000
0000
0000
0000
0000
0000
0000
0000
0000
0000
0000
0000
0000
0000
0000
0000
0000
0000
0000
0010
0000
0000
0000
0100
0000
0000
0000
0010
0000
0000
0000
0000
0000
0000
0000
0000
0000
0000
0000
0000
1000
0000
0000
,
0001
0000
0000
0000
0000
0000
0000
0000
0000
0000
0000
0000
0000
0000
0000
0000
0000
0000
0000
0000
0000
1000
0000
0000
0001
0000
0000
0000
0000
0000
0000
0000
0000
0000
0000
0000
0000
0000
0000
0000
0000
0000
0000
0000
0000
1000
0000
0000
0001
0000
0000
0000
0000
0000
0000
0000
0000
0000
0000
0000
0000
0000
0000
0000
0000
0000
0000
0000
0000
0000
0000
0000
0010
0000
0000
0000
0100
0000
0000
0000
0000
0000
0000
0000
0000
0000
0000
0000
0000
0000
0000
0000
0000
1000
0000
0000
0001
0000
0000
0000
0000
0000
0000
0000
0000
0000
0000
0000
0000
0000
0000
0000
0000
0000
0000
0000
0000
0000
0000
0000
0010
0000
0000
0000
0100
0000
0000
0000
0010
0000
0000
0000
0000
0000
0000
0000
0000
0000
0000
0000
1000
0000
0000
0000
0100
0000
0000
0000
0000
0000
0000
0000
0000
0000
0000
0000
0000
0000
0000
0000
0000
0000
0000
0000
0000
0000
0000
0000
0010
0000
0000
0000
0100
0000
0000
0000
0010
0000
0000
0000
0000
0000
0000
0000
0000
0000
0000
0000
0000
0000
0000
0000
,
0010
0000
0000
0000
0100
0000
0000
0000
0010
0000
0000
0000
0000
0000
0000
0000
0000
0000
0000
0000
1000
0000
0000
0000
0100
0000
0000
0000
0000
0000
0000
0000
0000
0000
0000
0000
0000
0000
0000
0000
0000
0000
0000
0000
0000
0000
0000
0000
0010
0000
0000
0000
0100
0000
0000
0000
0010
0000
0000
0000
0000
0000
0000
0000
0000
0000
0000
0000
1000
0000
0000
0000
0100
0000
0000
0000
0000
0000
0000
0000
0000
0000
0000
0000
0000
0000
0000
0000
0000
0000
0000
0000
0000
0000
0000
0000
0001
0000
0000
0000
1000
0000
0000
0000
0001
0000
0000
0000
0000
0000
0000
0000
0000
0000
0000
0000
0000
0000
0000
0000
0100
0000
0000
0000
0000
0000
0000
0000
0000
0000
0000
0000
0000
0000
0000
0000
0000
0000
0000
0000
0000
0000
0000
0000
0010
0000
0000
0000
0100
0000
0000
0000
0010
0000
0000
0000
0100
0000
0000
0000
0000
0000
0000
0000
0000
0000
0000
0000
0001
0000
0000
1000
0000
0000
0000
0000
0000
0000
0000
0000
0000
0000
0000
0000
0000
0000
0000
0000
0000
0000
0000
0000
,
0001
1000
0000
0000
0000
0000
0000
0000
0010
0001
0000
0000
0000
0000
0000
0000
0010
0001
0000
0000
0000
0000
0000
0000
0010
0100
0000
0000
0000
0000
0000
0000
1000
0100
0000
0000
0000
0000
0000
0000
0010
0100
0000
0000
0000
0000
0000
0000
1000
0100
0000
0000
0000
0000
0000
0000
0010
0100
0000
0000
0000
0000
0000
0000
,
0001
0000
0000
0100
0000
0000
0000
0000
0000
0000
0000
0000
0000
0000
0000
0000
0000
0000
0000
0000
0000
0000
0000
0000
0100
0000
0000
0000
1000
0000
0000
0000
0000
0000
0000
0000
0000
0000
0000
0000
0000
0000
0000
0000
0000
0000
0000
0000
0001
0000
0000
0100
0000
0000
0000
0000
0000
0000
0000
0000
0000
0000
0000
0000
0000
0000
0000
0000
0000
0000
0000
0000
0100
0000
0000
0000
0000
0000
1000
0000
0000
0000
0000
0000
0000
0000
0000
0000
0000
0000
0000
0000
0000
0000
0000
0000
0010
0000
0000
0000
0100
0000
0000
0000
0000
0000
0000
0000
0000
0000
0000
0000
0000
0000
0000
0000
0000
0000
0000
0000
1000
0000
0000
0000
0000
0000
0100
0000
0000
0000
0000
0000
0000
0000
0000
0000
0000
0000
0000
0000
0000
0000
0000
0000
0100
0000
0000
0010
0000
0000
0000
0000
0000
0000
0000
0000
0000
0000
0000
0000
0000
0000
0000
0000
0000
0000
0000
0000
0010
0000
0000
0000
0001
0000
0000
0000
0000
0000
0000
0000
0000
0000
0000
0000
0000
0000
0000
0000
0000
0000
0000
0000
,
0001
0010
0001
0000
0000
0000
0001
0010
0001
0000
0000
0000
0010
0001
0010
0000
0000
0000
0001
0010
0001
0000
0000
0000
1000
0100
0010
0000
0000
0000
0100
0010
0001
0000
0000
0000
0001
0010
0100
0000
0000
0000
1000
0100
0010
0000
0000
0000
,
0012
0100
1000
0100
,
0020
0000
0000
0000
0000
0000
0000
0000
0000
0000
0000
0000
0000
0000
0000
0000
0000
0000
0000
0000
0000
0000
0000
0000
0000
0000
0000
0000
0000
0000
0000
0000
0000
0000
0000
0000
0000
0000
0000
0000
0000
0000
0000
0000
0000
0000
0000
0000
0000
0000
0000
0000
0000
0000
0000
0000
0000
0000
0000
0000
0000
0000
0000
0000
0000
0000
0000
0000
0000
0000
0000
0000
0000
0000
0000
0000
0000
0000
0000
0000
0000
0000
0000
0000
0000
0000
0000
0000
0000
0000
0000
0000
0000
0000
0000
0000
0133
0000
0000
0010
0000
0000
1000
0000
0000
0000
0000
0000
0000
0000
0000
0000
0000
0000
0000
0000
0000
0000
0000
0000
0000
0000
0000
0000
0000
0000
0000
0000
0000
0000
0000
0000
0000
0000
0000
0000
0000
0000
0000
0000
0000
0000
0000
0000
1100
0000
0000
0000
0011
0000
0000
0000
0000
0000
0000
0000
0000
0000
0000
0000
0000
0000
0000
0000
0000
0000
0000
0000
0100
0000
0000
0000
0000
0000
0000
0000
0000
0000
0000
0000
0000
0000
0000
0000
0000
0000
0000
0000
0000
0000
0000
0000
,
1100
0011
0000
0000
0000
0000
0100
0000
0000
0000
0000
0000
1100
0011
0000
0000
0000
0000
0100
0000
0000
0000
0000
0000
1000
0000
0010
0000
0100
0000
0001
0000
0100
0000
0010
0000
1000
0000
0100
0000
0010
0000
0001
0000
0100
0000
0010
0000
,
1001
0000
0000
0000
0100
0000
0000
0000
0000
0000
0000
0000
0000
0000
0000
0000
0000
0000
0000
0000
0000
0000
0000
0000
0001
0000
0000
0000
0000
0000
0000
0000
0000
0000
0000
0000
0000
0000
0000
0000
0000
0000
0000
0000
0000
0000
0000
0000
1001
0000
0000
0000
0100
0000
0000
0000
0000
0000
0000
0000
0000
0000
0000
0000
0000
0000
0000
0000
0000
0000
0000
0000
0101
0000
0000
0000
1000
0000
0000
0000
0000
0000
0000
0000
0000
0000
0000
0000
0000
0000
0000
0000
0000
0000
0000
0000
0000
0000
0000
0000
0000
0000
0000
0000
0000
0000
0000
0000
0000
0000
0000
0000
0000
0000
0000
0000
0000
0000
0000
0000
0100
0000
0000
0010
0000
0000
1000
0000
0000
0000
0000
0000
0000
0000
0000
0000
0000
0000
0000
0000
0000
0000
0000
0000
0000
0000
0000
0000
0000
0000
0000
0000
0000
0000
0000
0000
0000
0000
0000
0000
0000
0000
0000
0000
0000
0000
0000
0000
0100
0000
0000
0001
0000
0000
0000
0000
0000
0000
0000
0000
0000
0000
0000
0000
0000
0000
0000
0000
0000
0000
0000
0000
,
0100
0010
1000
0000
0000
0000
0000
0000
0000
0000
0000
0000
0000
0000
0000
0000
1000
0000
0000
0000
0000
0000
0000
0000
0100
0000
0001
0000
0000
0000
0000
0000
0110
0000
0001
0000
0000
0000
0000
0000
0011
0000
0001
0000
0000
0000
0000
0000
1001
0000
0110
0000
0000
0000
0000
0000
0000
0000
0000
0000
0000
0000
0000
0000
,
0011
0000
0001
0000
0001
0000
0001
0000
0001
1010
0000
1000
0000
1000
0000
1000
0000
1000
0012
0000
0000
0000
0000
0000
,
1000
1000
0100
0000
1000
1000
0100
0000
1000
1000
0100
0000
1000
1000
0100
0000
,
1003
0000
0000
0000
0000
0000
0000
0000
0000
0000
0000
0000
1000
0000
0000
0000
0000
0000
0000
0000
0000
0000
0000
0000
0101
0000
0000
0000
0000
0000
0000
0000
0000
0000
0000
0000
0001
0000
0000
0000
0000
0000
0100
0000
0000
0000
0000
0000
0001
0000
0000
0000
0000
0000
0000
0000
0000
0000
0000
0000
0101
0000
0000
0000
0000
0000
0000
0000
0000
0000
0000
0000
0001
0000
0000
0000
0000
0000
0100
0000
0000
0000
0000
0000
0001
0000
0000
0000
0000
0000
0000
0000
0000
0000
0000
0000
1100
0000
0000
0000
0000
0000
0000
0000
0000
0000
0000
0000
0100
0000
0000
0000
1000
0000
0000
0000
0000
0000
0000
0000
0100
0000
0000
0000
0000
0000
0000
0000
1000
0000
0000
0000
0100
0000
0000
0000
0000
0000
0000
0000
0000
0000
0000
0000
1100
0000
0000
0000
0000
0000
0000
0000
0000
0000
0000
0000
0100
0000
0000
0000
1000
0000
0000
0000
0000
0000
0000
0000
0100
0000
0000
0000
0000
0000
0000
0000
1000
0000
0000
0000
0100
0000
0000
0000
0000
0000
0000
0000
0000
0000
0000
0000
,
1001
0000
0000
0000
0000
0000
0000
0000
0000
0000
0000
0000
0201
0000
0000
0301
0000
0000
0010
0000
0000
0000
0000
0000
1200
0000
0000
1300
0000
0000
0010
0000
0000
0000
0000
0000
0101
0000
1000
0001
0100
0000
0010
0000
0000
0000
0000
0000
,
1000
0000
0000
0000
0000
0000
0000
0000
0100
0000
0000
0000
0000
0000
0000
0000
0010
0000
0000
0000
0000
0000
0000
0000
0001
0000
0000
0000
0000
0000
0000
0000
0000
0000
0000
0000
0000
0000
0000
0000
0000
0000
0000
0000
0000
0000
0000
0000
0001
0000
0000
0000
0000
0000
0000
0000
0000
0000
0000
0000
0000
0000
0000
0000
0000
0000
0000
0000
0000
0000
0000
0000
0000
0000
0000
0000
0000
0000
0000
0000
0000
0000
0000
0000
0000
0000
0000
0000
0000
0000
0000
0000
0000
0000
0000
0000
0001
0000
0000
0000
0000
0000
0010
0000
0000
0000
0000
0000
0100
0000
0000
0000
0000
0000
1000
0000
0000
0000
0000
0000
0100
0000
0000
0000
0000
0000
0010
0000
0000
0000
0000
0000
0001
0000
0000
0000
0000
0000
0010
0000
0000
0000
0000
0000
0100
0000
0000
0000
0000
0000
0000
0000
0000
0000
0000
0000
0000
0000
0000
0000
0000
0000
0000
0000
0000
0000
0000
0000
0000
0000
0000
0000
0000
0000
0000
0000
0000
0000
0000
0000
0000
0000
0000
0000
0000
0000
0000
0000
0000
0000
0000
0000
,
2001
0000
0001
0100
0001
0000
0010
0100
3010
0000
0000
0000
1010
0010
0110
0010
,
0011
0000
0000
0000
0110
0010
1010
0010
0011
0000
0000
0000
0100
0000
0000
0000
,
0021
0001
0001
0000
0001
0000
2130
0000
0100
0000
0100
0000
3011
0000
0000
0000
,
2000
0010
0100
3000
2000
0010
0100
3000
2000
0010
0100
3000
2000
0010
0100
3000
,
2010
0010
0010
0000
0010
0000
3201
0000
0001
0000
0001
0000
1310
0000
0000
0000
,
2000
0000
0000
0000
0000
0000
0000
0000
0010
0000
0000
0000
0000
0000
0000
0000
0100
0000
0000
0000
3000
0000
0000
0000
2000
0000
0000
0000
0000
0000
0000
0000
0010
0000
0000
0000
0000
0000
0000
0000
0100
0000
0000
0000
3000
0000
0000
0000
2000
0000
0000
0000
0000
0000
0000
0000
0010
0000
0000
0000
0000
0000
0000
0000
0100
0000
0000
0000
3000
0000
0000
0000
2000
0000
0000
0000
0000
0000
0000
0000
0010
0000
0000
0000
0000
0000
0000
0000
0100
0000
0000
0000
3000
0000
0000
0000
1000
0000
0000
0000
0000
0000
0100
0000
0000
0000
0000
0000
0010
0000
0000
0000
0000
0000
0000
0000
0000
0000
0000
0000
0100
0000
0000
0000
0000
0000
0010
0000
0000
0000
0000
0000
0001
0000
0000
0000
0000
0000
0000
0000
0000
0000
0000
0000
0010
0000
0000
0000
0000
0000
0001
0000
0000
0000
0000
0000
1000
0000
0000
0000
0000
0000
0000
0000
0000
0000
0000
0000
0001
0000
0000
0000
0000
0000
0100
0000
0000
0000
0000
0000
0010
0000
0000
0000
0000
0000
0000
0000
0000
0000
0000
0000
,
1000
0010
0100
0001
0010
0001
1000
0100
0010
0001
0100
0001
1000
0100
0010
0001
1000
0100
0010
0001
0010
0100
1000
0100
,
0010
0000
0000
0000
0000
0000
0000
0000
0001
0000
0000
0000
0000
0000
0000
0000
0100
0000
0000
0000
0000
0000
0000
0000
0010
0000
0000
0000
0000
0000
0000
0000
0100
0000
0000
0000
0000
0000
0000
0000
0001
0000
0000
0000
0000
0000
0000
0000
0010
0000
0000
0000
0000
0000
0000
0000
0100
0000
0000
0000
0000
0000
0000
0000
1000
0000
0000
0000
0000
0000
0000
0000
0100
0000
0000
0000
0000
0000
0000
0000
0010
0000
0000
0000
0000
0000
0000
0000
0001
0000
0000
0000
0000
0000
0000
0000
1000
0000
0000
0000
0000
0000
0100
0000
0000
0000
0000
0000
0010
0000
0000
0000
0000
0000
0000
0000
0000
0000
0000
0000
0100
0000
0000
0000
0000
0000
0010
0000
0000
0000
0000
0000
0001
0000
0000
0000
0000
0000
0000
0000
0000
0000
0000
0000
0010
0000
0000
0000
0000
0000
0001
0000
0000
0000
0000
0000
0100
0000
0000
0000
0000
0000
0000
0000
0000
0000
0000
0000
1000
0000
0000
0000
0000
0000
0010
0000
0000
0000
0000
0000
0100
0000
0000
0000
0000
0000
0000
0000
0000
0000
0000
0000
,
0001
0100
0010
1000
0100
1000
0001
0010
0100
1000
0010
1000
0001
0010
0100
1000
0001
0010
0100
1000
0100
0010
0001
0010
,
0100
0000
0000
0000
0000
0000
0000
0000
1000
0000
0000
0000
0000
0000
0000
0000
0010
0000
0000
0000
0000
0000
0000
0000
0100
0000
0000
0000
0000
0000
0000
0000
0010
0000
0000
0000
0000
0000
0000
0000
1000
0000
0000
0000
0000
0000
0000
0000
0100
0000
0000
0000
0000
0000
0000
0000
0010
0000
0000
0000
0000
0000
0000
0000
0001
0000
0000
0000
0000
0000
0000
0000
0010
0000
0000
0000
0000
0000
0000
0000
0100
0000
0000
0000
0000
0000
0000
0000
1000
0000
0000
0000
0000
0000
0000
0000
0001
0000
0000
0000
0000
0000
0100
0000
0000
0000
0000
0000
0010
0000
0000
0000
0000
0000
0000
0000
0000
0000
0000
0000
1000
0000
0000
0000
0000
0000
0100
0000
0000
0000
0000
0000
0010
0000
0000
0000
0000
0000
0000
0000
0000
0000
0000
0000
0100
0000
0000
0000
0000
0000
0010
0000
0000
0000
0000
0000
0001
0000
0000
0000
0000
0000
0000
0000
0000
0000
0000
0000
0010
0000
0000
0000
0000
0000
0001
0000
0000
0000
0000
0000
1000
0000
0000
0000
0000
0000
0000
0000
0000
0000
0000
0000
,
0001
0100
0010
0100
0001
0100
0010
0100
0001
1000
0010
0100
0010
1000
0010
0100
0010
1000
0001
0100
0010
0100
0001
0100
,
0010
1000
0100
1000
0010
1000
0100
1000
0010
1000
0100
1000
0101
0000
0000
0000
0000
0000
0000
0000
0000
0010
0000
0000
,
1000
0010
0100
0010
1000
0010
0100
0010
1000
0001
0100
0010
0100
0001
0100
0010
0100
0001
1000
0010
0100
0010
1000
0010
,
0100
0000
0000
0000
0000
0000
0000
0000
0001
0000
0000
0000
0000
0000
0000
0000
0010
0000
0000
0000
0000
0000
0000
0000
0001
0000
0000
0000
0000
0000
0000
0000
0100
0000
0000
0000
0000
0000
0000
0000
0001
0000
0000
0000
0000
0000
0000
0000
0010
0000
0000
0000
0000
0000
0000
0000
0001
0000
0000
0000
0000
0000
0000
0000
0100
0000
0000
0000
0000
0000
0000
0000
0001
0000
0000
0000
0000
0000
0000
0000
0010
0000
0000
0000
0000
0000
0000
0000
0001
0000
0000
0000
0000
0000
0000
0000
1000
0000
0000
0000
0000
0000
0100
0000
0000
0000
0000
0000
0010
0000
0000
0000
0000
0000
0000
0000
0000
0000
0000
0000
0100
0000
0000
0000
0000
0000
0010
0000
0000
0000
0000
0000
0001
0000
0000
0000
0000
0000
0000
0000
0000
0000
0000
0000
0010
0000
0000
0000
0000
0000
0001
0000
0000
0000
0000
0000
1000
0000
0000
0000
0000
0000
0000
0000
0000
0000
0000
0000
0100
0000
0000
0000
0000
0000
0010
0000
0000
0000
0000
0000
0001
0000
0000
0000
0000
0000
0000
0000
0000
0000
0000
0000
,
0001
0100
0010
0100
0001
0010
0100
0010
0001
1000
0100
0010
0100
1000
0010
0100
0010
1000
0001
0010
0100
0010
0001
0100
,
0010
0100
0001
0010
0100
0010
0001
0100
0010
0100
0001
0010
1100
0000
0000
0000
0000
0000
1000
0000
0000
0010
0000
0000
,
1000
0010
0100
0010
1000
0100
0010
0100
1000
0001
0010
0100
0010
0001
0100
0010
0100
0001
1000
0100
0010
0100
1000
0010
,
0100
0000
0000
0000
0000
0000
0000
0000
0010
0000
0000
0000
0000
0000
0000
0000
1000
0000
0000
0000
0000
0000
0000
0000
0100
0000
0000
0000
0000
0000
0000
0000
0010
0000
0000
0000
0000
0000
0000
0000
0100
0000
0000
0000
0000
0000
0000
0000
1000
0000
0000
0000
0000
0000
0000
0000
0010
0000
0000
0000
0000
0000
0000
0000
0100
0000
0000
0000
0000
0000
0000
0000
0010
0000
0000
0000
0000
0000
0000
0000
1000
0000
0000
0000
0000
0000
0000
0000
0100
0000
0000
0000
0000
0000
0000
0000
0010
0000
0000
0000
0000
0000
0001
0000
0000
0000
0000
0000
1000
0000
0000
0000
0000
0000
0100
0000
0000
0000
0000
0000
0010
0000
0000
0000
0000
0000
0001
0000
0000
0000
0000
0000
1000
0000
0000
0000
0000
0000
0100
0000
0000
0000
0000
0000
0010
0000
0000
0000
0000
0000
0000
0000
0000
0000
0000
0000
0000
0000
0000
0000
0000
0000
0000
0000
0000
0000
0000
0000
0000
0000
0000
0000
0000
0000
0000
0000
0000
0000
0000
0000
0000
0000
0000
0000
0000
0000
0000
0000
0000
0000
0000
0000
,
0100
1000
0001
0010
0100
1000
0001
0010
0100
0000
0000
0000
0000
0000
0000
0000
0010
0000
0000
0000
0000
0000
0010
0000
0101
0000
0000
0000
0000
0000
0000
0000
,
0001
0010
0100
1000
0100
0010
0001
0010
0100
1000
0001
1000
0100
1000
0001
1000
0020
0000
0000
0000
0000
0000
0000
0000
0000
0000
0000
0000
0000
0000
0000
0000
,
2031
0000
0100
0000
0001
0000
0100
0000
0001
0000
0010
0000
0010
0001
0100
0000
,
0001
0000
0000
0000
0010
0000
0000
0000
0001
0000
0000
0000
0100
0000
0000
0000
3100
0000
0000
0000
1100
0011
0000
0000
0100
0000
0000
0000
1100
0011
0000
0000
,
0011
0000
0000
0000
0000
0000
1100
0000
0000
0000
0000
0000
0000
0000
0000
0000
0000
0000
0000
0000
0000
0000
0000
0000
0010
0000
0000
0000
0000
0000
0000
0000
0000
0000
0000
0000
0000
0000
0000
0000
0000
0000
0000
0000
0000
0000
0000
0000
0100
0000
0000
0000
1000
0000
0000
0000
0000
0000
0000
0000
0000
0000
0000
0000
0000
0000
0000
0000
0000
0000
0000
0000
0001
0000
0000
0000
0100
0000
0000
0000
0000
0000
0000
0000
0000
0000
0000
0000
0000
0000
0000
0000
0000
0000
0000
0000
0100
0000
0000
1000
0000
0000
0000
0000
0000
0000
0000
0000
0000
0000
0000
0000
0000
0000
0000
0000
0000
0000
0000
0000
0001
0000
0000
0000
0100
0000
0000
0000
0000
0000
0000
0000
0000
0000
0000
0000
0000
0000
0000
0000
0000
0000
0000
0000
1000
0000
0000
0000
0010
0000
0000
0000
0000
0000
0000
0000
0000
0000
0000
0000
0000
0000
0000
0000
0000
0000
0000
0000
0001
0000
0000
0100
0000
0000
0000
0000
0000
0000
0000
0000
0000
0000
0000
0000
0000
0000
0000
0000
0000
0000
0000
0000
,
1000
0000
0000
0000
0001
0000
0000
0000
0000
0000
0000
0000
0000
0000
0000
0000
0000
0000
0000
0000
0000
0000
0000
0000
0010
0000
0000
1000
0000
0000
0000
0000
0000
0000
0000
0000
0000
0000
0000
0000
0000
0000
0000
0000
0000
0000
0000
0000
0100
0000
0000
0000
0010
0000
0000
0000
0000
0000
0000
0000
0000
0000
0000
0000
0000
0000
0000
0000
0000
0000
0000
0000
0001
0000
0000
1000
0000
0000
0000
0000
0000
0000
0000
0000
0000
0000
0000
0000
0000
0000
0000
0000
0000
0000
0000
0000
1000
0000
0000
0000
0000
0000
0100
0000
0000
0000
0000
0000
0010
0000
0000
0000
0000
0000
0001
0000
0000
0000
0000
0000
0010
0000
0000
0000
0000
0000
0100
0000
0000
0000
0000
0000
1000
0000
0000
0000
0000
0000
0100
0000
0000
0000
0000
0000
0010
0000
0000
0000
0000
0000
0000
0000
0000
0000
0000
0000
0000
0000
0000
0000
0000
0000
0000
0000
0000
0000
0000
0000
0001
0000
0000
0000
0000
0000
0000
0000
0000
0000
0000
0000
0000
0000
0000
0000
0000
0000
0000
0000
0000
0000
0000
0000
,
2010
0010
0000
0000
3000
0000
0000
0000
0201
0001
0000
0000
0300
0000
0000
0000
0010
0000
0000
0000
0100
0000
0000
0000
1001
0000
0001
0000
0001
0000
0001
0000
,
0011
0011
0011
0011
0001
0011
0011
0011
0011
0011
0101
0001
1001
0001
0011
0000
,
0000
0000
0000
0000
2010
0010
3001
0000
0120
0100
0031
0000
0210
0010
0301
0000
,
1002
0100
0100
0100
0010
0103
2001
0100
0100
0100
0010
3100
1001
0110
0110
0110
,
0110
0110
0110
0110
1010
1010
1010
1010
1010
1010
1010
1010
1010
0000
0001
0000
,
0110
0010
1010
0010
0110
0010
1010
0010
0110
0010
1010
0010
0110
0010
1010
0010
,
1000
0100
0010
0001
0100
0010
1000
0100
0010
0001
0000
0000
0000
0000
0000
0000
0001
0010
0000
0000
0000
0000
0000
0000
0010
0001
0000
0000
0000
0000
0000
0000
,
1000
0100
0010
0001
0100
0010
1000
0100
0010
0001
0000
0000
0000
0000
0000
0000
0001
0010
0000
0000
0000
0000
0000
0000
0010
0001
0000
0000
0000
0000
0000
0000
,
1020
0000
0000
0000
0100
0001
0000
0000
1000
0000
0000
0000
0100
0001
0000
0000
1000
0000
0000
0000
0100
0001
0000
0000
1000
0000
0000
0000
0100
0001
0000
0000
,
1000
0000
0000
0000
0100
0001
0000
0000
1000
0000
0000
0000
0000
0000
0000
0000
0031
0000
0000
0000
0000
0000
0000
0000
0001
0000
0000
0000
0100
0000
0000
0000
,
0021
0001
0001
0000
0001
0000
2130
0000
0100
0000
0100
0000
3011
0000
0010
0000
,
0000
0000
0000
0000
0010
0000
0000
0000
0000
0000
0000
0000
0000
0000
0000
0000
0000
0000
1000
0000
0000
0000
0000
0000
0000
0000
0000
0000
0000
0000
0000
0000
0010
0000
0000
0000
0000
0000
0000
1000
0000
0000
0000
0000
0000
0000
0000
0000
0000
0000
0000
0000
0000
0000
0000
0000
0010
0000
0000
0000
0000
0000
0000
0000
0000
0000
0000
0000
0000
1000
0000
0000
0000
0000
0000
0000
0000
0000
0010
0000
0000
0000
0000
0000
0000
0000
0000
0000
0000
0000
0000
0000
0000
0000
0000
0000
1000
0000
0000
0000
0000
0000
0000
0000
0000
0000
0000
0000
0000
0000
0000
0000
0000
0000
0010
0000
0000
0000
0000
0000
0000
0000
0000
0000
0000
0000
0000
0000
1000
0000
0000
0000
0000
0000
0000
0010
0000
0000
0000
0000
0000
0000
0000
0000
0000
0000
0000
0000
0000
0000
0000
0000
1000
0000
0000
0000
0000
0000
0000
0000
0000
0000
0000
0000
0000
0000
0000
0000
0100
0000
0000
0000
0000
0000
0000
0000
0000
0000
0000
0000
0000
0000
0000
0000
0000
0000
0000
0000
0000
0000
0000
0000
,
0021
0001
0001
0000
0001
0000
2130
0000
0100
0000
0100
0000
3011
0000
0100
0000
,
0100
0000
0000
0000
0010
0000
0000
0000
0000
0000
0000
0000
0100
0000
0000
0000
0000
0000
1000
0000
0000
0000
0000
0000
0100
0000
0000
0000
0000
0000
0000
0000
0010
0000
0000
0000
0100
0000
0000
1000
0000
0000
0000
0000
0000
0000
0000
0000
0100
0000
0000
0000
0000
0000
0000
0000
0010
0000
0000
0000
0100
0000
0000
0000
0000
0000
0000
0000
0000
1000
0000
0000
0100
0000
0000
0000
0000
0000
0010
0000
0000
0000
0000
0000
0100
0000
0000
0000
0000
0000
0000
0000
0000
0000
0000
0000
1000
0000
0000
0000
0000
0000
0100
0000
0000
0000
0000
0000
0010
0000
0000
0000
0000
0000
0000
0000
0000
0000
0000
0000
0100
0000
0000
0000
0000
0000
0010
0000
0000
0000
0000
0000
0001
0000
0000
0000
0000
0000
0000
0000
0000
0000
0000
0000
0010
0000
0000
0000
0000
0000
0001
0000
0000
0000
0000
0000
1000
0000
0000
0000
0000
0000
0000
0000
0000
0000
0000
0000
0001
0000
0000
0000
0000
0000
0100
0000
0000
0000
0000
0000
0010
0000
0000
0000
0000
0000
0000
0000
0000
0000
0000
0000
,
1000
0010
0100
0001
0010
0001
1000
0100
0010
0001
0100
0001
1000
0100
0010
0001
1000
0100
0010
0001
0010
0100
1000
0100
,
0010
0000
0000
0000
0000
0000
0000
0000
0001
0000
0000
0000
0000
0000
0000
0000
0100
0000
0000
0000
0000
0000
0000
0000
0010
0000
0000
0000
0000
0000
0000
0000
0100
0000
0000
0000
0000
0000
0000
0000
0001
0000
0000
0000
0000
0000
0000
0000
0010
0000
0000
0000
0000
0000
0000
0000
0100
0000
0000
0000
0000
0000
0000
0000
1000
0000
0000
0000
0000
0000
0000
0000
0100
0000
0000
0000
0000
0000
0000
0000
0010
0000
0000
0000
0000
0000
0000
0000
0001
0000
0000
0000
0000
0000
0000
0000
1000
0000
0000
0000
0000
0000
0100
0000
0000
0000
0000
0000
0010
0000
0000
0000
0000
0000
0000
0000
0000
0000
0000
0000
0100
0000
0000
0000
0000
0000
0010
0000
0000
0000
0000
0000
0001
0000
0000
0000
0000
0000
0000
0000
0000
0000
0000
0000
0010
0000
0000
0000
0000
0000
0001
0000
0000
0000
0000
0000
0100
0000
0000
0000
0000
0000
0000
0000
0000
0000
0000
0000
1000
0000
0000
0000
0000
0000
0010
0000
0000
0000
0000
0000
0100
0000
0000
0000
0000
0000
0000
0000
0000
0000
0000
0000
,
0001
0100
0010
1000
0100
1000
0001
0010
0100
1000
0010
1000
0001
0010
0100
1000
0001
0010
0100
1000
0100
0010
0001
0010
,
0100
0000
0000
0000
0000
0000
0000
0000
1000
0000
0000
0000
0000
0000
0000
0000
0010
0000
0000
0000
0000
0000
0000
0000
0100
0000
0000
0000
0000
0000
0000
0000
0010
0000
0000
0000
0000
0000
0000
0000
1000
0000
0000
0000
0000
0000
0000
0000
0100
0000
0000
0000
0000
0000
0000
0000
0010
0000
0000
0000
0000
0000
0000
0000
0001
0000
0000
0000
0000
0000
0000
0000
0010
0000
0000
0000
0000
0000
0000
0000
0100
0000
0000
0000
0000
0000
0000
0000
1000
0000
0000
0000
0000
0000
0000
0000
0001
0000
0000
0000
0000
0000
0100
0000
0000
0000
0000
0000
0010
0000
0000
0000
0000
0000
0000
0000
0000
0000
0000
0000
1000
0000
0000
0000
0000
0000
0100
0000
0000
0000
0000
0000
0010
0000
0000
0000
0000
0000
0000
0000
0000
0000
0000
0000
0100
0000
0000
0000
0000
0000
0010
0000
0000
0000
0000
0000
0001
0000
0000
0000
0000
0000
0000
0000
0000
0000
0000
0000
0010
0000
0000
0000
0000
0000
0001
0000
0000
0000
0000
0000
1000
0000
0000
0000
0000
0000
0000
0000
0000
0000
0000
0000
,
0001
0100
0010
0100
0001
0100
0010
0100
0001
1000
0010
0100
0010
1000
0010
0100
0010
1000
0001
0100
0010
0100
0001
0100
,
0010
1000
0100
1000
0010
1000
0100
1000
0010
1000
0100
1000
0101
0000
0000
0000
0000
0000
0000
0000
0000
0010
0000
0000
,
1000
0010
0100
0010
1000
0010
0100
0010
1000
0001
0100
0010
0100
0001
0100
0010
0100
0001
1000
0010
0100
0010
1000
0010
,
0100
0000
0000
0000
0000
0000
0000
0000
0001
0000
0000
0000
0000
0000
0000
0000
0010
0000
0000
0000
0000
0000
0000
0000
0001
0000
0000
0000
0000
0000
0000
0000
0100
0000
0000
0000
0000
0000
0000
0000
0001
0000
0000
0000
0000
0000
0000
0000
0010
0000
0000
0000
0000
0000
0000
0000
0001
0000
0000
0000
0000
0000
0000
0000
0100
0000
0000
0000
0000
0000
0000
0000
0001
0000
0000
0000
0000
0000
0000
0000
0010
0000
0000
0000
0000
0000
0000
0000
0001
0000
0000
0000
0000
0000
0000
0000
1000
0000
0000
0000
0000
0000
0100
0000
0000
0000
0000
0000
0010
0000
0000
0000
0000
0000
0000
0000
0000
0000
0000
0000
0100
0000
0000
0000
0000
0000
0010
0000
0000
0000
0000
0000
0001
0000
0000
0000
0000
0000
0000
0000
0000
0000
0000
0000
0010
0000
0000
0000
0000
0000
0001
0000
0000
0000
0000
0000
1000
0000
0000
0000
0000
0000
0000
0000
0000
0000
0000
0000
0100
0000
0000
0000
0000
0000
0010
0000
0000
0000
0000
0000
0001
0000
0000
0000
0000
0000
0000
0000
0000
0000
0000
0000
,
0001
0100
0010
0100
0001
0010
0100
0010
0001
1000
0100
0010
0100
1000
0010
0100
0010
1000
0001
0010
0100
0010
0001
0100
,
0010
0100
0001
0010
0100
0010
0001
0100
0010
0100
0001
0010
1100
0000
0000
0000
0000
0000
1000
0000
0000
0010
0000
0000
,
1000
0010
0100
0010
1000
0100
0010
0100
1000
0001
0010
0100
0010
0001
0100
0010
0100
0001
1000
0100
0010
0100
1000
0010
,
0100
0000
0000
0000
0000
0000
0000
0000
0010
0000
0000
0000
0000
0000
0000
0000
1000
0000
0000
0000
0000
0000
0000
0000
0100
0000
0000
0000
0000
0000
0000
0000
0010
0000
0000
0000
0000
0000
0000
0000
0100
0000
0000
0000
0000
0000
0000
0000
1000
0000
0000
0000
0000
0000
0000
0000
0010
0000
0000
0000
0000
0000
0000
0000
0100
0000
0000
0000
0000
0000
0000
0000
0010
0000
0000
0000
0000
0000
0000
0000
1000
0000
0000
0000
0000
0000
0000
0000
0100
0000
0000
0000
0000
0000
0000
0000
0010
0000
0000
0000
0000
0000
0001
0000
0000
0000
0000
0000
1000
0000
0000
0000
0000
0000
0100
0000
0000
0000
0000
0000
0010
0000
0000
0000
0000
0000
0001
0000
0000
0000
0000
0000
1000
0000
0000
0000
0000
0000
0100
0000
0000
0000
0000
0000
0010
0000
0000
0000
0000
0000
0000
0000
0000
0000
0000
0000
0000
0000
0000
0000
0000
0000
0000
0000
0000
0000
0000
0000
0000
0000
0000
0000
0000
0000
0000
0000
0000
0000
0000
0000
0000
0000
0000
0000
0000
0000
0000
0000
0000
0000
0000
0000
,
0100
1000
0001
0010
0100
1000
0001
0010
0100
0000
0000
0000
0000
0000
0000
0000
0010
0000
0000
0000
0000
0000
0010
0000
0101
0000
0000
0000
0000
0000
0000
0000
,
0001
0010
0100
1000
0100
0010
0001
0010
0100
1000
0001
1000
0100
1000
0001
1000
0200
0000
0000
0000
0000
0000
0000
0000
0000
0000
0000
0000
0000
0000
0000
0000
,
0311
0001
0000
0000
0100
0000
0000
0000
1001
0001
0000
0000
0100
0000
0000
0000
1002
0000
0000
0000
0010
0000
0000
0000
0100
0000
0000
0000
0010
0000
0000
0000
,
1000
0000
0000
0000
0100
0000
0000
0000
0010
0000
0000
0000
0100
0000
0000
0000
1000
0000
0000
0000
0010
0000
0000
0000
1000
1000
0000
0000
0010
0000
0000
0000
,
1003
0000
0000
0000
0010
0000
0000
0000
0000
0000
0000
0000
0000
0000
0000
0000
0000
0000
0000
0000
0000
0000
0000
0000
0100
0000
0000
0000
0001
0000
0000
0000
0000
0000
0000
0000
0000
0000
0000
0000
0000
0000
0000
0000
0001
0000
0000
0000
0010
0000
0000
0000
0000
0000
0000
0000
0000
0000
0000
0000
0000
0000
0000
0000
0000
0000
0000
0000
1000
0000
0000
0000
0001
0000
0000
0000
0000
0000
0000
0000
0000
0000
0000
0000
0000
0000
0000
0000
0000
0000
0000
0000
0010
0000
0000
0000
1000
0000
0000
0000
0000
0000
0000
0000
0000
0000
0000
0000
0000
0000
0000
0000
0000
0000
0000
0000
0000
0000
0000
0000
0100
0000
0000
0000
0001
0000
0000
0000
0000
0000
0000
0000
0000
0000
0000
0000
0000
0000
0000
0000
0000
0001
0000
0000
0010
0000
0000
0000
0000
0000
0000
0000
0000
0000
0000
0000
0000
0000
0000
0000
0000
0000
0000
0000
0000
0000
0000
0000
0100
0000
0000
0000
0010
0000
0000
0000
0100
0000
0000
0000
0000
0000
0000
0000
0000
0000
0000
0000
0000
0001
0000
0000
,
1000
0000
0000
0000
0000
0000
0000
0000
0000
0000
0000
0000
0000
0000
0000
0000
0000
0000
0000
0000
0000
0001
0000
0000
1000
0000
0000
0000
0000
0000
0000
0000
0000
0000
0000
0000
0000
0000
0000
0000
0000
0000
0000
0000
0000
0001
0000
0000
1000
0000
0000
0000
0000
0000
0000
0000
0000
0000
0000
0000
0000
0000
0000
0000
0000
0000
0000
0000
0000
0000
0000
0000
0100
0000
0000
0000
0010
0000
0000
0000
0000
0000
0000
0000
0000
0000
0000
0000
0000
0000
0000
0000
0000
0001
0000
0000
1000
0000
0000
0000
0000
0000
0000
0000
0000
0000
0000
0000
0000
0000
0000
0000
0000
0000
0000
0000
0000
0000
0000
0000
0100
0000
0000
0000
0010
0000
0000
0000
0100
0000
0000
0000
0000
0000
0000
0000
0000
0000
0000
0000
0001
0000
0000
0000
0010
0000
0000
0000
0000
0000
0000
0000
0000
0000
0000
0000
0000
0000
0000
0000
0000
0000
0000
0000
0000
0000
0000
0000
0100
0000
0000
0000
0010
0000
0000
0000
0100
0000
0000
0000
0000
0000
0000
0000
0000
0000
0000
0000
0000
0000
0000
0000
,
0100
0000
0000
0000
0010
0000
0000
0000
0100
0000
0000
0000
0000
0000
0000
0000
0000
0000
0000
0000
0001
0000
0000
0000
0010
0000
0000
0000
0000
0000
0000
0000
0000
0000
0000
0000
0000
0000
0000
0000
0000
0000
0000
0000
0000
0000
0000
0000
0100
0000
0000
0000
0010
0000
0000
0000
0100
0000
0000
0000
0000
0000
0000
0000
0000
0000
0000
0000
0001
0000
0000
0000
0010
0000
0000
0000
0000
0000
0000
0000
0000
0000
0000
0000
0000
0000
0000
0000
0000
0000
0000
0000
0000
0000
0000
0000
1000
0000
0000
0000
0001
0000
0000
0000
1000
0000
0000
0000
0000
0000
0000
0000
0000
0000
0000
0000
0000
0000
0000
0000
0010
0000
0000
0000
0000
0000
0000
0000
0000
0000
0000
0000
0000
0000
0000
0000
0000
0000
0000
0000
0000
0000
0000
0000
0100
0000
0000
0000
0010
0000
0000
0000
0100
0000
0000
0000
0010
0000
0000
0000
0000
0000
0000
0000
0000
0000
0000
0000
1000
0000
0000
0001
0000
0000
0000
0000
0000
0000
0000
0000
0000
0000
0000
0000
0000
0000
0000
0000
0000
0000
0000
0000
,
1000
0001
0000
0000
0000
0000
0000
0000
0100
1000
0000
0000
0000
0000
0000
0000
0100
1000
0000
0000
0000
0000
0000
0000
0100
0010
0000
0000
0000
0000
0000
0000
0001
0010
0000
0000
0000
0000
0000
0000
0100
0010
0000
0000
0000
0000
0000
0000
0001
0010
0000
0000
0000
0000
0000
0000
0100
0010
0000
0000
0000
0000
0000
0000
,
1000
0000
0000
0010
0000
0000
0000
0000
0000
0000
0000
0000
0000
0000
0000
0000
0000
0000
0000
0000
0000
0000
0000
0000
0010
0000
0000
0000
0001
0000
0000
0000
0000
0000
0000
0000
0000
0000
0000
0000
0000
0000
0000
0000
0000
0000
0000
0000
1000
0000
0000
0010
0000
0000
0000
0000
0000
0000
0000
0000
0000
0000
0000
0000
0000
0000
0000
0000
0000
0000
0000
0000
0010
0000
0000
0000
0000
0000
0001
0000
0000
0000
0000
0000
0000
0000
0000
0000
0000
0000
0000
0000
0000
0000
0000
0000
0100
0000
0000
0000
0010
0000
0000
0000
0000
0000
0000
0000
0000
0000
0000
0000
0000
0000
0000
0000
0000
0000
0000
0000
0001
0000
0000
0000
0000
0000
0010
0000
0000
0000
0000
0000
0000
0000
0000
0000
0000
0000
0000
0000
0000
0000
0000
0000
0010
0000
0000
0100
0000
0000
0000
0000
0000
0000
0000
0000
0000
0000
0000
0000
0000
0000
0000
0000
0000
0000
0000
0000
0100
0000
0000
0000
1000
0000
0000
0000
0000
0000
0000
0000
0000
0000
0000
0000
0000
0000
0000
0000
0000
0000
0000
0000
,
1000
0100
1000
0000
0000
0000
1000
0100
1000
0000
0000
0000
0100
1000
0100
0000
0000
0000
1000
0100
1000
0000
0000
0000
0001
0010
0100
0000
0000
0000
0010
0100
1000
0000
0000
0000
1000
0100
0010
0000
0000
0000
0001
0010
0100
0000
0000
0000
,
1010
0000
0000
0100
1000
0000
0000
0000
1000
0000
0000
0000
1001
0000
0000
0100
1000
0000
0000
0000
1000
0000
0000
0000
1010
0000
0000
0100
1000
0000
0000
0000
1000
0000
0000
0000
1100
0000
0000
0001
1000
0000
0000
0000
1000
0000
0000
0000
,
1010
0000
0000
0100
1000
0000
0000
0000
1000
0000
0000
0000
1000
0000
0000
0000
1000
0000
0000
0000
1000
0000
0000
0000
1000
0000
0000
0000
1000
0000
0000
0000
1000
0000
0000
0000
1001
0000
0000
0010
1000
0000
0000
0000
1000
0000
0000
0000
,
1100
0000
0000
0010
1000
0000
0000
0000
1000
0000
0000
0000
1001
0000
0000
0010
1000
0000
0000
0000
1000
0000
0000
0000
1100
0000
0000
0010
1000
0000
0000
0000
1000
0000
0000
0000
1001
0000
0000
0010
1000
0000
0000
0000
1000
0000
0000
0000
,
1000
0000
0000
0000
1000
0000
0000
0000
1000
0000
0000
0000
1000
0000
0000
0000
1000
0000
0000
0000
1000
0000
0000
0000
1010
0000
0000
0100
1000
0000
0000
0000
1000
0000
0000
0000
1000
0000
0000
0000
1000
0000
0000
0000
1000
0000
0000
0000
,
1002
0000
0000
0000
,
0000
0000
0003
0001
,
0001
0000
0000
0001
0000
0000
0001
0000
0000
0001
0000
0000
0011
0000
0010
0000
0010
0000
0010
0000
0010
0000
0010
0000
,
0100
0000
0100
0000
0100
0000
0100
0000
0100
0000
0100
0000
0100
0000
0100
0000
0100
1000
0100
1000
0100
1000
0100
1000
0100
1000
0100
1000
0100
1000
0100
1000
,
0201
0000
0000
0301
,
0001
0001
0001
0000
0001
0000
0000
0000
,
1000
0100
0010
0001
0100
0010
1000
0100
0010
0001
0010
0100
1000
0010
0100
0001
0100
0010
1000
0100
0010
0001
0010
0100
,
1000
0010
0100
0001
0100
0010
1000
0100
0010
0001
0100
0001
0010
0100
1000
0010
1000
0100
0010
0001
0100
0001
0010
0100
,
1000
0010
1000
0001
0100
0001
1000
0100
1000
0001
0100
0001
1000
0100
0010
0100
0010
0001
1000
0010
0100
0010
0100
0001
,
0010
0100
1000
0100
0010
0001
0100
0010
1000
0010
0100
0001
0010
0100
1000
0010
0100
0010
1000
0100
0010
0001
0100
0010
,
0100
0001
0010
0100
1000
0010
0100
0001
0010
0100
0010
0001
1000
0010
0100
0010
1000
0100
0010
0001
0100
0010
0100
0001
,
1000
0100
0010
0100
1000
0010
0100
0001
0010
0100
0010
0001
1000
0010
0100
0001
0010
0100
1000
0001
0010
0100
1000
0010
,
0100
0001
1000
0010
0100
0001
1000
0100
0010
0001
0100
0010
1000
0100
0010
0100
1000
0010
0100
0001
0010
0100
0010
0001
,
1000
0010
0100
0001
0010
0100
1000
0010
0100
0010
1000
0100
0010
0100
1000
0001
0100
0010
1000
0001
0010
0100
1000
0010
,
0100
0010
1000
0100
0010
0001
1000
0010
0100
0010
1000
0100
0010
0001
0100
0001
0010
0100
1000
0010
0100
0010
1000
0100
,
0010
0001
0100
0001
0010
0100
1000
0010
0100
0001
1000
0010
0100
0001
1000
0010
0100
0010
0100
0001
1000
0010
0100
0001
,
1000
0010
0100
0010
1000
0100
1000
0010
0100
0001
0100
0010
0100
0001
0010
0001
0100
0010
1000
0010
0100
0010
1000
0100
,
1000
0010
0100
0010
1000
0100
1000
0010
0100
0001
1000
0010
0100
0001
1000
0010
0100
0010
0100
0001
1000
0010
0100
0001
,
1000
0100
0010
0001
0010
0100
1000
0010
0100
0001
0100
0010
1000
0100
0010
0001
0010
0100
1000
0010
0100
0001
0100
0010
,
1000
0000
0000
0000
0000
0000
0000
0000
0100
0000
0000
0000
0000
0000
0000
0000
0010
0000
0000
0000
0000
0000
0000
0000
0001
0000
0000
0000
0000
0000
0000
0000
0010
0000
0000
0000
0000
0000
0000
0000
0100
0000
0000
0000
0000
0000
0000
0000
1000
0000
0000
0000
0000
0000
0000
0000
0010
0000
0000
0000
0000
0000
0000
0000
0100
0000
0000
0000
0000
0000
0000
0000
0001
0000
0000
0000
0000
0000
0000
0000
0100
0000
0000
0000
0000
0000
0000
0000
0010
0000
0000
0000
0000
0000
0000
0000
1000
0000
0000
0000
0000
0000
0100
0000
0000
0000
0000
0000
0010
0000
0000
0000
0000
0000
0000
0000
0000
0000
0000
0000
0100
0000
0000
0000
0000
0000
0010
0000
0000
0000
0000
0000
0001
0000
0000
0000
0000
0000
0000
0000
0000
0000
0000
0000
0010
0000
0000
0000
0000
0000
0001
0000
0000
0000
0000
0000
1000
0000
0000
0000
0000
0000
0000
0000
0000
0000
0000
0000
0001
0000
0000
0000
0000
0000
0100
0000
0000
0000
0000
0000
0010
0000
0000
0000
0000
0000
0000
0000
0000
0000
0000
0000
,
1000
0010
0100
0001
0010
0001
1000
0100
0010
0001
0100
0001
1000
0100
0010
0001
1000
0100
0010
0001
0010
0100
1000
0100
,
0010
0000
0000
0000
0000
0000
0000
0000
0001
0000
0000
0000
0000
0000
0000
0000
0100
0000
0000
0000
0000
0000
0000
0000
0010
0000
0000
0000
0000
0000
0000
0000
0100
0000
0000
0000
0000
0000
0000
0000
0001
0000
0000
0000
0000
0000
0000
0000
0010
0000
0000
0000
0000
0000
0000
0000
0100
0000
0000
0000
0000
0000
0000
0000
1000
0000
0000
0000
0000
0000
0000
0000
0100
0000
0000
0000
0000
0000
0000
0000
0010
0000
0000
0000
0000
0000
0000
0000
0001
0000
0000
0000
0000
0000
0000
0000
1000
0000
0000
0000
0000
0000
0100
0000
0000
0000
0000
0000
0010
0000
0000
0000
0000
0000
0000
0000
0000
0000
0000
0000
0100
0000
0000
0000
0000
0000
0010
0000
0000
0000
0000
0000
0001
0000
0000
0000
0000
0000
0000
0000
0000
0000
0000
0000
0010
0000
0000
0000
0000
0000
0001
0000
0000
0000
0000
0000
0100
0000
0000
0000
0000
0000
0000
0000
0000
0000
0000
0000
1000
0000
0000
0000
0000
0000
0010
0000
0000
0000
0000
0000
0100
0000
0000
0000
0000
0000
0000
0000
0000
0000
0000
0000
,
0001
0100
0010
1000
0100
1000
0001
0010
0100
1000
0010
1000
0001
0010
0100
1000
0001
0010
0100
1000
0100
0010
0001
0010
,
0100
0000
0000
0000
0000
0000
0000
0000
1000
0000
0000
0000
0000
0000
0000
0000
0010
0000
0000
0000
0000
0000
0000
0000
0100
0000
0000
0000
0000
0000
0000
0000
0010
0000
0000
0000
0000
0000
0000
0000
1000
0000
0000
0000
0000
0000
0000
0000
0100
0000
0000
0000
0000
0000
0000
0000
0010
0000
0000
0000
0000
0000
0000
0000
0001
0000
0000
0000
0000
0000
0000
0000
0010
0000
0000
0000
0000
0000
0000
0000
0100
0000
0000
0000
0000
0000
0000
0000
1000
0000
0000
0000
0000
0000
0000
0000
0001
0000
0000
0000
0000
0000
0100
0000
0000
0000
0000
0000
0010
0000
0000
0000
0000
0000
0000
0000
0000
0000
0000
0000
1000
0000
0000
0000
0000
0000
0100
0000
0000
0000
0000
0000
0010
0000
0000
0000
0000
0000
0000
0000
0000
0000
0000
0000
0100
0000
0000
0000
0000
0000
0010
0000
0000
0000
0000
0000
0001
0000
0000
0000
0000
0000
0000
0000
0000
0000
0000
0000
0010
0000
0000
0000
0000
0000
0001
0000
0000
0000
0000
0000
1000
0000
0000
0000
0000
0000
0000
0000
0000
0000
0000
0000
,
0001
0100
0010
0100
0001
0100
0010
0100
0001
1000
0010
0100
0010
1000
0010
0100
0010
1000
0001
0100
0010
0100
0001
0100
,
0010
1000
0100
1000
0010
1000
0100
1000
0010
1000
0100
1000
0101
0000
0000
0000
0000
0000
0000
0000
0000
0010
0000
0000
,
1000
0010
0100
0010
1000
0010
0100
0010
1000
0001
0100
0010
0100
0001
0100
0010
0100
0001
1000
0010
0100
0010
1000
0010
,
0100
0000
0000
0000
0000
0000
0000
0000
0001
0000
0000
0000
0000
0000
0000
0000
0010
0000
0000
0000
0000
0000
0000
0000
0001
0000
0000
0000
0000
0000
0000
0000
0100
0000
0000
0000
0000
0000
0000
0000
0001
0000
0000
0000
0000
0000
0000
0000
0010
0000
0000
0000
0000
0000
0000
0000
0001
0000
0000
0000
0000
0000
0000
0000
0100
0000
0000
0000
0000
0000
0000
0000
0001
0000
0000
0000
0000
0000
0000
0000
0010
0000
0000
0000
0000
0000
0000
0000
0001
0000
0000
0000
0000
0000
0000
0000
1000
0000
0000
0000
0000
0000
0100
0000
0000
0000
0000
0000
0010
0000
0000
0000
0000
0000
0000
0000
0000
0000
0000
0000
0100
0000
0000
0000
0000
0000
0010
0000
0000
0000
0000
0000
0001
0000
0000
0000
0000
0000
0000
0000
0000
0000
0000
0000
0010
0000
0000
0000
0000
0000
0001
0000
0000
0000
0000
0000
1000
0000
0000
0000
0000
0000
0000
0000
0000
0000
0000
0000
0100
0000
0000
0000
0000
0000
0010
0000
0000
0000
0000
0000
0001
0000
0000
0000
0000
0000
0000
0000
0000
0000
0000
0000
,
0001
0100
0010
0100
0001
0010
0100
0010
0001
1000
0100
0010
0100
1000
0010
0100
0010
1000
0001
0010
0100
0010
0001
0100
,
0010
0100
0001
0010
0100
0010
0001
0100
0010
0100
0001
0010
1100
0000
0000
0000
0000
0000
1000
0000
0000
0010
0000
0000
,
1000
0010
0100
0010
1000
0100
0010
0100
1000
0001
0010
0100
0010
0001
0100
0010
0100
0001
1000
0100
0010
0100
1000
0010
,
0100
0000
0000
0000
0000
0000
0000
0000
0010
0000
0000
0000
0000
0000
0000
0000
1000
0000
0000
0000
0000
0000
0000
0000
0100
0000
0000
0000
0000
0000
0000
0000
0010
0000
0000
0000
0000
0000
0000
0000
0100
0000
0000
0000
0000
0000
0000
0000
1000
0000
0000
0000
0000
0000
0000
0000
0010
0000
0000
0000
0000
0000
0000
0000
0100
0000
0000
0000
0000
0000
0000
0000
0010
0000
0000
0000
0000
0000
0000
0000
1000
0000
0000
0000
0000
0000
0000
0000
0100
0000
0000
0000
0000
0000
0000
0000
0010
0000
0000
0000
0000
0000
0001
0000
0000
0000
0000
0000
1000
0000
0000
0000
0000
0000
0100
0000
0000
0000
0000
0000
0010
0000
0000
0000
0000
0000
0001
0000
0000
0000
0000
0000
1000
0000
0000
0000
0000
0000
0100
0000
0000
0000
0000
0000
0010
0000
0000
0000
0000
0000
0000
0000
0000
0000
0000
0000
0000
0000
0000
0000
0000
0000
0000
0000
0000
0000
0000
0000
0000
0000
0000
0000
0000
0000
0000
0000
0000
0000
0000
0000
0000
0000
0000
0000
0000
0000
0000
0000
0000
0000
0000
0000
,
0100
1000
0001
0010
0100
1000
0001
0010
0100
0000
0000
0000
0000
0000
0000
0000
0010
0000
0000
0000
0000
0000
0010
0000
0101
0000
0000
0000
0000
0000
0000
0000
,
0001
0010
0100
1000
0100
0010
0001
0010
0100
1000
0001
1000
0100
1000
0001
1000
0001
0010
0100
0000
0010
0100
1000
0000
0100
1000
0001
0000
1000
0010
0100
0000
,
0001
0100
0010
1000
0100
1000
0001
0010
0100
1000
0010
1000
0001
0010
0100
1000
0001
0010
0100
1000
0100
0010
0001
0010
,
0100
0000
0000
0000
0000
0000
0000
0000
1000
0000
0000
0000
0000
0000
0000
0000
0010
0000
0000
0000
0000
0000
0000
0000
0100
0000
0000
0000
0000
0000
0000
0000
0010
0000
0000
0000
0000
0000
0000
0000
1000
0000
0000
0000
0000
0000
0000
0000
0100
0000
0000
0000
0000
0000
0000
0000
0010
0000
0000
0000
0000
0000
0000
0000
0001
0000
0000
0000
0000
0000
0000
0000
0010
0000
0000
0000
0000
0000
0000
0000
0100
0000
0000
0000
0000
0000
0000
0000
1000
0000
0000
0000
0000
0000
0000
0000
0001
0000
0000
0000
0000
0000
0010
0000
0000
0000
0000
0000
0100
0000
0000
0000
0000
0000
0000
0000
0000
0000
0000
0000
0010
0000
0000
0000
0000
0000
0100
0000
0000
0000
0000
0000
1000
0000
0000
0000
0000
0000
0000
0000
0000
0000
0000
0000
0100
0000
0000
0000
0000
0000
1000
0000
0000
0000
0000
0000
0010
0000
0000
0000
0000
0000
0000
0000
0000
0000
0000
0000
0001
0000
0000
0000
0000
0000
0100
0000
0000
0000
0000
0000
0010
0000
0000
0000
0000
0000
0000
0000
0000
0000
0000
0000
,
1000
0010
0100
0001
0010
0001
1000
0100
0010
0001
0100
0001
1000
0100
0010
0001
1000
0100
0010
0001
0010
0100
1000
0100
,
0010
0000
0000
0000
0000
0000
0000
0000
0001
0000
0000
0000
0000
0000
0000
0000
0100
0000
0000
0000
0000
0000
0000
0000
0010
0000
0000
0000
0000
0000
0000
0000
0100
0000
0000
0000
0000
0000
0000
0000
0001
0000
0000
0000
0000
0000
0000
0000
0010
0000
0000
0000
0000
0000
0000
0000
0100
0000
0000
0000
0000
0000
0000
0000
1000
0000
0000
0000
0000
0000
0000
0000
0100
0000
0000
0000
0000
0000
0000
0000
0010
0000
0000
0000
0000
0000
0000
0000
0001
0000
0000
0000
0000
0000
0000
0000
1000
0000
0000
0000
0000
0000
0010
0000
0000
0000
0000
0000
0100
0000
0000
0000
0000
0000
0000
0000
0000
0000
0000
0000
0001
0000
0000
0000
0000
0000
0010
0000
0000
0000
0000
0000
0100
0000
0000
0000
0000
0000
0000
0000
0000
0000
0000
0000
0010
0000
0000
0000
0000
0000
0100
0000
0000
0000
0000
0000
1000
0000
0000
0000
0000
0000
0000
0000
0000
0000
0000
0000
0100
0000
0000
0000
0000
0000
1000
0000
0000
0000
0000
0000
0001
0000
0000
0000
0000
0000
0000
0000
0000
0000
0000
0000
,
1000
0010
0100
0010
1000
0010
0100
0010
1000
0001
0100
0010
0100
0001
0100
0010
0100
0001
1000
0010
0100
0010
1000
0010
,
0100
0001
0010
0001
0100
0001
0010
0001
0100
0001
0010
0001
1010
0000
0000
0000
0000
0000
0000
0000
0000
0100
0000
0000
,
0001
0100
0010
0100
0001
0100
0010
0100
0001
1000
0010
0100
0010
1000
0010
0100
0010
1000
0001
0100
0010
0100
0001
0100
,
0010
0000
0000
0000
0000
0000
0000
0000
1000
0000
0000
0000
0000
0000
0000
0000
0100
0000
0000
0000
0000
0000
0000
0000
1000
0000
0000
0000
0000
0000
0000
0000
0010
0000
0000
0000
0000
0000
0000
0000
1000
0000
0000
0000
0000
0000
0000
0000
0100
0000
0000
0000
0000
0000
0000
0000
1000
0000
0000
0000
0000
0000
0000
0000
0010
0000
0000
0000
0000
0000
0000
0000
1000
0000
0000
0000
0000
0000
0000
0000
0100
0000
0000
0000
0000
0000
0000
0000
1000
0000
0000
0000
0000
0000
0000
0000
0001
0000
0000
0000
0000
0000
0010
0000
0000
0000
0000
0000
0100
0000
0000
0000
0000
0000
0000
0000
0000
0000
0000
0000
0010
0000
0000
0000
0000
0000
0100
0000
0000
0000
0000
0000
1000
0000
0000
0000
0000
0000
0000
0000
0000
0000
0000
0000
0100
0000
0000
0000
0000
0000
1000
0000
0000
0000
0000
0000
0001
0000
0000
0000
0000
0000
0000
0000
0000
0000
0000
0000
0010
0000
0000
0000
0000
0000
0100
0000
0000
0000
0000
0000
1000
0000
0000
0000
0000
0000
0000
0000
0000
0000
0000
0000
,
1000
0010
0100
0010
1000
0100
0010
0100
1000
0001
0010
0100
0010
0001
0100
0010
0100
0001
1000
0100
0010
0100
1000
0010
,
0100
0010
1000
0100
0010
0100
1000
0010
0100
0010
1000
0100
0011
0000
0000
0000
0000
0000
0001
0000
0000
0100
0000
0000
,
0001
0100
0010
0100
0001
0010
0100
0010
0001
1000
0100
0010
0100
1000
0010
0100
0010
1000
0001
0010
0100
0010
0001
0100
,
0010
0000
0000
0000
0000
0000
0000
0000
0100
0000
0000
0000
0000
0000
0000
0000
0001
0000
0000
0000
0000
0000
0000
0000
0010
0000
0000
0000
0000
0000
0000
0000
0100
0000
0000
0000
0000
0000
0000
0000
0010
0000
0000
0000
0000
0000
0000
0000
0001
0000
0000
0000
0000
0000
0000
0000
0100
0000
0000
0000
0000
0000
0000
0000
0010
0000
0000
0000
0000
0000
0000
0000
0100
0000
0000
0000
0000
0000
0000
0000
0001
0000
0000
0000
0000
0000
0000
0000
0010
0000
0000
0000
0000
0000
0000
0000
0100
0000
0000
0000
0000
0000
1000
0000
0000
0000
0000
0000
0001
0000
0000
0000
0000
0000
0010
0000
0000
0000
0000
0000
0100
0000
0000
0000
0000
0000
1000
0000
0000
0000
0000
0000
0001
0000
0000
0000
0000
0000
0010
0000
0000
0000
0000
0000
0100
0000
0000
0000
0000
0000
0000
0000
0000
0000
0000
0000
0000
0000
0000
0000
0000
0000
0000
0000
0000
0000
0000
0000
0000
0000
0000
0000
0000
0000
0000
0000
0000
0000
0000
0000
0000
0000
0000
0000
0000
0000
0000
0000
0000
0000
0000
0000
,
0010
0001
1000
0100
0010
0001
1000
0100
0010
0000
0000
0000
0000
0000
0000
0000
0100
0000
0000
0000
0000
0000
0000
0000
0200
0000
0000
0000
0000
0000
0000
0000
,
1300
0100
0010
0001
0010
0100
1000
0100
0010
0001
1000
0001
0010
0001
1000
0001
0200
0000
0000
0000
0000
0000
0000
0000
0000
0000
0000
0000
0000
0000
0000
0000
,
0300
0000
0000
0000
;

//---------------dance-single - Arch0wl----------------
#NOTES:
     dance-single:
     Arch0wl:
     Hard:
     10:
     1.000,1.000,1.000,1.000,0.010,746.000,197.000,119.000,0.000,85.000:
0000
0000
0000
0000
0011
0110
1100
0011
,
1100
0000
1001
0000
0001
0100
0010
0100
,
0001
0010
0100
0010
0001
0100
0001
0100
,
0001
0010
0100
1000
0001
0010
0100
0010
,
0001
0001
0001
0010
0001
0010
0100
1000
,
0010
0100
0010
0100
0001
0100
0010
1000
,
0001
0010
0001
0010
0100
1000
0100
0010
,
0001
0100
0001
0100
0010
1000
0100
0010
,
0001
0010
1000
0010
1100
0110
0011
1100
,
0012
0100
1000
0100
,
0020
0000
0000
0000
0200
0000
1333
0100
,
1000
0100
0010
0100
1000
0001
1000
0001
,
0100
0010
1000
0010
0000
0101
0000
0101
,
0101
0000
1000
0100
0010
0001
1000
0000
,
0011
0000
0000
1010
0000
0000
0012
0000
,
1000
0100
1000
0100
1000
0100
1000
0100
,
1003
0101
0000
0000
1100
0000
0000
0000
,
1001
0000
0001
0010
1000
0010
0001
0000
,
1010
0001
0111
0000
,
1000
0000
1010
0000
0101
0000
1000
0100
,
0010
0000
0100
0010
0010
0000
0100
0000
,
0022
0000
0000
2233
0000
0000
3311
0000
,
2202
0000
3303
0000
,
2020
0000
0000
3232
0000
0000
1313
0000
,
2202
0000
3303
0000
1100
0110
0011
1100
,
0012
2103
3021
1031
,
1001
0000
0001
0010
1100
0110
0011
1100
,
0012
2103
3021
1031
,
1001
0000
0000
0000
0001
0100
0010
1000
,
0202
0000
0000
2323
0000
0000
3231
0000
,
1320
0000
0000
0000
1031
0000
0000
0100
,
2200
0000
0000
3322
0000
0000
1233
0000
,
0321
0000
0000
0000
1130
0110
0011
1100
,
0022
0000
0000
2233
0000
0000
3322
0000
,
0000
0000
0000
0000
1033
0000
1000
0010
,
0202
0000
0000
2323
0000
0000
3232
0000
,
0000
1303
0110
1000
,
0110
0001
0010
1001
,
1001
0110
1001
0000
1001
0000
0000
0000
,
1000
0000
0100
0000
1000
0000
0100
0000
1000
0000
0001
0000
0001
0010
0100
0000
,
1000
0010
1000
0010
0010
1001
0010
1001
,
1001
0010
0100
0001
0100
0001
1000
0001
,
1000
0010
0100
0001
1000
0010
0100
0001
,
1010
0000
0101
0000
0010
0100
1000
0000
,
0011
0000
0100
0011
0000
0100
1000
0010
,
0000
0000
0100
0001
0010
0001
1000
0001
,
0010
1000
0001
0100
1000
0001
0010
1000
,
0010
0001
0100
0010
1000
0100
0010
0001
,
0100
0010
1000
0100
0010
0001
1000
0010
,
2201
0010
3301
0010
,
2201
0010
3301
0010
,
1100
0010
0001
0100
0010
1000
0010
1000
,
0001
0010
0100
1000
0100
0010
0001
0100
,
0010
0010
0010
0001
0010
0010
1000
0010
,
1000
0001
0010
0100
1000
0001
0010
0100
,
1000
0010
0010
0001
0010
0010
1000
0100
,
1001
0100
1001
0100
0011
0110
1100
0011
,
2100
3012
1203
1301
,
1001
0000
1000
0100
0011
0110
1100
0011
,
2100
3012
1203
1301
,
1001
0000
0000
0000
1000
0010
0100
0001
,
2020
0000
0000
3232
0000
0000
1323
0000
,
0231
0000
0000
0000
1301
0000
0000
0010
,
0022
0000
0000
2233
0000
0000
3321
0000
,
1230
0000
0000
0000
0311
0110
1100
0011
,
2200
0000
0000
3322
0000
0000
2233
0000
,
0000
0000
0000
0000
3301
0000
0001
0100
,
2020
0000
0000
3232
0000
0000
2323
0000
,
0000
3031
0110
0001
,
0110
1000
0100
1001
,
1001
0110
1001
0000
1001
0000
0000
0000
,
0100
0001
0100
0001
1000
0100
0010
0100
,
0010
0000
1000
0000
0010
0000
1000
0000
0001
0000
0001
0000
0001
0100
1000
0000
,
0010
0001
0010
0001
0010
0001
1000
0100
,
1000
1000
1000
0100
1000
0101
0000
0101
,
0101
0010
0001
0010
0100
0001
0100
0010
,
0001
0100
0001
0100
0010
1000
0100
0001
,
0100
1000
0100
1000
0010
0100
1000
0100
,
0001
0010
0001
0010
0001
0010
0001
0010
,
2110
0001
0010
0100
,
0010
0000
0000
0001
,
0100
0001
0100
0001
,
0000
0000
0010
0000
,
3002
0000
0000
0000
,
0000
0000
0003
0001
,
0001
0002
0010
0020
,
0100
0200
1000
1333
,
2200
0000
0000
0001
,
0001
0001
0001
0000
3301
0000
0000
0000
,
1000
0010
1000
0001
1000
0010
1000
0100
,
1000
0100
0010
0001
0010
0100
1000
0100
,
0010
0001
0100
0010
1000
0001
1000
0100
,
1000
0100
0010
0001
0010
0100
1000
0100
,
0010
0001
0100
0010
0100
1000
0100
0010
,
0100
1000
0001
1000
0100
1000
0001
1000
,
0100
0001
0010
0100
0010
1000
0010
0100
,
1000
0001
0010
0001
1000
0010
0100
0010
,
1000
0100
0010
0100
0001
0100
0010
0100
,
0001
0100
1000
0010
0100
0001
0001
0010
,
0100
0100
0100
1000
0100
0100
0010
0100
,
1000
0100
0100
0100
0010
0001
1000
0001
,
0100
0010
1000
0001
1000
0001
0100
0010
,
0100
0010
0100
0010
1100
0110
0011
1100
,
0012
2103
3021
1031
,
1001
0000
0001
0010
1100
0110
0011
1100
,
0012
2103
3021
1031
,
1001
0000
0000
0000
0001
0100
0010
1000
,
0202
0000
0000
2323
0000
0000
3231
0000
,
1320
0000
0000
0000
1031
0000
0000
0100
,
2200
0000
0000
3322
0000
0000
1233
0000
,
0321
0000
0000
0000
1130
0110
0011
1100
,
0022
0000
0000
2233
0000
0000
3322
0000
,
0000
0000
0000
0000
1033
0000
1000
0010
,
0202
0000
0000
2323
0000
0000
3232
0000
,
0000
1303
0110
1000
,
0110
0001
0010
1001
,
1001
0110
1001
0000
0011
0110
1100
0011
,
1000
0010
1000
0010
0100
0010
0100
0001
,
0010
0100
1000
0010
1010
0110
0101
1010
,
0100
0001
0100
0001
1000
0100
0010
0001
,
0100
0010
1000
0100
0011
0110
1100
0011
,
1000
0010
0001
1000
0100
0001
1000
0010
,
1000
0100
0010
0001
0010
0100
1000
0001
,
0010
0100
0010
0001
0100
0010
1000
0100
,
1000
0100
0010
0001
0101
0110
1010
0101
,
1000
0010
0001
1000
0100
0001
1000
0010
,
0001
0010
0100
0001
0010
0100
1000
0010
,
1000
0100
0001
1000
0010
0001
1000
0100
,
0001
0100
1000
0001
0100
0010
0001
0010
,
1000
0010
0001
1000
0001
1000
0100
0010
,
1000
0100
0001
0100
1001
0000
0000
0000
;
