#TITLE:Green Hill Zone;
#SUBTITLE:(UK Hardcore Remix);
#ARTIST:D-Nasty;
#TITLETRANSLIT:;
#SUBTITLETRANSLIT:;
#ARTISTTRANSLIT:;
#CREDIT:owenviau1;
#BANNER:BG.PNG;
#BACKGROUND:BG.PNG;
#LYRICSPATH:;
#CDTITLE:ov1_title.png;
#MUSIC:Green Hill Zone (UK Hardcore Remix).mp3;
#OFFSET:-11.840;
#SAMPLESTART:44.440;
#SAMPLELENGTH:29.999;
#SELECTABLE:YES;
#BPMS:0.000=175.420;
#STOPS:;
#BGCHANGES:;
// cache tags:
#FIRSTBEAT:0.000;
#LASTBEAT:378.833;
#SONGFILENAME:Songs/Owenviau1 Simfiles 4/Green Hill Zone (UK Hardcore Remix) - D-Nasty [owenviau1]/Green Hill Zone (UK Hardcore Remix).sm;
#HASMUSIC:1;
#HASBANNER:1;
#MUSICLENGTH:142.479;
// end cache tags

//---------------dance-single - ----------------
#NOTES:
     dance-single:
     :
     Challenge:
     11:
     1.000,1.000,1.000,0.253,0.326,777.000,343.000,36.000,24.000,1.000:

MMMM
0000
0000
0000
2000
3200
0000
0320
,
0032
0000
2003
3200
0000
0320
0000
0000
,
0000
0000
0000
2030
3200
0320
0000
0032
,
2003
0000
3020
0230
0000
0302
0000
0000
,
0000
0000
0000
0000
2003
3020
0000
0230
,
0302
0000
0023
0230
0000
2300
0000
0000
,
0000
0000
0000
3200
0320
0032
0000
2003
,
3020
0000
0230
0302
0000
2003
0000
0000
,
3110
0010
1001
0001
1100
1000
0101
0010
,
0110
1000
1001
0010
1100
0001
0110
0010
,
1001
1000
0110
0001
0011
0100
1100
0010
,
1010
0100
0101
1000
0110
0001
1010
0100
,
0101
0010
0110
0001
1001
1000
0101
0010
,
0011
0100
1001
0001
1100
0010
1010
0100
,
0101
1000
1100
0001
0110
1000
1001
0010
,
0101
1000
1001
0010
0110
0001
1100
0010
,
1M1M
0001
1100
0010
1001
0100
1100
0001
,
0110
0000
1000
0000
0011
0000
0100
0000
0110
0000
1000
0000
0101
0000
1000
0001
,
0110
1000
0101
0010
1001
0100
1100
0001
,
0110
0000
1000
0000
0011
0000
0100
0000
1001
0000
0010
0000
1100
0000
0010
0100
,
1001
0010
1001
0100
0011
1000
1010
0100
,
1100
0001
1010
0100
1001
0001
0110
1000
,
1001
0010
0100
1000
0001
1000
0010
0100
0001
1000
0010
1000
0001
0100
0001
0010
,
2000
0000
0000
3100
0010
0001
0010
0100
1000
0100
0010
0001
4000
0000
0000
3100
0010
0001
1000
0000
0000
0010
0000
0000
,
1001
0100
0011
1000
1100
0011
0100
1100
,
0011
0100
1010
0101
0010
1001
0100
0010
,
1001
0100
0010
1100
0011
0110
0010
1001
,
0110
1000
0011
0110
0100
1001
0010
0100
,
0011
1000
0110
0001
1010
0110
1000
0011
,
0110
0010
1001
0101
1000
0011
0100
0010
,
1001
0010
1100
0110
0011
0100
0110
1001
,
0010
1001
0101
1000
1010
0001
0110
1000
,
0011
0100
1100
0001
1100
0011
0100
1001
,
0110
0001
1010
0110
0001
1010
0110
0001
,
1010
0100
0011
1001
0110
1010
1010
0100
,
1001
0001
1010
0110
1000
0011
0100
0001
,
1010
0100
0101
1010
0110
0001
1010
1001
,
0010
0101
1010
0100
0011
0100
1001
0010
,
1100
0010
0001
1000
0010
0100
0001
1000
0010
1000
0001
0100
0001
1000
0100
0010
,
0001
0010
0100
1000
0100
0010
0001
0010
0100
1000
0100
0010
0002
0000
0000
0000
0000
0000
2003
0000
0000
0000
0000
0000
,
3000
0100
1001
0010
1100
0011
0100
1100
,
0011
0100
1010
0101
0010
1001
0100
0010
,
1001
0100
0010
1100
0011
0110
0010
1001
,
0110
1000
0011
0110
0100
1001
0010
0100
,
0011
1000
0110
0001
1010
0110
1000
0011
,
0110
0010
1001
0101
1000
0011
0100
0010
,
1001
0010
1100
0110
0011
0100
0110
1001
,
0010
1001
0101
1000
1010
0001
0110
1000
,
0011
0100
1100
0001
1100
0011
0100
1001
,
0110
0001
1010
0110
0001
1010
0110
0001
,
1010
0100
0011
1001
0110
1010
1010
0100
,
1001
0001
1010
0110
1000
0011
0100
0001
,
1010
0100
0101
1010
0110
0001
1010
1001
,
0010
0101
1010
0100
0011
0100
1001
0010
,
1100
0001
0101
1100
0110
0011
1000
0110
,
1001
0100
1001
0110
0001
1010
1100
0010
,
1001
0100
0011
1000
0110
1000
1001
0100
,
1000
0000
0100
0000
0010
0000
0001
0000
0010
0000
0100
0000
1000
0000
0100
0000
0010
0000
0001
0000
0000
0010
0000
0000
0100
0000
1000
0000
0100
0000
0010
0000
0000
0001
0000
0000
0010
0000
0000
0100
0000
0000
1000
0000
0000
0000
0000
0000
,
0001
0100
1010
0001
1100
0011
0100
1100
,
0011
0100
1010
0101
0010
1001
0100
0010
,
1001
0100
0010
1100
0011
0110
0010
1001
,
0110
1000
0011
0110
0100
1001
0010
0100
,
0011
1000
0110
0001
1010
0110
1000
0011
,
0110
0010
1001
0101
1000
0011
0100
0010
,
1001
0010
1100
0110
0011
0100
0110
1001
,
0010
1001
0101
1000
1010
0001
0110
1000
,
0011
0100
1100
0001
1100
0011
0100
1001
,
0110
0001
1010
0110
0001
1010
0110
0001
,
1010
0100
0011
1001
0110
1010
1010
0100
,
1001
0001
1010
0110
1000
0011
0100
0001
,
1010
0100
0101
1010
0110
0001
1010
1001
,
0010
0101
1010
0100
0011
0100
1001
0010
,
1100
0001
0101
1100
0110
0011
1000
0110
,
1001
0100
1001
0110
0001
1010
1100
0010
,
1001
0100
0011
1000
0110
0010
1001
0001
,
1100
1000
0110
0010
1001
0100
0101
0001
,
1010
0010
0110
0100
1001
1000
0101
0010
,
1100
1000
0101
0010
0110
0100
1001
0001
,
0011
0010
0110
1000
1100
0001
0101
1000
,
1010
0100
0011
0010
1001
0001
0110
1000
,
1100
0010
0011
0100
1001
1000
0110
0010
,
0011
1000
1100
0001
0011
0010
0110
1000
,
1010
0001
0101
0010
1100
0100
0011
1000
,
0110
0000
0010
0000
1001
0000
0010
0000
0101
0000
1000
0000
1100
0000
0001
0100
,
1010
0010
1001
0100
0011
1000
1010
0100
,
0011
0000
1000
0000
0110
0000
1000
0000
0011
0000
0100
0000
1001
0000
1000
0100
,
0011
0100
1010
1000
0011
0100
1100
0010
,
0101
0010
1001
0100
0011
1000
0110
1000
,
0101
0010
1000
0100
0010
0001
1000
0010
1000
0001
0100
0001
0010
0100
1000
0100
,
0020
0000
0000
0000
0000
0000
1030
0001
1000
0001
0000
0000
1010
0000
0000
0100
0000
0000
0010
1000
0010
1000
0000
0000
,
0001
0010
0100
1000
0001
0010
0100
1000
0001
0010
0100
1000
,
0001
0010
0100
1000
0100
0010
0001
0010
0100
1000
0100
0010
,
0001
0010
0100
1000
0100
0010
0001
0010
0100
1000
0100
0010
,
2002
0000
0000
0000
,
3003
0000
0000
M000
0M00
00M0
000M
00M0
0M00
M000
0M00
00M0
000M
00M0
0M00
M000
0M00
MMMM
0000
0000
0000
0000
0000
0000
;

//---------------dance-single - ----------------
#NOTES:
     dance-single:
     :
     Hard:
     10:
     0.665,0.555,0.428,0.211,0.000,572.000,61.000,30.000,4.000,0.000:

MMMM
0000
0000
0000
2000
3200
0000
0320
,
0032
0000
2003
3200
0000
0320
0000
0000
,
0000
0000
0000
2030
3200
0320
0000
0032
,
2003
0000
3020
0230
0000
0302
0000
0000
,
0000
0000
0000
0000
2003
3020
0000
0230
,
0302
0000
0023
0230
0000
2300
0000
0000
,
0000
0000
0000
3200
0320
0032
0000
2003
,
3020
0000
0230
0302
0000
2003
0000
0000
,
3100
0010
0001
1000
0001
0100
0001
1000
,
0010
0100
0001
0010
0100
1000
0100
0010
,
0001
0100
0010
1000
0010
0100
0001
0010
,
0100
0010
0001
1000
0100
1000
0001
0000
,
0001
1000
0001
0100
0010
1000
0010
0100
,
0010
1000
0001
0010
1000
0100
0010
0001
,
1000
0100
0010
0000
0001
0100
0010
1000
,
0010
0100
0001
0010
0100
1000
0100
0000
,
1000
0001
1000
0001
0100
0010
1000
0010
,
0100
0001
0010
0100
0010
0001
1000
0000
,
0001
0000
0100
0010
1000
0010
0100
0001
,
0010
0100
0010
0001
1000
0100
0010
0001
,
0100
0000
0010
1000
0010
0100
0001
0010
,
0100
1000
0100
0010
0001
1000
0001
1000
,
0010
0010
1000
1000
0001
0001
1000
1000
,
0100
0000
0010
0001
0100
0000
0100
0000
,
0010
0000
1000
0000
0001
1000
0000
1000
,
0100
0000
0100
0010
0000
0001
0000
0000
,
0100
0000
0010
1000
0001
0010
0000
0100
,
1000
0001
0100
0001
1000
0010
0100
0000
,
0001
0000
0010
0000
0100
1000
0100
1000
,
0100
0010
0001
0100
0001
0100
0010
0000
,
0001
0000
1000
0000
0001
1000
0001
0100
,
0010
1000
0010
0100
0001
0010
0100
1000
,
0100
0010
0001
0000
0001
0100
0010
0000
,
0010
1000
0001
0000
0001
1000
0100
0000
,
1000
0001
0100
0000
0100
1000
0100
0001
,
0010
0100
0001
1000
0010
0001
0010
0100
,
0001
1000
0010
0000
0100
0001
1000
0100
,
0001
1000
0010
0001
0010
0100
1000
0000
,
1000
0001
1000
0001
0010
0100
1000
0100
,
0010
0001
1000
0001
0100
0010
1000
0000
,
1001
0000
0001
0100
0010
1000
0010
0000
,
0100
0001
0010
0100
1000
0100
0010
0000
,
0001
0000
0100
0010
1000
0010
0100
0001
,
0010
0100
1000
0100
0010
0001
0100
0000
,
0010
0000
1000
0000
0001
1000
0001
0010
,
0100
0010
0001
1000
0010
0100
0001
0000
,
1000
0000
0100
0001
0100
0010
0001
1000
,
0010
0001
0010
0100
0001
1000
0010
0000
,
0100
0000
0001
0000
1000
0100
1000
0001
,
0010
0100
0001
0100
0010
0001
1000
0000
,
0010
0000
1000
0100
0001
0010
0100
0001
,
1000
0010
0001
0100
0001
0010
0100
0000
,
1000
0000
0001
0000
1000
0001
0100
0010
,
1000
0001
0010
0100
1000
0100
0010
0000
,
0001
0000
0100
0010
1000
0010
0100
0001
,
0010
0100
1000
0100
0010
0001
0100
0001
,
1000
0010
0100
0001
,
1000
0100
0010
0001
1000
0100
0010
0000
,
0001
1001
0000
0110
0000
1100
0000
0011
,
0000
0110
0000
1001
0000
0110
0000
1100
,
0000
0011
0000
0110
0000
1100
0000
0101
,
0000
1010
0000
1010
0000
0110
0000
0110
,
0000
0101
0000
0101
0000
1001
0000
1001
,
0000
0110
0000
0110
0000
0011
0000
0011
,
0000
1100
0000
0101
0000
0110
0000
1010
,
0000
0101
0000
0011
0000
0110
0000
1100
,
0000
0110
0000
0011
0000
0101
0000
1010
,
0000
0110
0000
1001
0000
0101
0000
0011
,
0000
0110
0000
1100
0000
1001
0000
0101
,
0000
1001
0000
1010
0000
0110
0000
0101
,
0000
0011
0000
0110
0000
1100
0000
1001
,
0000
0101
0000
0110
0000
1010
0000
1010
,
0000
0011
0000
0110
0000
1100
0000
0011
,
0000
0000
0000
0000
,
1000
0000
0001
1000
0001
0010
0100
1000
,
0100
0010
0001
0100
0001
0100
0001
0100
,
0010
1000
0010
0100
0001
0010
0100
0010
,
0001
1000
0100
1000
0100
1000
0100
1000
,
0100
0010
0001
1000
0001
0100
0010
1000
,
0100
0010
0100
0010
0100
0010
0100
0010
,
0100
1000
0001
0100
0001
0100
0010
1000
,
0010
0100
0001
0100
0001
0100
0001
1000
,
0100
0010
0001
1000
0100
0010
0001
1000
,
0010
0100
0010
1000
0010
0100
0001
1000
,
0001
0010
0100
0010
0100
0010
0001
1000
,
0100
0010
0001
1000
0010
0100
0010
1000
,
0001
0100
0001
0100
0001
0010
0100
0010
,
0100
1000
0001
0100
0001
0100
0001
1000
,
0010
0100
0001
0010
0100
1000
0100
0010
,
0001
0000
0100
0010
1000
0000
1000
0000
,
0001
1000
0001
0010
,
0100
1000
0100
0001
,
0100
0010
1000
0001
,
0010
0000
0000
0000
;
