#TITLE:Hardcore Symphony;
#SUBTITLE:;
#ARTIST:Digital Explosion;
#TITLETRANSLIT:;
#SUBTITLETRANSLIT:;
#ARTISTTRANSLIT:;
#CREDIT:;
#BANNER:Hardcore Symphony.png;
#BACKGROUND:Hardcore Symphony-bg.png;
#LYRICSPATH:;
#CDTITLE:;
#MUSIC:Hardcore Symphony.mp3;
#OFFSET:-0.100;
#SAMPLESTART:43.296;
#SAMPLELENGTH:12.000;
#SELECTABLE:YES;
#BPMS:0.000=174.000;
#STOPS:;
#BGCHANGES:;
// cache tags:
#FIRSTBEAT:16.000;
#LASTBEAT:291.000;
#SONGFILENAME:Songs/toune 3/Hardcore_Symphony/Hardcore Symphony.sm;
#HASMUSIC:1;
#HASBANNER:1;
#MUSICLENGTH:102.273;
// end cache tags

//---------------dance-single - ----------------
#NOTES:
     dance-single:
     :
     Challenge:
     9:
     0.757,0.818,0.469,0.117,0.147,482.000,48.000,12.000,0.000,0.000:  // measure 1
0000
0000
0000
0000
,  // measure 2
0000
0000
0000
0000
,  // measure 3
0000
0000
0000
0000
,  // measure 4
0000
0000
0000
0000
,  // measure 5
1001
0000
0110
0000
1000
0010
0100
0000
,  // measure 6
1000
0100
0000
0001
0100
1000
0010
0001
,  // measure 7
2000
0000
3020
0000
0230
0000
0302
0003
,  // measure 8
1010
0110
0101
1001
,  // measure 9
0100
0010
1000
0100
0001
0100
1000
0000
,  // measure 10
0001
0100
0000
0100
0010
1000
0001
0010
,  // measure 11
0110
1100
0101
0011
,  // measure 12
1000
0100
0000
0100
0010
0001
0100
0010
,  // measure 13
0100
1000
0001
0010
0100
1000
0001
0100
,  // measure 14
0010
1000
0010
0100
0001
0100
0010
1000
,  // measure 15
0100
0010
0001
0100
1000
0100
0010
0001
,  // measure 16
0100
0010
0100
0010
0100
0010
0100
0010
0100
0010
0100
0010
0100
0000
0000
0000
,  // measure 17
0001
0100
1000
0100
0010
0100
0010
0001
,  // measure 18
0000
0001
0100
1000
0100
0010
0001
0100
,  // measure 19
0000
0100
1000
0010
0001
0100
0010
0100
,  // measure 20
0000
0010
1000
0010
0001
0100
0010
0001
,  // measure 21
0000
0001
0100
0010
1000
0010
0100
1000
,  // measure 22
0000
1000
0100
0010
0100
0001
0010
1000
,  // measure 23
0000
1000
0100
0001
0100
0010
0100
1000
,  // measure 24
0000
0001
1000
0010
0100
0010
1000
0001
,  // measure 25
1001
0000
0010
0100
0010
0000
1000
0100
,  // measure 26
0001
0100
1000
0100
0001
0000
0011
0000
,  // measure 27
1000
0100
0010
0001
0010
0100
1000
0000
0001
0000
0010
0000
1000
0000
0100
0010
,  // measure 28
0001
0010
0100
1000
0100
0000
0001
0000
0100
0000
1000
0000
0010
0000
0000
0000
,  // measure 29
1010
0000
0100
0001
0100
0000
0010
1000
,  // measure 30
0100
0001
0010
1000
0100
0000
0110
0000
,  // measure 31
1000
0001
0010
0100
1000
0001
0010
0000
1000
0000
0100
0000
0001
0000
0100
0000
,  // measure 32
1000
0001
0100
0010
1000
0001
0100
0000
0010
0000
0100
0000
0010
0000
0000
0000
,  // measure 33
1100
0000
0100
1000
0100
0000
0100
0010
,  // measure 34
1000
0010
0100
0001
0100
0000
0110
0000
,  // measure 35
0100
0010
0100
0010
0100
0010
0100
0000
0001
0000
1000
0000
0100
0000
0010
0000
,  // measure 36
1000
0001
1000
0001
1000
0001
1000
0000
0100
0000
0001
0000
0010
0000
0000
0000
,  // measure 37
1000
0001
0100
1000
0100
0001
0100
0010
,  // measure 38
1000
0100
0010
0001
0100
0010
0100
1000
,  // measure 39
0010
0100
0001
0010
1000
0100
0010
0001
,  // measure 40
0101
1100
0110
1001
,  // measure 41
0100
0010
0000
0010
0100
1000
0001
0000
,  // measure 42
0100
1000
0000
1000
0100
0010
0001
0000
,  // measure 43
0101
0110
1100
0101
,  // measure 44
0100
0001
0000
0001
0100
0010
1000
0000
,  // measure 45
2000
3002
0203
0320
,  // measure 46
1030
0100
0000
0100
0001
1000
0010
0100
,  // measure 47
0002
0023
0230
2300
,  // measure 48
3001
0001
0100
1000
1000
0100
0001
0000
,  // measure 49
0101
1100
0110
0011
,  // measure 50
1010
0110
1001
0101
,  // measure 51
1100
1001
0110
0011
,  // measure 52
1100
0101
1010
1001
,  // measure 53
0100
0010
1000
0001
0100
0010
1000
0100
,  // measure 54
0010
0001
0100
1000
0010
0100
0001
0100
,  // measure 55
0010
1000
0001
0010
0100
1000
0001
0100
,  // measure 56
1010
0110
1100
0101
,  // measure 57
1000
0100
0001
0100
0010
1000
0010
0001
,  // measure 58
1000
0100
0001
0100
0010
1000
0001
1000
,  // measure 59
0000
0001
0010
0100
1000
0010
0001
0100
,  // measure 60
0000
0100
0001
1000
0100
0010
0001
0000
,  // measure 61
0001
0100
1000
0010
0100
0001
0100
0010
,  // measure 62
1000
0100
0001
0100
0010
1000
0010
0001
,  // measure 63
0000
0001
0100
1000
0010
0001
0100
1000
,  // measure 64
0000
1000
0001
0100
0010
1000
0010
0000
,  // measure 65
0100
0001
1000
0010
0100
0010
0001
1000
,  // measure 66
0100
0010
0100
0010
0001
0100
0010
1000
,  // measure 67
0000
0100
1000
0100
0001
0010
0100
1000
,  // measure 68
0000
0010
0100
0010
1000
0100
0001
0000
,  // measure 69
1000
0001
0100
0010
1000
0100
0010
0001
,  // measure 70
0100
1000
0001
0010
0100
1000
0010
0100
,  // measure 71
0001
1000
0100
0010
1000
0001
0010
1000
,  // measure 72
0100
0010
0100
0010
0100
0010
0100
0010
0100
0010
0100
0010
0100
0000
0000
0000
,  // measure 73
1100
0110
0101
1010
;
