#TITLE:We Know What To Do;
#SUBTITLE:;
#ARTIST:Matiloe;
#TITLETRANSLIT:;
#SUBTITLETRANSLIT:;
#ARTISTTRANSLIT:;
#CREDIT:;
#BANNER:We Know What To Do-banner.png;
#BACKGROUND:We Know What To Do-bg.png;
#LYRICSPATH:;
#CDTITLE:;
#MUSIC:music.ogg;
#OFFSET:0.007;
#SAMPLESTART:20.540;
#SAMPLELENGTH:11.840;
#SELECTABLE:YES;
#BPMS:0.000=140.000;
#STOPS:;
#BGCHANGES:-10000.000=songbackground=1.000=0=0=1,
0.000=We Know What To Do-bg.png=1.000=0=0=1,
16.000=In The Groove 2/770_JumpBack.mpg=1.000=0=0=1,
48.000=In The Groove 2/953_JumpBack.mpg=1.000=0=0=1,
80.000=In The Groove 2/972_JumpBack.mpg=1.000=0=0=1,
96.000=In The Groove 2/641_JumpBack.mpg=1.000=0=0=1,
148.000=In The Groove 2/952_JumpBack.mpg=1.000=0=0=1,
212.000=In The Groove 2/761_JumpBack.mpg=1.000=0=0=1,
244.000=We Know What To Do-bg.png=1.000=0=0=1,
99999=-nosongbg-=1.000=0=0=0 // don't automatically add -songbackground-
;
// cache tags:
#FIRSTBEAT:16.000;
#LASTBEAT:244.000;
#SONGFILENAME:Songs/In The Groove 2 (Official)/We Know What To Do/We Know What To Do.sm;
#HASMUSIC:1;
#HASBANNER:1;
#MUSICLENGTH:107.999;
// end cache tags

//---------------dance-single - C. Foy----------------
#NOTES:
     dance-single:
     C. Foy:
     Easy:
     2:
     0.123,0.169,0.102,0.019,0.000,80.000,11.000,2.000,0.000,0.000:









0000
0000
0000
0000
,
0000
0000
0000
0000
,
0000
0000
0000
0000
,
0000
0000
0000
0000
,
1000
0000
0001
0000
,
1000
0000
0000
0000
,
0010
0000
0100
0000
,
0010
0000
0000
0000
,
1000
0000
0100
0000
,
1000
0000
0000
0000
,
0001
0000
0000
0000
,
0001
0000
0000
0000
,
1001
0000
0000
0000
,
0001
0000
1000
0000
,
0001
0000
0000
0000
,
0010
0000
0100
0000
,
0010
0000
0000
0000
,
0001
0000
0000
0000
,
1000
0000
0000
0000
,
0010
0000
0000
0000
,
1001
0000
0000
0000
,
0000
0000
0000
0000
,
0110
0000
0000
0000
,
0000
0000
0000
0000
,
1001
0000
0000
0000
,
0000
0000
0000
0000
,
0110
0000
0000
0000
,
0000
0000
0000
0000
,
1001
0000
0000
0000
,
0000
0000
0000
0000
,
0001
0000
1000
0000
,
0001
0000
1000
0000
,
0010
0000
0100
0000
,
0010
0000
0100
0000
,
0001
0000
0001
0000
,
0100
0000
0100
0000
,
0010
0000
0010
0000
,
0010
0000
0100
0000
,
0010
0000
0100
0000
,
0001
0000
0100
0000
,
0001
0000
0100
0000
,
0001
0000
1000
0000
,
0001
0000
1000
0000
,
0001
0000
0010
0000
,
0001
0000
0010
0000
,
0001
0000
1000
0000
,
0001
0000
1000
0000
,
0001
0000
0000
0000
,
1001
0000
0000
0000
,
0110
0000
0000
0000
,
0001
0000
0001
0000
,
0100
0000
0100
0000
,
0001
0000
0100
0000
,
0001
0000
0000
0000
,
1000
0000
1000
0000
,
0010
0000
0010
0000
,
1000
0000
0010
0000
,
1000
0000
0000
0000
,
1001
0000
0000
0000
,
0110
0000
0000
0000
,
2002
0000
0000
0000
,
3003
0000
0000
0000
;

//---------------dance-single - C. Foy----------------
#NOTES:
     dance-single:
     C. Foy:
     Medium:
     3:
     0.163,0.282,0.102,0.074,0.000,104.000,11.000,8.000,0.000,0.000:

0000
0000
0000
0000
,
0000
0000
0000
0000
,
0000
0000
0000
0000
,
0000
0000
0000
0000
,
2000
0000
0001
0000
,
3001
0000
0001
0000
,
1000
0000
0100
0000
,
1000
0000
0100
0000
,
2000
0000
0010
0000
,
3010
0000
0010
0000
,
0100
0000
0010
0000
,
0100
0000
0010
0000
,
1001
0000
0000
0000
,
0110
0000
0000
0000
,
1100
0000
0000
0000
,
0011
0000
0000
0000
,
1000
1000
0001
0001
,
1000
1000
0001
0001
,
0100
0100
0010
0010
,
1000
1000
0001
0001
,
1001
0000
0000
0000
,
0000
0000
0000
0000
,
1010
0000
0000
0000
,
0000
0000
0000
0000
,
0101
0000
0000
0000
,
0000
0000
0000
0000
,
1100
0000
0000
0000
,
0000
0000
0000
0000
,
0000
1000
0000
1000
,
0000
0001
0000
0001
,
0000
0100
0000
0100
,
0000
0010
0000
0010
,
0000
1000
0000
0100
,
0000
0010
0000
0001
,
0000
1000
0000
0100
,
0000
0010
0000
0000
,
1001
0000
2002
0000
,
3003
1000
0000
0010
,
0000
0100
0000
0001
,
0000
0010
0000
0100
,
0000
1000
0000
0001
,
0001
0001
0000
0010
,
0000
0100
0000
1000
,
0000
0010
0000
0100
,
0000
0010
0000
0100
,
0100
0100
0000
0001
,
0000
1000
0000
0100
,
0000
0010
0000
0001
,
0000
1000
0000
1000
,
0001
1000
0000
0010
,
0000
0100
0000
0001
,
0000
1000
0000
0010
,
0000
1000
0000
0000
,
0002
0000
1000
0000
,
1003
0000
0000
0000
,
0001
0000
0010
0000
,
0100
0000
1000
0000
,
0002
0000
1000
0000
,
1003
0000
0000
0000
,
0010
0000
0100
0000
,
2002
0000
0000
0000
,
3003
0000
0000
0000
;

//---------------dance-single - C. Foy----------------
#NOTES:
     dance-single:
     C. Foy:
     Hard:
     7:
     0.496,0.480,0.009,0.435,0.815,327.000,1.000,47.000,0.000,0.000:

0000
0000
0000
0000
,
0000
0000
0000
0000
,
0000
0000
0000
0000
,
0000
0000
0000
0000
,
1000
0000
0000
0001
0000
0100
0000
0000
0010
1000
0000
0001
,
0200
0000
0000
0300
0000
0010
1000
0000
0001
0100
0000
0010
,
0200
0000
0000
0300
0000
0010
1000
0000
0100
1000
0000
0001
,
0200
0000
0000
0300
0000
0010
0100
0000
0001
0010
0000
0001
,
0100
0000
0000
0010
0000
1000
0000
0000
0100
0010
0000
0100
,
2000
0000
0000
3000
0000
0001
0100
0000
0010
1000
0000
0001
,
0020
0000
0000
0030
0000
0100
1000
0000
0010
1000
0000
0001
,
0200
0000
0000
0300
0000
0010
1000
0000
0010
0100
0000
0002
,
2000
0000
0000
3003
0000
1000
0100
0000
0010
0100
0000
2000
,
0200
0000
0000
3300
0000
0001
0100
0000
0010
1000
0000
0002
,
0200
0000
0000
0303
0000
1000
0100
0000
0010
0001
0000
2000
,
0020
0000
0000
3030
0000
0001
0100
0000
0010
1000
0000
0020
,
0200
0000
0000
0330
0000
1000
0100
0000
0010
0001
0000
2000
,
0000
0000
0000
3000
0000
0001
0100
0000
0010
0100
0000
0002
,
0000
0000
0000
0003
0000
1000
0010
0000
1000
0100
0000
2000
,
0000
0000
0000
3000
0000
0010
0100
0000
0001
0010
0000
0001
,
1000
0000
0000
0000
,
0000
0000
0000
0000
0000
0000
0000
0000
1000
0100
1000
0100
,
1000
0000
0000
0000
,
0000
0000
0000
0000
0000
0000
0000
0000
0001
0100
0001
0100
,
0001
0000
0000
0000
,
0000
0000
0000
0000
0000
0000
0000
0000
1000
0001
1000
0001
,
1000
0000
0000
0000
,
0000
0000
0000
0000
0000
0000
0000
0000
0010
0100
0010
0100
,
0010
0000
1000
0100
0000
0010
0001
0000
0010
0001
0000
0100
,
0000
0010
0000
1000
0000
0010
0100
0000
0020
0200
0000
0300
,
0030
0000
1000
0010
0000
1000
0100
0000
0010
0100
0000
1000
,
0000
0001
0100
0001
0000
1000
0010
0000
2000
0200
0000
0300
,
3000
0000
0001
0100
0000
0010
0100
0000
0010
1000
0000
0100
,
0000
0010
0100
0010
0000
0001
1000
0000
0010
1000
0000
0100
,
1000
0000
0100
0010
0000
0001
0010
0000
0001
0100
0000
0010
,
0000
1000
0010
1000
0000
0100
1000
0000
0010
1000
0000
0001
,
0100
0000
0010
1000
0000
0001
1000
0000
0001
1000
0001
1000
,
0001
0000
1000
0010
0000
1000
0100
0000
0010
0100
0000
2000
,
0000
3000
0001
0100
0000
0010
1000
0000
0001
0010
0000
0200
,
0000
0000
0000
0000
0300
1000
0010
0000
1000
0001
0000
0200
,
0000
0000
0000
0000
0300
0010
1000
0000
0001
0100
0000
0020
,
2000
0000
3000
0030
0000
1000
0100
0000
0010
0100
0000
2000
,
0000
3000
0010
1000
0000
0001
0100
0000
0010
0100
0000
0002
,
0000
0003
1000
0001
0000
0010
0100
0000
1000
0100
0000
0020
,
0000
0030
0001
0100
0000
0010
0100
0000
0010
1000
0000
0001
,
1000
0000
0001
0010
0000
0100
1000
0000
0010
1000
0000
0200
,
0000
0300
1000
0100
0000
0010
0100
0000
0010
0001
0000
2000
,
0000
0000
0000
0000
3000
0010
1000
0000
0001
0100
0000
0002
,
0000
0000
0000
0000
0003
0010
0001
0000
1000
0100
0000
2000
,
0200
0000
0300
3000
0000
0001
0100
0000
0010
0100
0000
0002
,
0000
0003
1000
0100
0000
0010
0100
0000
1000
0100
0000
2000
,
0000
3000
0010
0100
0000
0001
0100
0000
0010
1000
0000
0200
,
0000
0300
1000
0010
0000
1000
0100
0000
0010
0100
0000
1000
,
0010
0000
0000
0100
0000
0001
0000
0000
0010
0100
0000
2000
,
0100
0000
0000
3000
0000
1000
0010
0000
1000
0001
0000
0200
,
0010
0000
0000
0300
0000
0100
0001
0000
0010
0100
0000
2000
,
0100
0000
0000
3000
0000
1000
0010
0000
0100
0001
0000
0020
,
0001
0000
0030
0010
0000
0100
0000
0000
0010
0001
0000
1000
,
0200
0000
0000
0300
0000
0010
0100
0000
1000
0100
0000
1000
,
0020
0000
0000
0030
0000
1000
0001
0000
0001
1000
0000
0000
,
2002
0000
0000
0000
,
3003
0000
0000
0000
;

//---------------dance-single - C. Foy----------------
#NOTES:
     dance-single:
     C. Foy:
     Challenge:
     9:
     0.673,0.650,0.148,0.306,1.000,460.000,16.000,33.000,0.000,0.000:









0000
0000
0000
0000
,
0000
0000
0000
0000
,
0000
0000
0000
0000
,
0000
0000
0000
0000
,
2000
0000
0000
3002
0000
0200
0003
0000
0310
1000
0000
0001
,
0010
0100
1000
0100
0000
0010
0001
0000
0001
0100
0000
0010
,
1000
0001
0100
0010
0000
0010
1000
0000
1000
0100
0000
0100
,
1000
0001
0100
0010
0000
1000
0100
0000
0100
0010
0000
0000
,
0002
0000
0000
0023
0000
0200
0030
0000
1300
0010
0000
0100
,
0010
0100
0001
0100
0000
0010
0100
0000
0100
0001
0000
1000
,
0001
0100
0010
1000
0000
1000
0001
0000
0001
0100
0000
0100
,
0010
0000
0010
1000
0000
1000
0100
0000
0100
0010
0000
0010
,
0001
0010
0001
0010
0000
0001
0100
0000
0100
0010
0000
0010
,
0100
0010
0100
0010
0000
0010
0100
0000
0100
0001
0000
0100
,
0001
0100
0001
0100
0000
0010
1000
0000
1000
0100
0000
1000
,
0100
1000
0100
1000
0000
0001
0100
0000
0100
0010
0000
0100
,
0001
0100
0010
0100
0000
0001
0100
0000
0100
0001
0000
0001
,
1000
0001
1000
0001
0000
0001
0100
0000
0100
0010
0000
0010
,
0100
0010
1000
0001
0000
1000
0100
0000
1000
0001
0000
1000
,
0100
0010
0001
0010
0000
0001
0100
0000
0100
0001
0000
0000
,
2200
0000
3300
0001
0000
0001
0010
0001
1000
0001
0000
0100
,
0010
0100
0001
1000
0000
1000
0100
0010
0001
0010
0100
0000
,
2020
0000
3030
0000
0000
0010
0100
0001
1000
0100
0000
0010
,
0100
1000
0001
0100
0000
0010
0100
0001
1000
0100
1000
0000
,
0202
0000
0000
0303
0000
0010
0100
0001
0010
0001
0000
0001
,
1000
0100
0010
0001
0000
0001
0100
0000
0100
0010
1000
0000
,
2020
0000
0000
3030
0000
0100
0010
1000
0100
1000
0000
0001
,
0100
0010
1000
0100
1000
0001
0100
0000
0010
1000
0100
0000
,
2200
0000
0000
3300
0000
1000
0010
0000
0010
0100
0000
0001
,
0000
0010
0000
0100
0000
0100
1000
0000
1000
0001
1000
0001
,
0100
0000
0100
0001
0000
0001
1000
0000
1000
0100
0000
0010
,
0000
0001
0100
0001
1000
0010
0100
0000
0001
0100
0010
0100
,
0001
0000
1000
0100
1000
0100
1000
0000
0010
0100
0000
0100
,
0000
0010
0100
0010
0000
1000
0001
0000
0001
0100
0000
0100
,
0010
0000
0010
1000
0000
1000
0100
0000
0100
0010
0000
0010
,
0000
0001
0010
0001
0000
0001
0100
0000
0010
1000
0000
0001
,
0100
0000
0001
1000
0000
1000
0001
0000
1000
0100
1000
0100
,
1000
0000
0010
0100
0000
0100
0001
0000
0001
0100
0000
0120
,
0000
0030
1000
0010
0000
0010
1000
0000
1000
0100
0000
1200
,
0000
1300
0100
1000
0000
1000
0010
0000
0100
0001
0000
0201
,
0000
0300
0100
0010
0000
0010
1000
0000
0010
0100
0000
0010
,
1000
0010
0100
0001
0000
0001
0100
0000
0100
0001
0000
2001
,
0000
3000
0010
1000
0000
1000
0001
0000
0001
0010
0000
0010
,
0100
0010
0100
0010
0000
0010
0001
0000
0001
0100
0000
0201
,
0000
0300
0100
0010
0000
0010
0100
0000
0100
0001
0000
0001
,
1000
0000
1000
0100
0000
0100
1000
0000
1000
0001
0000
1002
,
0000
0003
0001
0100
0000
0100
0001
0000
0001
1000
0000
1000
,
0010
1000
0100
0010
0000
0010
0001
0000
0001
0100
0000
0201
,
0000
0300
0001
0100
0000
0100
0010
0000
0010
1000
0000
1000
,
0001
0100
0010
1000
0000
1000
0001
0000
0001
0100
0000
0201
,
0000
0300
0100
0010
0000
0010
0100
0000
0100
0001
0000
0001
,
0010
0001
0100
0010
0000
0010
0100
0000
0100
0001
0000
0201
,
0000
0300
0010
0100
0000
0100
0001
0000
0010
0100
0000
1000
,
0020
0000
0000
0230
0000
0002
0000
0300
0013
0100
0000
0100
,
1000
0000
1000
0010
0000
0010
1000
0000
1000
0001
0000
0001
,
0010
0100
1000
0010
0000
0100
0001
0000
0001
0100
0000
0200
,
0010
0300
0010
1000
0000
1000
0100
0000
0100
0010
0000
0020
,
0001
0030
0001
0100
0000
0100
0010
0000
0010
0100
0000
0200
,
0001
0300
0001
1000
0000
1000
0100
0000
0100
0010
0000
0010
,
0001
0100
0010
1000
0000
1000
0100
0000
0100
1000
0000
1000
,
2002
0000
0000
0000
0000
0000
0000
0000
0000
0000
0000
3003
,
1001
0000
0000
0000
;

//---------------dance-double - M. Emirzian----------------
#NOTES:
     dance-double:
     M. Emirzian:
     Easy:
     3:
     0.171,0.169,0.019,0.019,0.144,125.000,2.000,2.000,0.000,0.000:









00000000
00000000
00000000
00000000
,
00000000
00000000
00000000
00000000
,
00000000
00000000
00000000
00000000
,
00000000
00000000
00000000
00000000
,
00000000
00100000
00100000
00000000
,
00000000
00000100
00000100
00000000
,
00000000
00010000
00010000
00000000
,
00000000
00001000
00001000
00000000
,
00000000
01000000
01000000
00000000
,
00000000
00010000
00010000
00000000
,
00000000
10000000
10000000
00000000
,
00000000
00000000
00000000
00000000
,
00000000
00000000
00000000
00100000
00000000
00000000
00100000
00000000
00000000
00000000
00000000
00100000
,
00000000
00000000
00000000
00010000
00000000
00000000
00010000
00000000
00000000
00000000
00000000
00010000
,
00000000
00000000
00000000
00001000
00000000
00000000
00001000
00000000
00000000
00000000
00000000
00001000
,
00000000
00000000
00000000
00000100
00000000
00000000
00000100
00000000
00000000
00000000
00000000
00000100
,
00000000
00000000
00000000
00000010
00000000
00000000
00000010
00000000
00000000
00000000
00000000
00000010
,
00000000
00000000
00000000
00000001
00000000
00000000
00000001
00000000
00000000
00000000
00000000
00000001
,
00000000
00000000
00000000
00000100
00000000
00000000
00000100
00000000
00000000
00000000
00000000
00000100
,
00000000
00000000
00000000
00001000
00000000
00000000
00001000
00000000
00000000
00000000
00000000
00001000
,
00000000
00000000
00000000
00000000
,
00010000
00000000
00001000
00000000
,
01000000
00000000
00000000
00000000
,
00010000
00000000
01000000
00000000
,
00100000
00000000
00000000
00000000
,
10000000
00000000
01000000
00000000
,
00010000
00000000
00000000
00000000
,
00001000
00000000
00000010
00000000
,
00000220
00000000
00000000
00000000
,
00000000
00000000
00000000
00000000
,
00000000
00000000
00000000
00000000
,
00000330
00000000
00000000
00000000
,
00001000
00000000
00000000
00000000
,
00000000
00000000
00000000
00000000
,
10000000
00000000
00000000
00000000
,
00000000
00000000
00000000
00000000
,
00000100
00000000
00000000
00000000
,
00000000
00000000
00000000
00000001
00000000
00000000
00000001
00000000
00000000
00000000
00000000
00000001
,
00000000
00000000
00000000
00000100
00000000
00000000
00000100
00000000
00000000
00000000
00000000
00000100
,
00000000
00000000
00000000
00001000
00000000
00000000
00001000
00000000
00000000
00000000
00000000
00001000
,
00000000
00000000
00000000
00010000
00000000
00000000
00010000
00000000
00000000
00000000
00000000
00010000
,
00000000
00000000
00000000
01000000
00000000
00000000
01000000
00000000
00000000
00000000
00000000
01000000
,
00000000
00000000
00000000
10000000
00000000
00000000
10000000
00000000
00000000
00000000
00000000
10000000
,
00000000
00000000
00000000
00100000
00000000
00000000
00100000
00000000
00000000
00000000
00000000
00100000
,
00000000
00000000
00000000
01000000
00000000
00000000
01000000
00000000
00000000
00000000
00000000
01000000
,
00000000
00000000
00000000
00001000
00000000
00000000
00001000
00000000
00000000
00000000
00000000
00001000
,
00000000
00000000
00000000
00010000
00000000
00000000
00010000
00000000
00000000
00000000
00000000
00010000
,
00000000
00000000
00000000
00000100
00000000
00000000
00000100
00000000
00000000
00000000
00000000
00000100
,
00000000
00000000
00000000
00001000
00000000
00000000
00001000
00000000
00000000
00000000
00000000
00001000
,
00000000
00000000
00000000
00000001
00000000
00000000
00000001
00000000
00000000
00000000
00000000
00000001
,
00000000
00000000
00000000
00000100
00000000
00000000
00000100
00000000
00000000
00000000
00000000
00000100
,
00000000
00000000
00000000
00000010
00000000
00000000
00000010
00000000
00000000
00000000
00000000
00000010
,
00000000
00000000
00000000
00010000
00000000
00000000
00010000
00000000
00000000
00000000
00000000
00010000
,
00000000
00000000
00000000
00001000
00000000
00000000
00001000
00000000
00000000
00000000
00000000
00001000
,
00000000
00000000
00000000
01000000
00000000
00000000
01000000
00000000
00000000
00000000
00000000
01000000
,
00000000
00000000
00000000
00100000
00000000
00000000
00100000
00000000
00000000
00000000
00000000
00100000
,
00000000
00000000
00000000
10000000
00000000
00000000
10000000
00000000
00000000
00000000
00000000
10000000
,
00000000
00000000
00000000
01000000
00000000
00000000
01000000
00000000
00000000
00000000
00000000
01000000
,
00000000
00000000
00000000
00010000
00000000
00000000
00010000
00000000
00000000
00000000
00000000
00010000
,
00000000
00000000
00000000
00001000
00000000
00000000
00001000
00000000
00000000
00000000
00000000
00001000
,
00000000
00000010
00000010
00000000
,
00000011
00000000
00000000
00000000
;

//---------------dance-double - M. Emirzian----------------
#NOTES:
     dance-double:
     M. Emirzian:
     Medium:
     5:
     0.235,0.226,0.019,0.028,0.144,173.000,2.000,3.000,0.000,0.000:









00000000
00000000
00000000
00000000
,
00000000
00000000
00000000
00000000
,
00000000
00000000
00000000
00000000
,
00000000
00000000
00000000
00000000
,
00100000
00100000
00100000
00000000
,
00001000
00001000
00001000
00000000
,
00000100
00000100
00000100
00000000
,
00000001
00000001
00000001
00000000
,
00001000
00001000
00001000
00000000
,
00010000
00010000
00010000
00000000
,
10000000
10000000
10000000
00000000
,
02200000
00000000
00000000
03300000
,
00000000
00000000
00000000
00100000
00000000
00000000
10000000
00000000
00000000
01000000
00000000
01000000
,
00000000
00000000
00000000
00100000
00000000
00000000
00010000
00000000
00000000
01000000
00000000
01000000
,
00000000
00000000
00000000
00001000
00000000
00000000
00010000
00000000
00000000
00000100
00000000
00000100
,
00000000
00000000
00000000
00010000
00000000
00000000
00001000
00000000
00000000
00000010
00000000
00000010
,
00000000
00000000
00000000
00000001
00000000
00000000
00000010
00000000
00000000
00000001
00000000
00000001
,
00000000
00000000
00000000
00000100
00000000
00000000
00000010
00000000
00000000
00001000
00000000
00001000
,
00000000
00000000
00000000
00000100
00000000
00000000
00001000
00000000
00000000
00000100
00000000
00000010
,
00000000
00000000
00000000
00000100
00000000
00000000
00010000
00000000
00000000
00001000
00000000
00001000
,
00000000
00000000
00010000
00000000
,
01000000
00000000
10000000
00000000
,
00010000
00000000
01000000
00000000
,
00001000
00000000
00000100
00000000
,
00000001
00000000
00001000
00000000
,
00000010
00000000
00100000
00000000
,
00010000
00000000
01000000
00000000
,
00200000
00000000
00000000
00300000
,
10000000
00000000
00000000
00000000
,
00000000
00000000
00000000
00000000
,
00000001
00000000
00000000
00000000
,
00000000
00000000
00000000
00000000
,
10000000
00000000
00000000
00000000
,
00000000
00000000
00000000
00000000
,
00000001
00000000
00000000
00000000
,
00010000
00000000
00000000
00000000
,
00001000
00000000
00010000
00001000
,
00010000
00000000
00000000
00100000
00000000
00000000
10000000
00000000
00000000
01000000
00000000
01000000
,
00000000
00000000
00000000
00100000
00000000
00000000
00010000
00000000
00000000
10000000
00000000
10000000
,
00000000
00000000
00000000
01000000
00000000
00000000
00010000
00000000
00000000
00001000
00000000
00001000
,
00000000
00000000
00000000
00100000
00000000
00000000
00010000
00000000
00000000
00001000
00000000
00001000
,
00000000
00000000
00000000
00000100
00000000
00000000
00000001
00000000
00000000
00000010
00000000
00000010
,
00000000
00000000
00000000
00001000
00000000
00000000
00000010
00000000
00000000
00000001
00000000
00000001
,
00000000
00000000
00000000
00000100
00000000
00000000
00000010
00000000
00000000
00010000
00000000
00010000
,
00000000
00000000
00000000
00001000
00000000
00000000
00010000
00000000
00000000
01000000
00000000
01000000
,
00000000
00000000
00000000
10000000
00000000
00000000
00010000
00000000
00000000
01000000
00000000
01000000
,
00000000
00000000
00000000
00100000
00000000
00000000
10000000
00000000
00000000
01000000
00000000
01000000
,
00000000
00000000
00000000
00100000
00000000
00000000
00001000
00000000
00000000
00010000
00000000
00010000
,
00000000
00000000
00000000
00001000
00000000
00000000
00010000
00000000
00000000
00000010
00000000
00000010
,
00000000
00000000
00000000
00001000
00000000
00000000
00000100
00000000
00000000
00000010
00000000
00000010
,
00000000
00000000
00000000
00000001
00000000
00000000
00001000
00000000
00000000
00000100
00000000
00000100
,
00000000
00000000
00000000
00000001
00000000
00000000
00000100
00000000
00000000
00001000
00000000
00001000
,
00000000
00000000
00000000
00010000
00000000
00000000
00001000
00000000
00000000
00000100
00000000
00000100
,
00000000
00000000
00000000
00010000
00000000
00000000
00001000
00000000
00000000
00100000
00000000
00100000
,
00000000
00000000
00000000
00010000
00000000
00000000
01000000
00000000
00000000
00100000
00000000
00100000
,
00000000
00000000
00000000
10000000
00000000
00000000
01000000
00000000
00000000
00100000
00000000
00100000
,
00000000
00000000
00000000
00010000
00000000
00000000
01000000
00000000
00000000
10000000
00000000
10000000
,
00000000
00000000
00000000
00010000
00000000
00000000
00100000
00000000
00000000
10000000
00000000
10000000
,
00000000
00000000
00000000
00100000
00000000
00000000
00010000
00000000
00000000
00001000
00000000
00001000
,
00000000
00000000
00000000
00000010
00000000
00000000
00000100
00000000
00000000
00001000
00000000
00001000
,
00000000
00000001
00000100
00000010
,
00001001
00000000
00000000
00000000
;

//---------------dance-double - M. Emirzian----------------
#NOTES:
     dance-double:
     M. Emirzian:
     Hard:
     8:
     0.481,0.480,0.093,0.037,0.759,350.000,10.000,4.000,0.000,0.000:









00000000
00000000
00000000
00000000
,
00000000
00000000
00000000
00000000
,
00000000
00000000
00000000
00000000
,
00000000
00000000
00000000
00000000
,
01000000
00000000
00100000
10000000
00000000
00000000
01000000
00000000
00000000
01000000
00000000
00010000
,
00000000
00000000
00001000
00010000
00000000
00000000
00000100
00000000
00000000
00000100
00000000
00001000
,
00000000
00000000
00000010
00000100
00000000
00000000
00000001
00000000
00000000
00000001
00000000
00000100
,
00000000
00000000
00001000
00000001
00000000
00000000
00000100
00000000
00000000
00001000
00000000
00010000
,
00000000
00000000
00001000
01000000
00000000
00000000
01000000
00000000
00000000
00010000
00000000
00100000
,
00000000
00000000
10000000
00100000
00000000
00000000
01000000
00000000
00000000
01000000
00000000
00010000
,
00000000
00000000
01000000
00100000
00000000
00000000
10000000
00000000
00000000
01000000
00000000
00000000
,
00220000
00000000
00000000
00330000
,
00000000
00000000
10000000
01000000
00000000
01000000
00100000
00000000
00100000
00010000
00000000
00100000
,
00000000
00000000
00001000
00010000
00000000
00010000
00000100
00000000
00001000
00000001
00001000
00000001
,
00001000
00000000
00000010
00000100
00000000
00000100
00000001
00000000
00000001
00000010
00000000
00000001
,
00000000
00000000
00000100
00000010
00000000
00000010
00001000
00000000
00000100
00010000
00000100
00010000
,
00000100
00000000
00010000
00001000
00000000
00001000
00010000
00000000
00010000
00100000
00000000
00010000
,
00000000
00000000
00100000
10000000
00000000
10000000
01000000
00000000
00100000
00010000
00100000
00010000
,
00100000
00000000
01000000
00010000
00000000
00010000
00001000
00000000
00001000
00000100
00000000
00001000
,
00000000
00000000
00000100
00000001
00000000
00000010
00000100
00000000
00001000
00000100
00001000
00000100
,
00001000
00000000
00000000
00000001
00000000
00000100
00000010
00000000
00000000
00001010
00000000
00000000
,
00000100
00000000
00000000
00010000
00000000
00001000
01000000
00000000
00000000
10010000
00000000
00000000
,
00100000
00000000
00000000
10000000
00000000
01000000
00100000
00000000
00000000
00110000
00000000
00000000
,
00001000
00000000
00000000
01000000
00000000
00001000
00010000
00000000
00000000
00010100
00000000
00000000
,
00001000
00000000
00000000
00000100
00000000
00000010
00000001
00000000
00000000
00001100
00000000
00000000
,
00000001
00000000
00000000
00000100
00000000
00001000
00000100
00000000
00000000
00000101
00000000
00000000
,
00001000
00000000
00000000
00000100
00000000
00010000
00001000
00000000
00000000
01001000
00000000
00000000
,
20020000
00000000
00000000
30030000
,
00010000
01000000
00000000
00100000
,
00000000
01000000
00000000
00001000
,
00000000
00010000
00000000
00000100
,
00000000
00010000
00000000
01000000
,
00000000
00010000
00000000
00000100
,
00000000
00000010
00000000
00000001
,
00000000
00001000
00000000
00000100
,
00000000
01000000
00000000
00100000
,
10000000
00000000
01000000
00100000
00000000
00001000
00010000
00000000
00000100
00000010
00000100
00001000
,
00000001
00000000
00000001
00000100
00000000
00000100
00000010
00000000
00000010
00001000
00000000
00000010
,
00000000
00000000
00000100
00001000
00000000
00001000
00010000
00000000
00001000
01000000
00001000
01000000
,
00001000
00000000
00010000
00100000
00000000
00100000
10000000
00000000
10000000
01000000
00000000
10000000
,
00000000
00000000
00010000
01000000
00000000
01000000
00100000
00000000
10000000
01000000
10000000
01000000
,
00100000
00000000
00100000
00010000
00000000
00010000
01000000
00000000
01000000
00001000
00000000
01000000
,
00000000
00000000
00001000
00010000
00000000
00010000
00100000
00000000
00010000
00001000
00010000
00001000
,
00000010
00000000
00000010
00000001
00000000
00000001
00001000
00000000
00001000
00000100
00000000
00001000
,
00000000
00000000
00000001
00000100
00000000
00000100
00000010
00000000
00001000
00000100
00001000
00000100
,
00001000
00000000
00000001
00000100
00000000
00000100
00001000
00000000
00001000
00010000
00000000
00001000
,
00000000
00000000
00000100
00001000
00000000
00001000
00010000
00000000
00100000
00010000
00100000
00010000
,
00100000
00000000
10000000
01000000
00000000
01000000
00010000
00000000
00010000
01000000
00000000
00100000
,
00000000
00000000
00100000
00001000
00000000
00001000
00000100
00000000
00001000
00010000
00001000
00010000
,
00001000
00000000
00001000
00000010
00000000
00000010
00000001
00000000
00000001
00001000
00000000
00000001
,
00000000
00000000
00000010
00000100
00000000
00000100
00001000
00000000
00000001
00000100
00000001
00000100
,
00000001
00000000
00000100
00001000
00000000
00001000
01000000
00000000
01000000
00010000
00000000
01000000
,
00000000
00000000
00100000
10000000
00000000
10000000
01000000
00000000
00100000
00010000
00100000
00010000
,
00100000
00000000
01000000
10000000
00000000
10000000
00100000
00000000
00100000
00010000
00000000
00100000
,
00000000
00000000
00010000
00001000
00000000
00001000
00000010
00000000
00000100
00010000
00000100
00010000
,
00000100
00000000
00001000
00000100
00000000
00000100
00000010
00000000
00000010
00000001
00000000
00000010
,
00000000
00000000
00000100
00001000
00000000
00001000
00000001
00000000
00000100
00001000
00000100
00001000
,
00000100
00000000
00001000
00010000
00000000
00010000
01000000
00000000
01000000
00010000
00000000
01000000
,
00000000
00000000
10000000
00100000
00000000
00100000
01000000
00000000
00010000
01000000
00001000
00010000
,
00000100
00000000
00001000
00000010
00000000
00000010
00000100
00000000
00000100
00000001
00000000
00000001
,
00000010
00000100
00001000
00000001
,
00000110
00000000
00000000
00000000
;

//---------------dance-double - M. Emirzian----------------
#NOTES:
     dance-double:
     M. Emirzian:
     Challenge:
     9:
     0.652,0.565,0.083,0.074,1.000,476.000,9.000,8.000,0.000,4.000:









00000000
00000000
00000000
00000000
,
00000000
00000000
00000000
00000000
,
00000000
00000000
00000000
00000000
,
00000000
00000000
00000000
00000000
,
10000000
00000000
10000000
01000000
00000000
01000000
00100000
00000000
00100000
00001000
00000000
00011000
,
00000000
00000000
00010000
00001000
00000000
00001000
00000010
00000000
00000001
00001000
00000010
00001000
,
00000001
00000000
00000001
00000100
00000000
00000100
00001000
00000000
00001000
00010000
00000000
01001000
,
00000000
00000000
00010000
01000000
00000000
01000000
00100000
00000000
00100000
10000000
00010000
10000000
,
01000000
00000000
01000000
00100000
00000000
00001000
00010000
00000000
00000100
00000010
00000000
00001001
,
00000000
00000000
00000010
00001000
00000000
00001000
00000100
00000000
00000100
00000010
00000001
00000010
,
00000100
00000000
00001000
00000001
00000000
00000001
00000100
00000000
00000100
00001000
00000000
00011000
,
00000000
00000000
00001000
00010000
00000000
01000000
10000000
00000000
00100000
01000000
00100000
10000000
,
01000000
00000000
00100000
00010000
00000000
00010000
00100000
01000000
10000000
01000000
00000000
01000000
,
00010000
00000000
00010000
00001000
00000000
00001000
00000100
00000000
00000001
00000100
00000010
00000100
,
00000001
00000000
00000001
00000100
00000000
00001000
00010000
00001000
00000100
00000001
00000000
00000001
,
00000010
00000000
00000010
00000100
00000000
00000100
00010000
00000000
00010000
00001000
01000000
00010000
,
00100000
00000000
00100000
01000000
00000000
10000000
00100000
01000000
00100000
10000000
00000000
10000000
,
01000000
00000000
01000000
00010000
00000000
00010000
00000100
00000000
00000100
00000010
00000001
00000010
,
00000100
00000000
00000100
00001000
00000000
00001000
00000010
00000100
00000010
00001000
00000000
00000100
,
00000010
00000000
00000010
00000001
00000000
00000001
00000100
00000000
00000100
00001000
00010000
01000000
,
10000000
00000000
10000000
00100000
00000000
00100000
00010000
00000000
00010000
00001000
00000000
00001000
,
00000010
00000000
00000010
00000001
00000000
00000001
00000100
00000000
00000100
00001000
00000100
00000001
,
00000100
00000000
00000100
00000010
00000000
00000010
00010000
00000000
00010000
00001000
00000000
00001000
,
00000010
00000000
00000010
00001000
00000000
00001000
00010000
00000000
00100000
00010000
00001000
00010000
,
01000000
00000000
01000000
10000000
00000000
10000000
00100000
00000000
00100000
01000000
00000000
01000000
,
00001000
00000000
00001000
00000100
00000000
00000100
00001000
00000000
00001000
00010000
00000100
00000010
,
00000001
00000000
00000001
00000100
00000000
00000100
00001000
00000000
00001000
00010000
00000000
00010000
,
00100000
00000000
01000000
10000000
00000000
10000000
01000000
00000000
00010000
10000000
00100000
01000000
,
00010000
00000000
00000000
00000000
22000000
00000000
00000000
00000000
00000000
00000000
00000000
00000000
00100000
33000000
00000000
00000000
,
00000000
00000000
00000000
00000000
00022000
00000000
00000000
00000000
00000000
00000000
00000000
00000000
01000000
00033000
00000000
00000000
,
00000000
00000000
00000000
00000000
00002200
00000000
00000000
00000000
00000000
00000000
00000000
00000000
00000010
00003300
00000000
00000000
,
00000000
00000000
00000000
00000000
00002002
00000000
00000000
00000000
00000000
00000000
00000000
00000000
00000010
00003003
00000000
00000000
,
00000100
00000000
00000100
00000001
00000000
00000001
00000100
00000000
00000100
00000001
00000000
00000001
,
00000100
00001000
00010000
00001000
00000000
00001000
00010000
00000000
00010000
00001000
00000000
00001000
,
00010000
00000000
00010000
01000000
00000000
01000000
10000000
00000000
10000000
01000000
00000000
01000000
,
00100000
00010000
00100000
00010000
00000000
00010000
00100000
00000000
00100000
00001000
00000000
00001000
,
00010000
00000000
00010000
00001000
00000000
00001000
00000100
00000000
00000100
00000001
00001000
00000100
,
00001000
00000000
00001000
00000010
00000000
00000010
00000001
00000010
00001000
00000010
00000000
00000010
,
00010000
00000000
00010000
00001000
00000000
00001000
00000100
00000000
00000100
00001000
00010000
00001000
,
01000000
00000000
01000000
00100000
00000000
00100000
10000000
01000000
00100000
00010000
00000000
00010000
,
01000000
00000000
01000000
00001000
00000000
00001000
00010000
00000000
00010000
00000100
00001000
00000100
,
00000010
00000000
00000010
00000100
00000000
00001000
00000001
00000100
00001000
00000100
00000000
00000100
,
00000010
00000000
00000010
00010000
00000000
00010000
00001000
00000000
00001000
00000010
00001000
00010000
,
00001000
00000000
00001000
01000000
00000000
01000000
00001000
01000000
00010000
01000000
00000000
01000000
,
00100000
00000000
00100000
10000000
00000000
10000000
01000000
00000000
01000000
00010000
01000000
10000000
,
01000000
00000000
01000000
00100000
00000000
00100000
00001000
00010000
00001000
00000100
00000000
00000100
,
00000001
00000000
00000001
00000010
00000000
00000010
00000100
00000000
00000100
00001000
00000001
00001000
,
00000100
00000000
00000100
00010000
00000000
00010000
00001000
00010000
00000100
00010000
00000000
00010000
,
00100000
00000000
00100000
10000000
00000000
10000000
00100000
00000000
00100000
00010000
00100000
10000000
,
00100000
00000000
00100000
01000000
00000000
00010000
10000000
01000000
00010000
00001000
00000000
00001000
,
00000100
00000000
00000001
00000010
00000000
00000010
00000100
00000000
00001000
00000001
00001000
00000100
,
00001000
00000000
00000001
00000100
00000000
00000100
00001000
00010000
00100000
01000000
00000000
01000000
,
00001000
00000000
00001000
00010000
00000000
00010000
00100000
00000000
00100000
10000000
01000000
10000000
,
00010000
10000000
00100000
10000000
00000000
10000000
01000000
00000000
00100000
00001000
00000000
00001000
,
00010000
00000100
00001000
00000010
00000000
00000010
00000100
00000000
00000100
00000001
00000010
00000001
,
00001000
00000001
00000100
00000001
00000000
00000001
00000010
00000000
00000010
00000100
00000000
00000100
,
00010000
00001000
01000000
00010000
00000000
00010000
00100000
00000000
00100000
00010000
01000000
00010000
,
10000000
00010000
00100000
01000000
00000000
01000000
10000000
00000000
10000000
00100000
00000000
00100000
,
00010000
00001000
00000010
00000001
00000000
00000001
00001000
00000000
00001000
00000010
00001000
00000001
,
00001000
00000100
00001000
00000001
00000000
00000010
00000100
00000000
00010000
00001000
00000000
01000000
,
00100000
00000000
00010000
00001000
00000000
00000010
00000100
00000000
00001000
00000010
00000100
00000001
,
00001001
00000000
00000000
00000000
;

//---------------dance-single - K. Ward----------------
#NOTES:
     dance-single:
     K. Ward:
     Beginner:
     1:
     0.101,0.141,0.065,0.000,0.000,69.000,7.000,0.000,0.000,0.000:







0000
0000
0000
0000
,
0000
0000
0000
0000
,
0000
0000
0000
0000
,
0000
0000
0000
0000
,
1000
0000
0000
0000
,
1000
0000
0000
0000
,
1000
0000
0000
0000
,
1000
0000
0000
0000
,
0001
0000
0000
0000
,
0001
0000
0000
0000
,
0001
0000
0000
0000
,
1001
0000
0000
0000
,
1000
0000
1000
0000
,
0001
0000
0000
0000
,
1000
0000
1000
0000
,
0001
0000
0000
0000
,
0100
0000
0000
0000
,
0010
0000
0000
0000
,
0100
0000
0000
0000
,
0001
0000
0000
0000
,
1001
0000
0000
0000
,
0000
0000
0000
0000
,
1001
0000
0000
0000
,
0000
0000
0000
0000
,
0110
0000
0000
0000
,
0000
0000
0000
0000
,
0110
0000
0000
0000
,
0000
0000
0000
0000
,
1000
0000
1000
0000
,
0001
0000
0001
0000
,
1000
0000
1000
0000
,
0001
0000
0001
0000
,
0010
0000
0010
0000
,
0001
0000
0001
0000
,
1000
0000
1000
0000
,
0001
0000
0000
0000
,
1001
0000
0000
0000
,
1000
0000
0000
0000
,
0001
0000
0000
0000
,
0100
0000
0000
0000
,
0010
0000
0000
0000
,
1000
0000
1000
0000
,
0001
0000
0000
0000
,
1000
0000
1000
0000
,
0001
0000
0000
0000
,
0010
0000
0000
0000
,
0001
0000
0000
0000
,
0100
0000
0000
0000
,
1000
0000
0001
0000
,
0100
0000
0000
0000
,
1000
0000
0000
0000
,
0010
0000
0000
0000
,
0001
0000
0000
0000
,
1000
0000
0001
0000
,
0001
0000
0000
0000
,
0010
0000
0010
0000
,
0001
0000
0000
0000
,
0100
0000
0100
0000
,
0001
0000
0000
0000
,
1000
0000
0000
0000
,
0001
0000
0000
0000
,
1001
0000
0000
0000
;
