#TITLE:Hollywood Galaxy;
#SUBTITLE:;
#ARTIST:dj TAKA;
#TITLETRANSLIT:;
#SUBTITLETRANSLIT:;
#ARTISTTRANSLIT:;
#CREDIT:;
#BANNER:../banner.png;
#BACKGROUND:../bg.png;
#LYRICSPATH:;
#CDTITLE:;
#MUSIC:Hollywood Galaxy.ogg;
#OFFSET:-1.049;
#SAMPLESTART:182.980;
#SAMPLELENGTH:20.840;
#SELECTABLE:YES;
#BPMS:0.000=186.000;
#STOPS:;
#BGCHANGES:;
// cache tags:
#FIRSTBEAT:32.000;
#LASTBEAT:756.000;
#SONGFILENAME:Songs/Cirque du Lykan/Hollywood Galaxy - [Zaia]/Hollywood Galaxy.sm;
#HASMUSIC:1;
#HASBANNER:1;
#MUSICLENGTH:246.752;
// end cache tags

//---------------dance-single - Zaia - 16(mid)----------------
#NOTES:
     dance-single:
     Zaia - 16(mid):
     Challenge:
     16:
     1.000,1.000,0.028,0.101,1.000,2435.000,7.000,25.000,0.000,0.000:
0000
0000
0000
0000
,
0000
0000
0000
0000
,
0000
0000
0000
0000
,
0000
0000
0000
0000
,
0000
0000
0000
0000
,
0000
0000
0000
0000
,
0000
0000
0000
0000
,
0000
0000
0000
0000
,
0001
0100
0010
1000
0001
1000
0100
1000
0001
0100
0010
0100
0001
1000
0010
0100
,
0001
1000
0100
0010
0100
1000
0001
0010
0100
1000
0001
0100
0001
1000
0100
1000
,
0001
0100
0010
0100
0001
1000
0001
0010
0100
1000
0001
1000
0100
0010
0100
1000
,
0001
0100
0001
1000
0010
0100
0001
1000
0001
0010
0100
1000
0001
0100
0010
0100
,
0001
1000
0100
1000
0001
0010
0100
1000
0001
0100
0001
1000
0100
0010
0100
1000
,
0001
0100
0010
0100
0001
1000
0010
1000
0001
0010
0100
1000
0001
0100
0001
1000
,
0001
0010
0100
1000
0100
0010
0001
1000
0100
1000
0001
0100
0010
0100
0001
1000
,
0001
1000
0100
1000
0001
0100
0010
0100
0001
1000
0010
0100
0001
1000
0100
0010
,
0001
0100
0010
1000
0001
1000
0100
1000
0001
0100
0010
0100
0001
1000
0010
0100
,
0001
1000
0100
0010
0100
1000
0001
0010
0100
1000
0001
0100
0001
1000
0100
1000
,
0001
0100
0010
0100
0001
1000
0001
0010
0100
1000
0001
1000
0100
0010
0100
1000
,
0001
0100
0001
1000
0010
0100
0001
1000
0001
0010
0100
1000
0001
0100
0010
0100
,
0001
1000
0100
0010
0001
1000
0001
0100
0010
0100
0001
1000
0100
1000
0001
0010
,
0001
1000
0010
0100
0010
1000
0001
0010
0100
1000
0001
1000
0010
0100
0010
1000
,
0001
1000
0100
0010
0001
1000
0001
0100
0010
0100
0001
1000
0001
0010
0001
1000
,
0010
1000
0001
1000
0100
0010
0100
1000
0001
1000
0010
0100
0010
1000
0001
1000
,
0100
1000
0001
0100
0010
1000
0001
0010
0001
0010
0100
1000
0010
0100
0010
1000
,
0001
0010
0100
1000
0001
0100
0010
1000
0010
1000
0001
0010
0100
1000
0001
0100
,
0010
0100
0001
1000
0100
1000
0001
0100
0001
0100
0010
1000
0001
0010
0100
0010
,
0001
0100
0001
1000
0010
0100
0010
1000
0100
0010
0001
1000
0001
0100
0010
1000
,
0100
1000
0001
0010
0100
1000
0001
0100
0001
0100
0010
1000
0100
0010
0100
1000
,
0001
0100
0010
1000
0001
0010
0100
1000
0100
1000
0001
0100
0010
1000
0001
0010
,
0100
0010
0001
1000
0010
1000
0001
0010
0001
0010
0100
1000
0001
0100
0010
0100
,
0001
0010
0001
1000
0100
0010
0100
1000
0010
0100
0001
1000
0001
0010
0001
1000
,
0000
0000
0000
0000
,
0001
0100
0001
1000
0100
0010
0100
1000
0001
0100
0010
1000
0100
1000
0001
1000
,
0010
0100
0001
0010
0100
1000
0001
1000
0010
0100
0001
0100
0010
1000
0100
0010
,
0001
1000
0010
1000
0001
0010
0100
0010
0001
1000
0010
0100
0001
0010
0001
1000
,
0001
0100
0010
1000
0100
0010
0001
1000
0001
0100
0010
1000
0010
0100
0001
0010
,
0001
1000
0001
1000
0010
0100
0010
1000
0001
0010
0100
1000
0010
1000
0001
1000
,
0100
0010
0001
0100
0010
1000
0001
1000
0100
0010
0001
0010
0100
1000
0010
0100
,
0001
1000
0100
1000
0001
0100
0010
0100
0001
1000
0100
0010
0001
0100
0001
1000
,
0001
0010
0100
1000
0010
0100
0001
1000
0001
0010
0100
0010
0001
1000
0010
0100
,
0001
0010
0001
1000
0010
0100
0010
1000
0001
0010
0100
1000
0010
1000
0001
1000
,
0100
0010
0001
0100
0010
1000
0001
1000
0100
0010
0001
0010
0100
1000
0010
0100
,
0001
1000
0100
1000
0001
0100
0010
0100
0001
1000
0100
0010
0001
0100
0001
1000
,
0001
0010
0100
1000
0010
0100
0001
1000
0001
0010
0100
1000
0100
0010
0001
0100
,
0001
1000
0001
1000
0100
0010
0100
1000
0001
0100
0010
1000
0100
1000
0001
1000
,
0010
0100
0001
0010
0100
1000
0001
1000
0010
0100
0001
0100
0010
1000
0100
0010
,
0001
1000
0010
1000
0001
0010
0100
0010
0001
1000
0010
0100
0001
0010
0001
1000
,
0001
0100
0010
1000
0100
0010
0001
1000
0001
0100
0010
0100
0001
1000
0001
0010
,
0100
1000
0100
1000
0001
1000
0010
0100
0010
1000
0100
0010
0100
1000
0001
1000
,
0010
0100
0001
0100
0001
1000
0001
0010
0100
0010
0001
0100
0010
1000
0001
0100
,
0010
1000
0010
1000
0001
1000
0100
0010
0100
1000
0010
0100
0010
1000
0001
1000
,
0100
0010
0100
1000
0010
0100
0010
1000
0001
0010
0100
1000
0001
0010
0001
0100
,
0010
1000
0010
1000
0001
1000
0100
0010
0100
1000
0010
0100
0010
1000
0001
1000
,
0100
0010
0001
0010
0001
1000
0001
0100
0010
0100
0001
0010
0100
1000
0001
0010
,
0100
1000
0100
1000
0001
1000
0010
0100
0010
1000
0100
0010
0100
1000
0001
1000
,
0010
0000
0000
0000
0100
0000
0001
0000
0000
0000
0100
0001
1000
0000
0000
0000
,
0001
0010
0100
1000
0001
1000
0010
0100
0010
1000
0001
0010
0001
0100
0010
1000
,
0001
0010
0100
1000
0001
1000
0010
0100
0010
1000
0001
0010
0001
0100
0010
1000
,
0001
0010
0100
1000
0001
1000
0010
0100
0010
1000
0001
0010
0001
0100
0010
1000
,
0001
0010
0100
1000
0001
1000
0010
0100
0010
1000
0100
0010
0001
1000
0010
0100
,
0001
0010
0100
1000
0001
1000
0010
0100
0001
0100
0010
1000
0100
1000
0001
0010
,
0001
0100
0001
1000
0010
0100
0010
1000
0001
0010
0100
1000
0001
0100
0010
0100
,
0001
0010
0100
1000
0001
0100
0010
0100
0001
1000
0001
0010
0100
1000
0100
0010
,
0001
0100
0010
1000
0010
0100
0010
1000
0001
0010
0001
1000
0100
1000
0001
1000
,
0010
1000
0100
0010
0001
1000
0001
0100
0010
0100
0001
1000
0100
1000
0010
0100
,
0001
1000
0100
0010
0001
1000
0001
0100
0010
0100
0001
1000
0100
1000
0010
0100
,
0001
1000
0100
0010
0001
1000
0001
0100
0010
0100
0001
1000
0100
1000
0010
0100
,
0001
1000
0100
0010
0001
1000
0001
0100
0010
0100
0001
0010
0100
1000
0001
0100
,
0010
1000
0100
0010
0001
1000
0001
0100
0010
1000
0010
0100
0001
0010
0001
1000
,
0100
1000
0010
1000
0001
0100
0010
0100
0001
1000
0100
0010
0001
1000
0010
0100
,
0010
1000
0100
0010
0001
1000
0010
0100
0010
1000
0001
1000
0100
0010
0001
0010
,
0100
1000
0010
0100
0001
1000
0010
1000
0001
1000
0100
0010
0001
1000
0001
1000
,
0020
0000
0000
0000
,
0230
0000
0000
0000
,
0302
0000
2003
0000
,
3200
0000
0000
0000
0000
0320
0032
2003
,
3020
0000
0000
0000
,
0230
0000
0000
0000
,
0302
0000
0023
0000
,
0230
2300
3002
0203
,
0310
0000
1000
0001
0000
0010
0001
0000
,
1000
0100
0010
0100
1000
0010
0100
0001
,
1000
0000
0100
0010
0000
0001
1000
0000
,
0010
1000
0001
0010
0100
0010
0001
1000
,
0010
0100
0001
1000
0001
0100
0010
0100
0001
1000
0100
0010
0100
1000
0001
1000
,
0010
0100
0010
1000
0001
0010
0100
1000
0001
1000
0010
0100
0001
1000
0100
1000
,
0001
0100
0010
1000
0001
1000
0100
0010
0001
1000
0010
0100
0001
1000
0001
1000
,
0020
0000
0000
0030
,
1000
0010
0100
0001
0100
0010
1000
0001
0010
0100
0010
0001
1000
0001
0100
0001
,
1000
0010
1000
0001
1000
0100
0010
0100
1000
0010
0100
0001
0010
0001
1000
0100
,
1000
0001
0010
0100
0010
0001
1000
0010
0100
0001
1000
0010
1000
0001
0010
0100
,
1000
0010
0100
0001
1000
0010
1000
0001
1000
0100
0010
0001
0100
0010
1000
0001
,
1000
0001
0010
0100
1000
0100
0010
0001
1000
0010
0100
0010
1000
0001
1000
0100
,
1000
0001
0010
0001
1000
0001
0100
0010
0100
0001
0010
0100
1000
0010
1000
0001
,
0100
0001
1000
0010
0100
0010
1000
0001
0010
0100
1000
0001
0100
0001
1000
0010
,
0100
0001
0010
0100
1000
0001
0010
0001
1000
0001
0100
0010
1000
0100
0010
0001
,
1000
0010
0100
0001
0100
0010
1000
0001
0010
0100
0010
0001
1000
0001
0100
0001
,
1000
0010
1000
0001
1000
0100
0010
0100
1000
0010
0100
0001
0010
0001
1000
0100
,
1000
0001
0010
0100
0010
0001
1000
0010
0100
0001
1000
0010
1000
0001
0010
0100
,
1000
0010
0100
0001
1000
0010
1000
0001
1000
0100
0010
0001
0100
0010
1000
0001
,
1000
0001
0010
0100
0010
0001
1000
0010
1000
0001
0100
0001
1000
0010
1000
0100
,
1000
0001
0010
0001
1000
0001
0100
0010
0100
0001
0010
0100
1000
0010
1000
0001
,
0100
0001
1000
0010
0100
0010
1000
0001
0010
0100
1000
0001
0100
0001
1000
0010
,
0100
0001
0010
0100
1000
0001
0010
0001
1000
0001
0100
0010
1000
0100
0010
0001
,
1000
0000
0000
0000
,
0001
0000
0010
0100
0100
1000
0002
0003
,
1000
0010
1000
0001
0100
0010
1000
0001
,
0010
0100
0010
0001
1000
0100
0010
0001
,
1000
0010
0100
0010
1000
0001
0010
0100
,
1000
0001
0100
0001
1000
0010
1000
1000
,
0100
0010
0100
1000
0001
0010
0100
1000
,
0001
0000
1000
0000
0010
0000
0100
0000
0010
0000
1000
0000
0001
0000
0100
0001
,
1000
0001
0010
0001
1000
0100
0010
0001
,
1000
0000
0010
0000
0100
0000
0001
0000
1000
0000
1000
0000
0001
0000
0100
0010
,
1000
0001
1000
0100
0010
0001
1000
0100
,
1000
0001
0100
0010
0100
0001
1000
0010
,
1000
0001
0010
0001
1000
0100
1000
0001
,
0100
0010
0100
0001
1000
0001
0100
0100
,
0010
1000
0100
0010
0001
1000
0010
0100
,
0001
0000
0010
0000
0100
0000
1000
0000
0001
0000
0100
0000
0010
0000
1000
0001
,
0010
0001
0100
0010
1000
0001
0010
0100
,
1000
0001
0100
0010
1000
0001
1000
0001
,
0010
0100
1000
0001
1000
0001
0100
0001
1000
0100
0010
0001
1000
0010
0100
0001
,
1000
0100
1000
0001
1000
0001
0100
0001
1000
0100
0010
0001
1000
0010
0100
0001
,
0010
0100
1000
0001
1000
0001
0100
0001
1000
0100
0010
0001
1000
0010
0100
0001
,
1000
0100
1000
0001
1000
0001
0100
0001
1000
0100
0010
0001
1000
0010
0100
0001
,
1000
0100
0010
0001
1000
0001
1000
0010
1000
0001
0010
0100
1000
0001
0100
0010
,
1000
0001
0010
0001
1000
0001
1000
0010
1000
0001
0010
0100
1000
0001
0100
0010
,
1000
0100
0010
0001
1000
0001
1000
0010
1000
0001
0010
0100
1000
0001
0100
0010
,
1000
0001
0010
0001
1000
0001
1000
0010
1000
0001
0010
0100
1000
0001
0100
0010
,
2000
0000
3010
0000
0110
0000
0100
0001
,
2000
0000
3100
0000
0210
0000
0310
0100
,
2000
0000
3010
0000
1010
0000
0010
0100
,
0002
0000
1003
0000
1100
0100
0010
0001
,
2000
0000
3010
0000
0101
0000
0001
1000
,
0010
0000
0100
0000
0110
0000
0001
1000
,
0200
0000
0310
0000
0011
0000
0001
1000
,
0010
0000
0100
0000
0001
4000
0000
0000
,
3000
0000
0000
0000
,
0000
0000
0000
0000
,
0001
0100
0010
1000
0010
0100
0001
1000
0100
0010
0100
1000
0001
1000
0010
1000
,
0001
0100
0001
1000
0001
0010
0100
0010
0001
0100
0010
1000
0100
1000
0001
0010
,
0001
1000
0100
0010
0100
1000
0001
0100
0010
1000
0001
0100
0001
1000
0100
0010
,
0001
0100
0010
1000
0001
0100
0001
1000
0001
0010
0100
1000
0010
0100
0001
1000
,
0001
1000
0100
0010
0001
0010
0100
1000
0001
0100
0010
0100
0001
1000
0001
0010
,
0001
1000
0100
1000
0001
1000
0010
0100
0010
1000
0100
0010
0001
0100
0001
1000
,
0010
1000
0001
0100
0010
0100
0001
1000
0100
0010
0001
1000
0010
1000
0001
0100
,
0010
1000
0100
0010
0001
1000
0100
1000
0001
1000
0010
0100
0001
0010
0100
1000
,
0001
0100
0010
1000
0010
0100
0001
1000
0100
0010
0100
1000
0001
1000
0010
1000
,
0001
0100
0001
1000
0001
0010
0100
0010
0001
0100
0010
1000
0100
1000
0001
0010
,
0001
1000
0100
0010
0100
1000
0001
0100
0010
1000
0001
0100
0001
1000
0100
0010
,
0001
0100
0010
1000
0001
0100
0001
1000
0001
0010
0100
1000
0010
0100
0001
1000
,
0001
1000
0100
0010
0100
1000
0001
0100
0001
1000
0010
1000
0001
0100
0001
0010
,
0001
1000
0100
1000
0001
1000
0010
0100
0010
1000
0100
0010
0001
0100
0001
1000
,
0010
1000
0001
0100
0010
0100
0001
1000
0100
0010
0001
1000
0010
1000
0001
0100
,
0010
1000
0100
0010
0001
1000
0100
1000
0001
1000
0010
0100
0001
0010
0100
1000
,
0001
0100
0001
1000
0100
0010
0100
1000
0001
0100
0010
1000
0100
1000
0001
1000
,
0010
0100
0001
0010
0100
1000
0001
1000
0010
0100
0001
0100
0010
1000
0100
0010
,
0001
1000
0010
1000
0001
0010
0100
0010
0001
1000
0010
0100
0001
0010
0001
1000
,
0001
0100
0010
1000
0100
0010
0001
1000
0001
0100
0010
1000
0010
0100
0001
0010
,
0001
1000
0001
1000
0010
0100
0010
1000
0001
0010
0100
1000
0010
1000
0001
1000
,
0100
0010
0001
0100
0010
1000
0001
1000
0100
0010
0001
0010
0100
1000
0010
0100
,
0001
1000
0100
1000
0001
0100
0010
0100
0001
1000
0100
0010
0001
0100
0001
1000
,
0001
0010
0100
1000
0010
0100
0001
1000
0001
0010
0100
0010
0001
1000
0010
0100
,
0001
0010
0001
1000
0010
0100
0010
1000
0001
0010
0100
1000
0010
1000
0001
1000
,
0100
0010
0001
0100
0010
1000
0001
1000
0100
0010
0001
0010
0100
1000
0010
0100
,
0001
1000
0100
1000
0001
0100
0010
0100
0001
1000
0100
0010
0001
0100
0001
1000
,
0001
0010
0100
1000
0010
0100
0001
1000
0001
0010
0100
1000
0100
0010
0001
0100
,
0001
1000
0001
1000
0100
0010
0100
1000
0001
0100
0010
1000
0100
1000
0001
1000
,
0010
0100
0001
0010
0100
1000
0001
1000
0010
0100
0001
0100
0010
1000
0100
0010
,
0001
1000
0010
1000
0001
0010
0100
0010
0001
1000
0010
0100
0001
0010
0001
1000
,
0001
0100
0010
1000
0100
0010
0001
1000
0001
0100
0010
0100
0001
1000
0001
0010
,
0100
0010
0001
1000
0001
1000
0010
1000
0001
0010
0100
1000
0001
0100
0010
1000
,
0001
0010
0001
1000
0001
1000
0010
1000
0001
0010
0100
1000
0001
0100
0010
1000
,
0100
0010
0001
1000
0001
1000
0010
1000
0001
0010
0100
1000
0001
0100
0010
1000
,
0001
0010
0001
1000
0001
1000
0010
1000
0001
0010
0100
1000
0001
0100
0010
1000
,
0100
0010
0100
1000
0001
1000
0001
0100
0001
1000
0100
0010
0001
1000
0010
0100
,
0001
1000
0100
1000
0001
1000
0001
0100
0001
1000
0100
0010
0001
1000
0010
0100
,
0001
0010
0100
1000
0001
1000
0001
0100
0001
1000
0100
0010
0001
1000
0010
0100
,
0001
1000
0100
1000
0001
1000
0001
0100
0001
1000
0100
0010
0001
1000
0010
0100
,
0001
0010
0100
1000
0001
1000
0010
1000
0001
0010
0100
1000
0001
0100
0010
1000
,
0001
0010
0001
1000
0001
1000
0010
1000
0001
0010
0100
1000
0001
0100
0010
1000
,
0100
0010
0001
1000
0001
1000
0010
1000
0001
0010
0100
1000
0001
0100
0010
1000
,
0001
0010
0001
1000
0001
1000
0010
1000
0001
0010
0100
1000
0001
0100
0010
1000
,
0100
0010
0100
1000
0001
1000
0001
0100
0001
1000
0100
0010
0001
1000
0010
0100
,
0001
1000
0100
1000
0001
1000
0001
0100
0001
1000
0100
0010
0001
1000
0010
0100
,
0001
0010
0100
1000
0001
1000
0001
0100
0001
1000
0100
0010
0001
1000
0010
0100
,
0001
1000
0100
1000
0001
1000
0001
0100
0001
1000
0100
0010
0001
1000
0010
0100
,
0001
0000
0000
0000
;
