#TITLE:StratoFortress;
#SUBTITLE:;
#ARTIST:Stratovarius;
#TITLETRANSLIT:;
#SUBTITLETRANSLIT:;
#ARTISTTRANSLIT:;
#CREDIT:;
#BANNER:BN.png;
#BACKGROUND:bg.png;
#LYRICSPATH:;
#CDTITLE:Kombo.png;
#MUSIC:Stratovarius.mp3;
#OFFSET:2.395;
#SAMPLESTART:70.080;
#SAMPLELENGTH:12.000;
#SELECTABLE:YES;
#BPMS:0.000=179.880,10.000=180.000,12.000=179.860,104.000=180.160,128.000=179.880,136.000=180.100,168.500=180.000,195.000=179.900,198.000=180.000,249.500=180.040,280.000=179.880,284.000=179.600,295.500=184.060,296.000=180.360,304.000=179.900,311.000=180.000,319.000=180.200,327.000=179.000,329.000=179.200,336.000=180.200,342.000=180.380,344.000=180.000,353.000=179.600,358.000=180.000,360.000=180.300,390.000=179.940,391.500=179.580,394.000=179.880,402.000=179.780,404.000=179.500,408.000=179.460,411.500=179.600;
#STOPS:;
#BGCHANGES:;
// cache tags:
#FIRSTBEAT:8.000;
#LASTBEAT:440.000;
#SONGFILENAME:Songs/Definitive Keyboard Megapack/Stratofortress [KOMBO]/stratofortress.sm;
#HASMUSIC:1;
#HASBANNER:1;
#MUSICLENGTH:151.622;
// end cache tags

//---------------dance-single - Kombonauticas Flecha----------------
#NOTES:
     dance-single:
     Kombonauticas Flecha:
     Hard:
     13:
     1.000,1.000,1.000,0.059,1.000,1404.000,314.000,9.000,0.000,31.000:

0000
0000
0000
0000
,
0000
0000
0000
0000
,
0001
0000
1000
0000
1000
0000
0100
0000
0001
0000
0001
0000
1000
0010
1000
0010
,
0001
0000
1000
0000
0100
0000
0001
0000
0001
0000
1000
0000
0001
0100
0001
0100
,
1000
0000
0010
0000
0100
0000
0010
0000
1000
0000
0010
0100
0010
0000
0001
0000
,
1000
0100
0010
0001
0010
0100
0001
0100
1000
0010
0001
0010
1000
0000
0000
0000
,
1000
0000
0110
0000
0110
0000
0001
0000
0110
0000
0010
0000
1000
0001
1000
0001
,
1000
0000
1100
0000
1100
0000
0001
0000
0110
0000
0010
0000
1000
0100
1000
0100
,
1000
0000
0101
0000
0101
0000
0010
0000
1001
0000
0001
0100
0010
0000
1000
0000
,
0001
0010
0001
0010
0100
1000
0100
1000
0010
0100
0001
0100
0010
0000
1000
0000
,
0101
0010
0001
0010
0101
0010
1000
0100
1010
0100
0010
0100
1001
0010
0001
0010
,
0101
1000
0100
0010
1001
0010
0100
0010
0101
0010
0001
0100
1001
0010
0100
0001
,
1100
0010
1000
0100
0011
0100
1000
0001
0110
1000
0010
0001
1010
0100
0010
1000
,
0011
0010
0010
0110
0100
0100
1100
1100
,
1010
0100
1000
0100
1010
0100
0001
0010
0101
0010
0100
0010
1001
0100
1000
0100
,
1010
0001
0010
0100
1001
0100
0010
0100
1010
0100
1000
0010
1001
0100
0010
1000
,
0011
0100
0001
0010
1100
0010
0001
1000
0110
0001
0100
1000
0101
0010
0100
0001
,
1100
0000
0010
0100
0010
0100
0010
0100
0001
0000
0100
0000
0010
0000
1100
0000
,
0011
1000
0001
1000
0011
1000
0001
1000
0011
1000
0001
1000
0011
1000
0001
1000
,
0011
1000
0001
1000
0011
1000
0001
1000
0011
1000
0001
0000
1000
0000
0001
0000
,
1100
0010
0100
0010
1100
0010
0100
0010
1100
0010
0100
0010
1100
0010
0100
0010
,
1100
0001
1000
0110
0001
1000
0110
0110
,
0011
1000
0001
1000
0011
1000
0001
1000
0011
1000
0001
1000
0011
1000
0001
1000
,
0011
1000
0001
1000
0011
1000
0001
1000
0011
1000
0001
1000
0011
0000
0011
0000
,
0110
1001
0101
0110
,
1001
0000
0010
0001
0010
0000
1000
0100
0001
0100
1000
0100
0001
0000
0000
0000
,
1000
0001
0100
0010
1000
0001
1000
0100
0001
0010
1000
0100
0010
0100
1000
0100
,
0010
0001
0010
0100
1000
0100
0001
0100
0010
1000
0010
0100
0001
1000
0001
0100
,
0010
0100
0010
0001
0010
0100
1000
0100
0010
1000
0010
0001
0010
1000
0100
0010
,
0001
0010
0100
0001
0010
0100
0010
0001
0100
0010
1000
0100
0010
0001
0010
0100
,
1000
0010
0100
0001
0100
0010
1000
0100
0010
0001
0100
0010
1000
0010
0100
0001
,
0010
0100
1000
0100
0010
0001
1000
0001
0010
0100
0010
0001
1000
0100
0010
0001
,
1000
0100
0010
0001
0010
0100
1000
0001
0010
0001
1000
0010
1000
0001
1000
0001
,
0100
1000
0001
0010
1000
0001
1000
0001
0010
0100
0010
0100
0010
0001
0100
0010
,
1100
1100
1100
1100
1100
1100
1100
1100
,
1100
0000
1100
0000
1100
0000
1100
0000
0001
0001
0001
0001
0001
0001
0001
0001
,
0000
0110
0110
0110
0110
0110
0110
0110
,
0110
0000
0110
0000
0110
0000
0110
0000
0001
0001
0001
0001
0001
0001
0001
0001
,
0000
0011
0011
0011
0011
0011
0011
0011
,
0011
0000
0011
0000
0011
0000
0011
0000
1000
1000
1000
1000
1000
1000
1000
1000
,
0000
0110
0110
0110
0110
0110
0110
0110
,
0110
0000
0110
0000
0110
0000
0110
0000
1000
1000
1000
1000
1000
1000
1000
1000
,
0000
0001
1010
0100
0011
0100
1010
0100
,
0011
0100
1010
0100
0011
0100
1010
0001
,
0001
0001
0001
0101
0101
0101
0101
0111
,
0111
0000
0111
0000
0111
0000
0111
0000
1001
1001
1001
1001
1001
1001
1001
1001
,
0000
0100
0101
0001
0101
0100
0101
0001
,
0101
0000
0100
0000
0101
0000
0001
0000
1001
1001
1001
1001
1001
1001
1001
1001
,
0000
1001
1001
1001
1001
1001
1001
1001
,
0011
0100
0011
0100
0011
0100
0011
0000
1100
0010
1100
0010
1100
0010
1100
0010
,
1000
0001
0100
0010
1000
0001
1000
0100
0001
0010
1000
0100
0010
0100
1000
0100
,
0010
0001
0010
0100
1000
0100
0001
0100
0010
1000
0010
0100
0001
1000
0001
0100
,
0010
0100
0010
0001
0010
0100
1000
0100
0010
1000
0010
0001
0010
1000
0100
0010
,
0001
0001
0010
0000
0001
0001
1000
0000
0001
0001
0100
0000
0001
0001
0010
0000
,
1000
0010
0100
0001
0100
0010
1000
0100
0010
0001
0100
0010
1000
0010
0100
0001
,
0010
0100
1000
0100
0010
0001
1000
0001
0010
0100
0010
0001
1000
0100
0010
0001
,
1000
0001
0100
0010
1000
0001
1000
0100
0001
0010
1000
0100
0010
0001
0010
0100
,
1000
1000
0100
0000
1000
1000
0001
0000
1000
1000
0010
0000
1000
1000
0100
0000
,
0011
0100
0010
0001
0010
0100
0011
0100
0010
1000
0010
0100
0011
1000
0100
1000
,
0011
0100
0010
0001
0010
0100
0011
1000
0100
0010
1000
0100
0011
0100
1000
0100
,
0011
0100
1000
0100
0010
0100
0011
1000
0100
0001
0100
1000
0011
0100
0010
0100
,
0001
0001
0010
0000
0001
0001
1000
0000
0001
0001
0100
0000
0001
0001
0010
0000
,
1000
0001
0100
0010
1000
0001
1000
0100
0001
0010
1000
0100
0010
0100
1000
0100
,
0010
0001
0010
0100
1000
0100
0001
0100
0010
1000
0010
0100
0001
1000
0001
0100
,
0010
0100
0010
0001
0010
0100
1000
0100
0010
1000
0010
0001
0010
1000
0100
0010
,
1000
1000
0100
0000
1000
1000
0010
0000
1000
1000
0001
0000
1000
1000
0100
0000
,
0001
0010
0100
1000
0100
0010
0001
0010
0100
1000
0100
0010
0001
0010
0100
1000
,
0100
0010
0001
0010
0100
1000
0100
0010
1001
0000
1001
0000
1001
0000
1001
0000
,
1000
0100
0010
0001
0010
0100
1000
0100
0010
0001
0010
0100
1000
0100
0010
0001
,
0010
0100
1000
0100
0010
0001
0010
0100
1001
0000
1001
0000
1001
0000
1001
0000
,
0001
0010
0100
1000
0100
0010
0001
0010
0100
1000
0100
0010
0001
0010
0100
1000
,
0100
0010
0001
0010
0100
1000
0100
0010
1001
0000
1001
0000
1001
0000
1001
0000
,
1000
0100
0010
0001
0010
0100
1000
0100
0010
0001
0010
0100
1000
0100
0010
0001
,
0010
0100
1000
0100
0010
0001
0010
0100
1001
0000
1001
0000
1001
0000
1001
0000
,
1011
0100
0010
0001
0010
0100
1011
0100
0010
0001
0010
0100
1011
0100
0010
0001
,
0010
0100
1011
0100
0010
0001
0010
0100
1011
0000
1001
0000
1001
0000
1001
0000
,
1101
0010
0100
1000
0100
0010
1101
0010
0100
1000
0100
0010
1101
0010
0100
1000
,
0100
0010
1101
0010
1000
0100
0010
0001
1110
0000
1001
0000
1001
0000
1001
0000
,
1011
0100
0010
0001
0010
0100
1011
0100
0010
0001
0010
0100
1011
0100
0010
0001
,
0010
0100
1011
0100
0010
0001
0010
0100
1011
0000
1001
0000
1001
0000
1001
0000
,
1101
0010
0100
1000
0100
0010
1101
0010
0100
1000
0100
0010
1101
0010
0100
1000
,
0100
0010
1101
0010
0100
1000
0100
0010
2202
0000
3303
0000
1111
0000
0000
0000
,
0011
1000
0011
1000
0011
1000
0110
0001
0110
0001
0110
1000
0101
0010
0101
0010
,
0101
1000
0011
1000
0011
1000
0011
0100
1010
0100
0011
0100
1010
0100
0011
0100
,
1010
0100
0001
0100
1010
0100
0001
1000
0011
0100
0010
0100
1010
0001
0010
0100
,
1010
0100
0001
0100
1010
0100
0001
0100
0011
0000
0011
0000
0011
0000
0011
0000
,
1100
0001
1100
0001
1100
0001
0110
1000
0110
1000
0110
0001
1010
0100
1010
0100
,
1010
0001
1100
0001
1100
0001
1100
0010
0101
0010
1100
0010
0101
0010
1100
0010
,
0101
0010
1000
0010
0101
0000
0101
1000
0100
0010
0001
0010
0100
1000
0100
0010
,
0001
0010
0100
1000
0110
0000
0110
0000
1111
0000
1001
0110
1001
0000
1111
0000
,
1000
0001
0100
0010
1000
0001
1000
0100
0001
0010
1000
0100
0010
0100
1000
0100
,
0010
0001
0010
0100
1000
0100
0001
0100
0010
1000
0010
0100
0001
1000
0001
0100
,
0010
0100
0010
0001
0010
0100
1000
0100
0010
1000
0010
0001
0010
1000
0100
0010
,
0001
0001
0010
0000
0001
0001
1000
0000
0001
0001
0100
0000
0001
0001
0010
0000
,
1000
0010
0100
0001
0100
0010
1000
0100
0010
0001
0100
0010
1000
0010
0100
0001
,
0010
0100
1000
0100
0010
0100
1000
0100
0011
1000
0011
0100
0011
1000
0011
0110
,
1100
0001
1100
0010
1100
0001
1100
0010
1100
0001
1100
0110
0011
1000
0011
0100
,
0011
1000
0011
0100
1000
1000
0001
0000
1000
1000
0010
0000
1000
1000
0100
0000
,
0001
1000
0011
0100
0001
1000
0101
0010
1000
0100
0011
1000
0100
0010
1001
0010
,
0100
1000
0101
0010
0001
0010
1100
0010
0100
0001
1100
0010
1000
0001
1100
0010
,
0100
0010
0101
1000
0100
0010
1001
0010
0100
0001
0110
1000
0100
0001
1010
0100
,
1000
1000
0100
0000
1000
1000
0001
0000
1000
1000
0010
0000
1000
1000
0100
0000
,
0001
0100
0011
1000
0010
0100
1001
0010
0100
1000
0011
0100
0001
0100
0011
1000
,
0100
0010
1001
0010
0100
1000
0011
1000
0100
0010
0101
1000
0001
0010
0101
1000
,
0001
1000
0011
0100
0001
1000
0101
0010
1000
0100
1001
0010
0100
1000
0101
0010
,
0001
0001
0010
0000
0001
0001
1000
0000
0001
0001
0100
0000
0001
0001
0010
0000
,
2220
0000
0000
0000
,
0000
0000
0000
0000
0000
0000
0000
0000
0000
0000
0000
0000
0000
0000
3331
1000
,
0222
0000
0000
0000
,
0000
0000
0000
0000
,
0333
0000
0000
0000
;
