#TITLE:Kimochi-E-Koto;
#SUBTITLE:(DJ Sharpnel Frenchcore Remix);
#ARTIST:Sharpnel.exe;
#TITLETRANSLIT:;
#SUBTITLETRANSLIT:;
#ARTISTTRANSLIT:;
#CREDIT:;
#BANNER:kimochi bn.png;
#BACKGROUND:kimochi bg.png;
#LYRICSPATH:;
#CDTITLE:;
#MUSIC:Kimochi-E-Koto.ogg;
#OFFSET:-0.586;
#SAMPLESTART:101.498;
#SAMPLELENGTH:18.450;
#SELECTABLE:YES;
#DISPLAYBPM:208.000;
#BPMS:0.000=208.120;
#STOPS:;
#BGCHANGES:;
// cache tags:
#FIRSTBEAT:22.000;
#LASTBEAT:478.000;
#SONGFILENAME:Songs/SHARPNELSTREAMZ v2/Kimochi-E-Koto/Kimochi-E-Koto.sm;
#HASMUSIC:1;
#HASBANNER:1;
#MUSICLENGTH:138.681;
// end cache tags

//---------------dance-single - 15+ (TYLappo)----------------
#NOTES:
     dance-single:
     15+ (TYLappo):
     Challenge:
     15:
     1.000,1.000,0.346,0.231,1.000,1118.000,48.000,32.000,8.000,0.000:
0000
0000
0000
0000
,
0000
0000
0000
0000
,
0000
0000
0000
0000
,
0000
0000
0000
0000
,
0000
0000
0000
0000
,
0000
0000
0M00
0M00
,
00M0
00M0
0M00
0M00
,
0001
0000
0000
0000
1000
0000
0000
0000
0001
0000
0000
0000
0000
0000
0000
0000
1000
0000
0000
0000
0000
0000
0000
0000
0040
0000
0000
0000
0000
0000
0000
0030
1001
0000
0000
0000
0000
0000
0000
0000
0001
0000
0000
0000
0000
0000
0000
0000
0100
0000
0000
0000
0000
0000
0000
0000
0001
0000
0000
0000
0000
0000
0000
0000
,
1000
0010
1000
0001
0010
0001
1000
0100
,
1000
0001
0100
0001
1000
0010
1000
0001
,
1000
0001
1000
0100
1000
0001
0010
0001
,
1000
0010
0100
0100
0010
1000
0001
0010
,
0001
1000
0001
1000
0010
1000
0001
0100
,
0001
1000
0100
1000
0001
0010
0001
1000
,
0010
0000
1000
0000
0001
0000
0100
0000
0010
0000
1000
0010
1000
0000
0100
0010
,
0001
1000
0001
0000
1000
0000
00M0
0000
1001
0000
0001
0000
1000
0000
0010
0000
,
0100
0010
1000
0001
1000
0100
0010
0001
,
1000
0001
0010
0100
1000
0001
0100
0001
,
1000
0010
0100
0010
1000
0001
0010
0100
,
1000
0001
0100
0010
0010
1000
0010
0100
,
0001
0010
0100
1000
0001
0100
0001
1000
,
0100
0010
0001
0100
0010
1000
0001
1000
,
0010
0000
0100
0000
0001
0000
1000
0000
0100
0000
0010
0001
0010
0000
0100
1000
,
0001
1000
0001
0000
1000
0000
0M00
0000
0011
0000
0001
0000
1000
0000
0001
1000
,
0010
0100
0001
0010
0001
0100
0010
1000
,
0001
1000
0001
0000
4000
0000
3400
0000
0310
0000
0001
0000
0100
0000
0001
0000
,
1000
0010
0100
0001
1000
0100
1000
0001
,
0100
0000
0000
0000
0001
0000
0000
0000
4000
3000
0400
0300
0040
0030
0004
0003
1000
0000
0000
0000
0001
0000
0000
0000
0010
0000
0000
0000
0100
0000
1000
0000
,
0001
1000
0010
0100
0001
0010
0001
1000
,
0010
1000
0010
0000
0400
0000
0304
0000
1003
0000
0100
0000
0010
0000
0001
0000
,
1000
0001
0100
0010
1000
0001
1000
0100
,
0010
0000
0000
0000
0001
0000
0000
0000
4000
3000
0004
0003
0040
0030
0400
0300
1000
0000
0000
0000
0001
0000
0000
0000
0100
0000
0000
0000
0010
0000
1000
0000
,
0010
0100
0001
0010
0001
0100
0010
1000
,
0001
0010
0400
4300
3001
1000
0001
0100
,
0010
1000
0100
0010
0100
1000
0001
0100
,
0010
0000
0000
0000
1000
0000
0000
0000
0004
0003
0040
0030
0400
0300
4000
3000
0001
0000
0000
0000
0100
0000
0000
0000
0010
0000
0000
0000
1000
0000
0001
0000
,
1000
0010
0100
0001
1000
0100
0010
0001
,
1000
0001
1000
0000
0040
0000
0430
0000
0301
0000
0010
0000
0001
0000
1000
0000
,
0010
0100
0001
0010
0001
0100
0010
1000
,
0100
0000
0010
0000
0004
0000
4003
3000
1001
0000
0001
0000
0010
0000
0100
0000
,
1000
0001
1000
0010
1000
0001
0010
0100
,
1000
0001
0100
0000
0040
1030
0400
1300
0001
0000
1000
0000
0010
0000
1000
0000
,
0001
0100
0001
0010
0001
1000
0010
0100
,
0001
0000
0001
0000
0040
0031
0400
0301
1000
0000
0001
0000
0010
0000
0100
1000
,
0001
0100
0001
0010
0100
1000
0100
0010
,
0001
1000
0001
0000
0400
0301
0040
0031
1000
0000
0100
0000
0010
0000
0001
0000
,
1000
0000
0010
0000
1000
0000
0100
0000
1000
0000
0001
0100
0010
0000
1000
0001
,
1000
0001
0010
0000
0400
1300
0040
0130
0001
0000
0010
0000
0100
0000
1000
0001
,
0100
0001
1000
0010
1000
0100
0010
0001
,
1000
0010
1000
0000
0400
0310
0004
0103
0010
0000
1000
0000
0100
0000
1000
0000
,
0001
0100
0001
0010
0100
1000
0001
0100
,
0001
0000
0001
0000
0040
0031
0400
0310
1000
0000
0001
0000
1000
0010
1000
0001
,
1000
0100
0010
0001
0010
0100
1000
0001
,
0100
0010
1000
0000
0004
1003
0040
0130
0001
0000
1000
0000
0001
0000
0100
0000
,
0010
0000
1000
0000
0001
0000
0010
0000
0001
0000
1000
0010
0100
0000
0001
0010
,
0100
1000
0001
0000
0400
0000
0340
0030
1001
0000
1000
0000
0100
0000
0010
0001
,
0010
0100
1000
0010
1000
0100
0010
0001
,
1000
0010
0100
0000
0040
1030
0400
0310
0001
0000
1000
0000
0010
0000
1000
0000
,
0001
0100
0001
0010
0001
1000
0010
0100
,
0001
0000
0001
0000
0040
0031
0400
0301
1000
0000
0001
0000
0010
0000
0100
1000
,
0001
0100
0001
0010
0100
1000
0100
0010
,
0001
1000
0001
0000
0400
0301
0040
0031
1000
0000
0100
0000
0010
0000
0001
0000
,
1000
0000
0010
0000
1000
0000
0100
0000
1000
0000
0001
0100
0010
0000
1000
0001
,
1000
0001
0010
0000
0400
1300
0040
0130
0001
0000
0010
0000
0100
0000
1000
0001
,
0100
0001
1000
0010
1000
0100
0010
0001
,
1000
0010
1000
0000
0400
0310
0004
0103
0010
0000
1000
0000
0100
0000
1000
0000
,
0001
0100
0001
0010
0100
1000
0001
0100
,
0001
0000
0001
0000
0040
0031
0400
0310
1000
0000
0001
0000
1000
0010
1000
0001
,
1000
0100
0010
0001
0010
0100
1000
0001
,
0100
0010
1000
0000
0004
1003
0040
0130
0001
0000
1000
0000
0001
0000
0100
0000
,
0010
0000
1000
0000
0001
0000
0010
0000
0001
0000
1000
0010
0100
0000
0001
0010
,
0100
1000
0001
0000
0400
0000
0340
0030
1001
0000
0000
0000
0002
0000
0003
0000
,
0200
0300
0020
0030
2000
3000
0002
0003
,
0020
0030
0200
0300
2000
3000
0002
0003
,
0200
0300
0002
0003
2000
3000
0200
0300
,
2000
0000
0000
3000
0000
0000
0001
0000
0000
1000
0001
1000
0001
0000
0000
0000
0000
0000
0200
0000
0000
0300
0000
0000
,
0020
0030
2000
3000
0002
0003
0020
0030
,
0200
0300
2000
3000
0002
0003
2000
3000
,
0002
0003
0100
0002
0000
0010
0000
0010
,
0003
0000
0000
0000
0000
0000
0010
0000
0000
0000
0000
0000
0001
0000
0000
0000
0000
0000
1000
0000
0001
0000
1000
0000
0001
0000
0000
0000
0000
0000
1000
0000
0000
0000
0000
0000
0010
0000
0000
0000
0000
0000
0100
0000
0000
0001
0000
0000
,
0100
0010
1000
0001
0100
0001
1000
0100
,
0010
0001
0010
0000
0004
0000
1003
0000
0100
0000
1000
0000
0001
0000
1000
0000
,
0100
1000
0001
0100
0001
1000
0001
1000
,
0100
0000
1000
0000
0004
0000
1003
0000
1001
0000
0001
0000
0100
0000
0001
1000
,
0001
1000
0010
1000
0001
0100
0010
0100
,
0001
0010
0001
0000
4000
0000
3001
0000
0010
0000
0001
0000
0100
0000
0001
0000
,
0010
0001
1000
0100
0000
0100
0000
1000
,
0200
0000
0000
0000
1300
0000
0001
1000
0001
0100
0010
1000
0100
0010
0100
1000
,
0001
0100
0010
1000
0001
1000
0010
0100
0001
0010
0100
1000
0001
1000
0100
0010
,
0001
1000
0010
1000
0001
0010
0100
1000
0001
0100
0010
1000
0100
1000
0010
0100
,
0001
1000
0100
0010
0001
0010
0100
1000
0010
0100
0010
1000
0001
0010
0001
1000
,
0010
0100
0001
1000
0100
0010
0100
1000
0001
0100
0010
1000
0100
1000
0010
0100
,
0001
0010
0100
1000
0001
1000
0100
0010
0001
1000
0001
0100
0010
0100
0001
1000
,
0100
0010
0100
1000
0010
0100
0010
1000
0001
0010
0100
1000
0001
1000
0100
0010
,
0001
1000
0001
1000
0010
0100
0001
1000
0001
0000
1000
0001
1000
0000
0400
0000
,
0310
0001
1000
0000
2002
0000
3003
0000
1000
0010
0100
0001
0010
0100
0010
0001
,
1000
0010
0100
0001
1000
0001
0100
0010
1000
0100
0010
0001
1000
0001
0010
0100
,
1000
0001
0100
0001
1000
0100
0010
0001
1000
0010
0100
0001
0010
0001
0100
0010
,
1000
0001
0010
0100
1000
0100
0010
0001
0100
0010
0100
0001
1000
0100
1000
0001
,
0100
0010
1000
0001
0010
0100
0010
0001
1000
0010
0100
0001
0010
0001
0100
0010
,
1000
0100
0010
0001
1000
0001
0010
0100
1000
0001
1000
0010
0100
0010
1000
0001
,
0010
0100
0010
0001
0100
0010
0100
0001
1000
0100
0010
0001
1000
0001
0010
0100
,
1000
0001
1000
0001
0100
0010
1000
0001
1000
0000
0100
0010
0001
0000
1000
0001
,
0010
0100
1000
0000
0004
0000
4003
0000
3001
0100
0010
1000
0100
0010
0100
1000
,
0001
0100
0010
1000
0001
1000
0010
0100
0001
0010
0100
1000
0001
1000
0100
0010
,
0001
1000
0010
1000
0001
0010
0100
1000
0001
0100
0010
1000
0100
1000
0010
0100
,
0001
1000
0100
0010
0001
0010
0100
1000
0010
0100
0010
1000
0001
0010
0001
1000
,
0010
0100
0001
1000
0100
0010
0100
1000
0001
0100
0010
1000
0100
1000
0010
0100
,
0001
0010
0100
1000
0001
1000
0100
0010
0001
1000
0001
0100
0010
0100
0001
1000
,
0100
0010
0100
1000
0010
0100
0010
1000
0001
0010
0100
1000
0001
1000
0100
0010
,
0001
1000
0001
1000
0010
0100
0001
1000
0001
0000
0000
0000
0001
0000
0001
0000
,
0022
0000
0033
0000
2200
0000
3300
0000
1000
0001
1000
0001
0010
0100
0010
0001
,
1000
0010
0100
0001
1000
0001
0100
0010
1000
0100
0010
0001
1000
0001
0010
0100
,
1000
0001
0100
0001
1000
0100
0010
0001
1000
0010
0100
0001
0010
0001
0100
0010
,
1000
0001
0010
0100
1000
0100
0010
0001
0100
0010
0100
0001
1000
0100
1000
0001
,
0100
0010
1000
0001
0010
0100
0010
0001
1000
0010
0100
0001
0010
0001
0100
0010
,
1000
0100
0010
0001
1000
0001
0010
0100
1000
0001
1000
0010
0100
0010
1000
0001
,
0010
0100
0010
0001
0100
0010
0100
0001
1000
0100
0010
0001
1000
0001
0010
0100
,
1000
0001
1000
0001
0100
0010
1000
0001
1000
0000
0100
0010
0001
0000
1000
0001
,
0010
0100
1000
0000
0004
0000
4003
0000
3001
0000
0000
0000
0000
0000
0000
0000
;
