#TITLE:Brightone;
#SUBTITLE:;
#ARTIST:onoken;
#TITLETRANSLIT:;
#SUBTITLETRANSLIT:;
#ARTISTTRANSLIT:;
#CREDIT:;
#BANNER:brightone.png;
#BACKGROUND:brightone-bg.png;
#LYRICSPATH:;
#CDTITLE:renb.png;
#MUSIC:brightone.mp3;
#OFFSET:1.429;
#SAMPLESTART:51.900;
#SAMPLELENGTH:12.000;
#SELECTABLE:YES;
#BPMS:0.000=155.000,21.000=310.000,27.000=155.000;
#STOPS:;
#BGCHANGES:;
// cache tags:
#FIRSTBEAT:8.000;
#LASTBEAT:290.500;
#SONGFILENAME:Songs/Community Keyboard Megapack - Volume 2/(djRen) Brightone/brightone.sm;
#HASMUSIC:1;
#HASBANNER:1;
#MUSICLENGTH:111.838;
// end cache tags

//---------------dance-single - ----------------
#NOTES:
     dance-single:
     :
     Hard:
     9:
     0.593,0.617,0.188,0.259,0.429,414.000,21.000,29.000,0.000,0.000:  // measure 1
0000
0000
0000
0000
,  // measure 2
0000
0000
0000
0000
,  // measure 3
0001
0000
0100
0000
0010
0000
1000
0000
0001
0000
1000
0000
0010
0100
0010
0000
,  // measure 4
1000
0000
0001
0000
1000
0000
0010
0000
0100
0000
0001
0000
0100
0010
0100
0000
,  // measure 5
0001
0000
0100
0000
0010
0000
1000
0000
0010
0000
0100
0000
0001
1000
0002
0000
,  // measure 6
0000
0000
0000
0000
,  // measure 7
0000
0000
0000
0000
0000
0000
0000
0000
0000
0000
0000
0000
1003
0000
0000
0010
,  // measure 8
0000
0000
0100
0000
0000
0001
0000
0000
1000
0000
0000
0000
0100
0010
0000
0010
,  // measure 9
0000
0000
0220
0000
0000
0000
0000
0000
0330
0000
0000
0000
0001
0000
0000
0001
,  // measure 10
0000
0000
0100
0000
0000
0010
0000
0000
1000
0000
0000
0000
0022
0000
0000
0000
,  // measure 11
0030
0000
0000
0000
1003
0100
0000
0010
0000
0000
0000
0000
1000
0010
0000
0100
,  // measure 12
0000
0000
0001
0000
0000
0010
0000
0000
0110
0000
0000
0000
0001
0010
0000
0010
,  // measure 13
0100
0000
0100
1000
0000
1000
0001
1000
0001
0000
0000
0000
1000
0010
0000
0100
,  // measure 14
0000
0000
0001
0000
0000
0001
0000
0000
0200
0000
0000
0000
0000
0310
1000
0010
,  // measure 15
1000
0010
0000
1000
0000
1000
0001
0010
0000
0000
0000
0000
0000
0000
1000
0000
,  // measure 16
0100
0010
0000
0001
0000
1000
0000
0010
0100
0010
0100
0020
0000
0000
0000
0000
,  // measure 17
0000
0000
0000
0000
0000
0000
0000
0000
0000
0000
0000
0000
0000
0130
0001
1000
,  // measure 18
0001
0000
0000
0010
0000
0010
0000
0100
1000
0100
0000
0020
0000
0000
0000
0000
,  // measure 19
0000
0000
0000
0000
0000
0000
0000
0000
0000
0000
0030
0000
0000
0000
0001
1000
,  // measure 20
0001
1000
0000
0100
0000
0010
0000
0001
1000
0000
0010
0200
0000
0000
0000
0000
,  // measure 21
0000
0000
0000
0000
0000
0000
0000
0000
0000
0000
0000
0000
0000
0000
0301
1000
,  // measure 22
0001
0010
0000
0100
0000
0100
0000
1000
0001
1000
0000
2002
0000
0000
0000
0000
,  // measure 23
0000
0000
3003
1002
,  // measure 24
1000
0010
0100
0023
,  // measure 25
0100
0001
1000
0230
,  // measure 26
0001
1000
0010
2300
,  // measure 27
0001
0100
0010
3002
,  // measure 28
0100
0203
0010
0320
,  // measure 29
1000
2030
0100
3200
,  // measure 30
0010
0320
0001
0032
,  // measure 31
2003
0000
3020
0000
0230
0000
0301
0100
,  // measure 32
0010
1000
0001
0000
1000
0100
0010
0001
,  // measure 33
1000
0010
0100
0000
0001
0100
0010
0100
,  // measure 34
0001
1000
0010
0000
1000
0001
0010
0100
,  // measure 35
0010
0001
1000
0000
0010
0100
0010
1000
,  // measure 36
0001
0010
0011
0000
0001
1000
0010
0100
,  // measure 37
0001
1000
1100
0000
0100
0010
0001
0100
,  // measure 38
0010
1000
1010
0000
1000
0010
0100
0010
,  // measure 39
0100
0000
0010
0000
0100
0000
0010
0000
0100
0000
0010
0000
0110
0000
0000
0100
,  // measure 40
0000
0000
0100
0000
0000
0100
0000
0000
0100
0000
0100
0000
0001
0000
0000
0001
,  // measure 41
0000
0000
0001
0000
0000
0001
0000
0000
0001
0000
1000
0000
0010
0000
0000
0010
,  // measure 42
0000
0000
0010
0000
0000
0010
0000
0000
0010
0000
1000
0000
1000
0000
0000
1000
,  // measure 43
0000
0000
1000
0000
0010
0000
0100
0000
0001
0000
0100
0000
0010
0000
0000
1000
,  // measure 44
0000
0000
0100
0000
0000
1000
0000
0000
0001
0000
0100
0000
0001
0000
0000
1000
,  // measure 45
0000
0000
0001
0000
0000
0010
0000
0000
0001
0000
1000
0000
0100
0000
0000
0010
,  // measure 46
0000
0000
0001
0000
0000
0010
0000
0000
0100
0000
0100
0000
1000
0000
0000
0010
,  // measure 47
0000
0000
1000
0000
0001
0000
0010
0000
0100
0000
0010
0000
0011
0000
0000
0010
,  // measure 48
0000
0000
0100
0000
0000
1100
0000
0000
1000
0000
0001
0000
0110
0000
0000
1000
,  // measure 49
0000
0000
0010
0000
0000
0100
0000
0000
0001
0000
1000
0000
1010
0000
0000
0001
,  // measure 50
0000
0000
0010
0000
0000
0100
0000
0000
0010
0000
0001
0000
0011
0000
0000
0001
,  // measure 51
0000
0000
0100
0000
0010
0000
1000
0000
0001
0000
0010
0000
1100
0000
0000
0010
,  // measure 52
0000
0000
0011
0000
0000
0001
0000
0000
1000
0000
0010
0000
0101
0000
0000
0010
,  // measure 53
0000
0000
1100
0000
0000
1000
0000
0000
0010
0000
0100
0000
0001
0000
0000
1000
,  // measure 54
0000
0000
0100
0000
0000
0010
0000
0000
0001
0000
1000
0000
0010
0000
0000
0001
,  // measure 55
0000
0010
0100
1000
0100
0010
0011
0010
,  // measure 56
0001
0010
0001
0010
0001
0010
0001
0100
,  // measure 57
0010
0100
0010
1000
0100
0010
0100
1000
,  // measure 58
0100
1000
0100
1000
0100
1000
0010
1000
,  // measure 59
0010
1000
0010
0100
0010
0100
0002
0000
,  // measure 60
1000
0000
1003
0010
0100
0010
2000
0000
,  // measure 61
0001
0000
3001
0010
0100
1000
0100
0000
,  // measure 62
0010
0001
1000
0000
0010
1000
0001
0010
,  // measure 63
0100
0000
1000
0000
0010
0000
0100
0000
0001
0000
0010
0000
0110
0000
0000
0100
,  // measure 64
0000
0000
0100
0000
0000
0100
0000
0000
0100
0000
0100
0000
1000
0000
0000
1000
,  // measure 65
0000
0000
1000
0000
0000
1000
0000
0000
1000
0000
0001
0000
0010
0000
0000
0010
,  // measure 66
0000
0000
0010
0000
0000
0010
0000
0000
0010
0000
0001
0000
0001
0000
0000
0001
,  // measure 67
0000
0000
0001
0000
0010
0000
0100
0000
1000
0000
0100
0000
0010
0000
0000
0001
,  // measure 68
0000
0000
0100
0000
0000
0001
0000
0000
1000
0000
0100
0000
1000
0000
0000
0001
,  // measure 69
0000
0000
1000
0000
0000
0010
0000
0000
1000
0000
0001
0000
0100
0000
0000
0010
,  // measure 70
0000
0000
1000
0000
0000
0010
0000
0000
0100
0000
0100
0000
0001
0000
0000
0010
,  // measure 71
0000
0001
1000
0010
0100
0010
2002
0000
,  // measure 72
0000
0000
0000
0000
,  // measure 73
0000
0000
0000
0000
0000
3003
0000
0000
;

//---------------dance-single - ----------------
#NOTES:
     dance-single:
     :
     Challenge:
     10:
     0.916,1.000,0.376,0.206,1.000,652.000,42.000,23.000,0.000,0.000:  // measure 1
0000
0000
0000
0000
,  // measure 2
0000
0000
0000
0000
,  // measure 3
0001
0100
0001
0100
0000
0001
0100
0001
1000
0100
1000
0100
1000
0010
0100
0000
,  // measure 4
0100
0001
0100
0001
0000
0010
0100
0010
0100
0000
1000
0001
1000
0000
1001
0000
,  // measure 5
0010
1000
0010
1000
0000
0001
0010
0100
1000
0100
0010
0001
1000
0010
2000
0000
,  // measure 6
0000
0000
0000
0000
,  // measure 7
0000
0000
0000
0000
0000
0000
0000
0000
0000
0000
0000
0000
3001
0100
0000
0001
,  // measure 8
0000
0000
0010
0000
0000
0100
0000
0000
1000
0000
0000
0000
1000
0010
0000
0010
,  // measure 9
0000
0000
2020
0000
0000
0000
0000
0030
0000
0000
0000
0000
3001
0010
0000
0001
,  // measure 10
0000
0000
0100
0000
0000
0010
0000
0000
1000
0000
0000
0000
0022
0000
0000
0000
,  // measure 11
0030
0000
0000
0000
1003
0100
0000
2200
0000
0300
0000
0000
3001
0010
0000
0100
,  // measure 12
0000
0000
1000
0000
0000
0010
0000
0000
0110
0000
0000
0000
0100
0001
0000
0001
,  // measure 13
0010
0000
0010
1000
0000
0010
0001
0100
1000
0000
0000
0000
0100
0010
0000
0100
,  // measure 14
0010
0000
1000
0000
0000
0001
0000
0000
1001
0000
0000
0000
0000
0001
1000
0001
,  // measure 15
1000
0100
0000
1000
0000
0001
0100
0010
0000
0000
0000
0000
0000
0000
0001
0010
,  // measure 16
0100
1000
0000
0100
0000
1000
0010
0100
0001
0010
0100
0010
0001
0000
0001
0010
,  // measure 17
0100
0000
0000
0000
0001
0000
0000
0000
0001
0000
0010
0000
0100
0000
0000
0000
0000
0000
0000
0000
0000
0000
0000
0000
0000
0000
0000
0001
1000
0000
0010
0000
,  // measure 18
0100
0001
0000
1001
0000
1001
0000
0100
0001
0100
0000
0020
0000
0000
0000
0000
,  // measure 19
0000
0000
0000
0000
0000
0000
0000
0000
0000
0000
0030
0000
0000
0000
0100
0010
,  // measure 20
1000
0001
0000
0100
0000
1000
0100
0001
1000
0100
0001
0100
0010
0000
0001
0100
,  // measure 21
1000
0000
0000
0000
0100
0000
0000
0000
0010
0000
1000
0000
0001
0000
0000
0000
0000
0000
0000
0000
0000
0000
0000
0000
0000
0000
0000
1000
0001
0000
0010
0000
,  // measure 22
0100
0010
0000
0110
0000
0110
0000
0001
1000
0001
0000
0020
0000
0031
0100
0010
,  // measure 23
1000
0100
0010
0001
0100
0010
1000
0100
0010
0001
1000
0001
0010
0000
0000
0001
,  // measure 24
0100
0000
0010
0000
1000
0000
0000
0001
0010
0000
0100
0000
1000
0000
0000
0100
,  // measure 25
0010
0000
0001
0000
1000
0000
1000
0001
1000
0000
0010
0000
0110
0000
0000
0100
,  // measure 26
0010
0000
1000
0000
1010
0000
0000
0001
1000
0000
0100
0000
0022
0000
0033
2020
,  // measure 27
0000
3030
2200
0000
3300
0202
0000
0303
0000
0000
0000
0000
1001
0000
0000
0001
,  // measure 28
0100
0000
0010
0000
1000
0000
0000
0010
1000
0000
0100
0000
0010
0000
0000
0001
,  // measure 29
1000
0000
0010
0000
0100
0000
0001
1000
0001
0000
0010
0000
1001
0000
0000
0100
,  // measure 30
0010
0000
1000
0000
0101
0000
0000
1000
0100
0000
0010
0000
0200
0000
0000
2000
,  // measure 31
0000
0300
0002
0000
3000
0020
0000
0003
0000
0030
0000
0000
1001
0000
0010
0000
,  // measure 32
0100
0001
1010
0000
0100
0010
1001
0100
,  // measure 33
0010
1000
0011
0000
0100
0010
1001
0100
,  // measure 34
0010
1000
0101
0000
0010
0100
1001
0010
,  // measure 35
0100
0001
1100
0000
0001
1000
0010
0100
,  // measure 36
0001
0010
1001
0100
1000
0001
0100
0010
,  // measure 37
1000
0000
0001
0000
0110
0000
1000
0000
0010
0000
0100
0000
0001
1000
0001
1000
,  // measure 38
0001
1000
0001
1000
0001
1000
0001
1000
0001
1000
0001
1000
0001
1000
0001
0010
,  // measure 39
0100
1000
0010
0100
0001
0010
0100
1000
0010
0100
0001
0010
1001
0000
0000
0010
,  // measure 40
0000
0000
0100
0000
0000
1000
0000
0000
0010
0000
0100
0000
1001
0000
0000
0100
,  // measure 41
0000
0000
0001
0000
0000
0010
0000
0000
0100
0000
1000
0000
0110
0000
0000
0100
,  // measure 42
0000
0000
0001
0000
0000
0010
0000
0000
1000
0000
0010
0000
0011
0000
0000
0100
,  // measure 43
0000
0000
0010
0000
0001
0000
0010
0000
0100
0000
1000
0000
1010
0000
0000
0010
,  // measure 44
0000
0000
0100
0000
0000
0001
0000
0000
0010
0000
0100
0000
1001
0000
0000
0100
,  // measure 45
0000
0000
1000
0000
0000
0010
0000
0000
0100
0000
0001
0000
0110
0000
0000
0100
,  // measure 46
0000
0000
1000
0000
0000
0010
0000
0000
0001
0000
0010
0000
1010
0000
0000
0100
,  // measure 47
0000
0000
0001
0000
0001
0010
0100
1000
0100
0010
0001
0000
1000
0001
1000
0001
,  // measure 48
1000
0000
0001
1000
0001
0000
0100
0001
1000
0001
0010
0000
0100
0010
0100
0000
,  // measure 49
0010
0100
0010
0000
0001
0000
1000
0010
0100
0001
1000
0000
0010
0100
0010
0100
,  // measure 50
0010
0000
0001
0100
0010
0000
1000
0100
0010
0001
0010
0000
0001
1000
0001
1000
,  // measure 51
0001
0000
1000
0100
1000
0001
1000
0010
1000
0001
1000
0100
1001
0010
0100
0010
,  // measure 52
0100
0000
0001
1000
0100
0000
1000
0010
0001
0010
1000
0000
0001
0100
0001
0000
,  // measure 53
1000
0010
1000
0000
0001
0000
1000
0100
0001
0100
1000
0000
0001
0010
0001
0010
,  // measure 54
0001
0000
1000
0100
1000
0000
1000
0010
0100
0001
0010
0000
0100
1000
0001
1000
,  // measure 55
0010
0000
1000
0010
0100
0001
0010
0100
1000
0010
0100
0001
0110
0000
1000
0000
,  // measure 56
0010
0100
0001
0010
0100
1000
0100
0010
,  // measure 57
0001
1000
0010
0100
0001
0010
0100
1000
,  // measure 58
0010
0000
0100
0000
0001
0000
0010
0000
0100
0000
1000
0000
0001
0100
0001
0000
,  // measure 59
1000
0000
0001
0000
1000
0010
1000
0000
0001
0010
0001
0000
1001
0000
0100
1000
,  // measure 60
0100
0000
1000
0000
0001
0000
0010
0100
0010
0000
1000
0000
0001
0000
0100
0001
,  // measure 61
0100
0000
0001
0000
1000
0001
1000
0000
0001
0000
0100
0000
0010
0000
0000
0000
,  // measure 62
0000
0000
1000
0001
1000
0000
0000
0000
0000
0000
1000
0010
1000
0000
0010
0100
,  // measure 63
0010
0000
0100
0001
0100
0010
1000
0001
0010
0100
1000
0001
0100
0001
0100
0001
,  // measure 64
0100
0000
0010
0100
1000
0000
0001
1000
0010
0100
0010
0000
1000
0001
1000
0000
,  // measure 65
0001
1000
0001
0000
1000
0010
0100
0001
0010
0100
1000
0001
0100
0001
1000
0001
,  // measure 66
1000
0000
0010
0100
0010
0000
1000
0001
1000
0001
1000
0000
0001
0100
0010
1000
,  // measure 67
0100
0010
0001
1000
0010
0100
0001
0010
0100
1000
0100
0010
1001
0100
0010
0100
,  // measure 68
0010
0000
0001
1000
0001
0000
1000
0001
0010
0001
1000
0000
0001
0100
1000
0000
,  // measure 69
1000
0100
0001
0010
1000
0000
0010
0100
0010
0001
1000
0000
0001
1000
0010
0100
,  // measure 70
0001
1000
0100
0010
0001
1000
0010
1000
0100
0010
0001
1000
0010
0100
0001
0010
,  // measure 71
0100
0010
0100
1000
0001
1000
0010
0100
0001
0010
0100
1000
0220
0000
0000
0000
,  // measure 72
0000
0000
0000
0000
,  // measure 73
0000
0000
0000
0000
0000
0330
0000
0000
;
