#TITLE:The Fountain;
#SUBTITLE:;
#ARTIST:Pendulum ft. Steve Wilson;
#TITLETRANSLIT:;
#SUBTITLETRANSLIT:;
#ARTISTTRANSLIT:;
#CREDIT:;
#BANNER:thefountainbn.png;
#BACKGROUND:thefountainbg.png;
#LYRICSPATH:;
#CDTITLE:;
#MUSIC:thefountain.ogg;
#OFFSET:1.388;
#SAMPLESTART:231.720;
#SAMPLELENGTH:22.070;
#SELECTABLE:YES;
#DISPLAYBPM:174.000;
#BPMS:0.000=174.000,612.000=87.000,644.000=174.000;
#STOPS:;
#BGCHANGES:;
// cache tags:
#FIRSTBEAT:4.000;
#LASTBEAT:829.000;
#SONGFILENAME:Songs/Pendulum/The Fountain/thefountain.sm;
#HASMUSIC:1;
#HASBANNER:1;
#MUSICLENGTH:298.000;
// end cache tags

//---------------dance-single - I. Pyles----------------
#NOTES:
     dance-single:
     I. Pyles:
     Beginner:
     1:
     0.025,0.034,0.000,0.000,0.000,53.000,0.000,0.000,0.000,0.000:
0000
0000
0000
0000
,
1000
0000
0000
0000
,
0000
0000
0000
0000
,
0000
0000
0000
0000
,
0000
0000
0000
0000
,
0001
0000
0000
0000
,
0000
0000
0000
0000
,
0000
0000
0000
0000
,
0000
0000
0000
0000
,
0100
0000
0000
0000
,
0000
0000
0000
0000
,
0000
0000
0000
0000
,
0000
0000
0000
0000
,
0010
0000
0000
0000
,
0000
0000
0000
0000
,
0000
0000
0000
0000
,
0000
0000
0000
0000
,
1000
0000
0000
0000
,
0000
0000
0000
0000
,
0000
0000
0000
0000
,
0000
0000
0000
0000
,
0010
0000
0000
0000
,
0000
0000
0000
0000
,
0000
0000
0000
0000
,
0000
0000
0000
0000
,
0010
0000
0000
0000
,
0000
0000
0000
0000
,
0000
0000
0000
0000
,
0000
0000
0000
0000
,
0010
0000
0000
0000
,
0000
0000
0000
0000
,
0000
0000
0000
0000
,
0000
0000
0000
0000
,
1000
0000
0000
0000
,
0000
0000
0000
0000
,
0000
0000
0000
0000
,
0000
0000
0000
0000
,
1000
0000
0000
0000
,
0000
0000
0000
0000
,
0000
0000
0000
0000
,
0000
0000
0000
0000
,
0100
0000
0000
0000
,
0000
0000
0000
0000
,
0000
0000
0000
0000
,
0000
0000
0000
0000
,
1000
0000
0000
0000
,
0000
0000
0000
0000
,
0000
0000
0000
0000
,
0000
0000
0000
0000
,
0010
0000
0000
0000
,
0000
0000
0000
0000
,
0000
0000
0000
0000
,
0000
0000
0000
0000
,
1000
0000
0000
0000
,
0000
0000
0000
0000
,
0000
0000
0000
0000
,
0000
0000
0000
0000
,
0100
0000
0000
0000
,
0000
0000
0000
0000
,
0000
0000
0000
0000
,
0000
0000
0000
0000
,
0100
0000
0000
0000
,
0000
0000
0000
0000
,
0000
0000
0000
0000
,
0000
0000
0000
0000
,
1000
0000
0000
0000
,
0000
0000
0000
0000
,
0000
0000
0000
0000
,
0000
0000
0000
0000
,
0010
0000
0000
0000
,
0000
0000
0000
0000
,
0000
0000
0000
0000
,
0000
0000
0000
0000
,
1000
0000
0000
0000
,
0000
0000
0000
0000
,
0000
0000
0000
0000
,
0000
0000
0000
0000
,
0001
0000
0000
0000
,
0000
0000
0000
0000
,
0000
0000
0000
0000
,
0000
0000
0000
0000
,
0100
0000
0000
0000
,
0000
0000
0000
0000
,
0000
0000
0000
0000
,
0000
0000
0000
0000
,
0010
0000
0000
0000
,
0000
0000
0000
0000
,
0000
0000
0000
0000
,
0000
0000
0000
0000
,
0100
0000
0000
0000
,
0000
0000
0000
0000
,
0000
0000
0000
0000
,
0000
0000
0000
0000
,
0100
0000
0000
0000
,
0000
0000
0000
0000
,
0000
0000
0000
0000
,
0000
0000
0000
0000
,
0100
0000
0000
0000
,
0000
0000
0000
0000
,
0000
0000
0000
0000
,
0000
0000
0000
0000
,
1000
0000
0000
0000
,
0000
0000
0000
0000
,
0000
0000
0000
0000
,
0000
0000
0000
0000
,
0010
0000
0000
0000
,
0000
0000
0000
0000
,
0000
0000
0000
0000
,
0000
0000
0000
0000
,
0001
0000
0000
0000
,
0000
0000
0000
0000
,
0000
0000
0000
0000
,
0000
0000
0000
0000
,
1000
0000
0000
0000
,
0000
0000
0000
0000
,
0000
0000
0000
0000
,
0000
0000
0000
0000
,
0010
0000
0000
0000
,
0000
0000
0000
0000
,
0000
0000
0000
0000
,
0000
0000
0000
0000
,
0001
0000
0000
0000
,
0000
0000
0000
0000
,
0000
0000
0000
0000
,
0000
0000
0000
0000
,
0001
0000
0000
0000
,
0000
0000
0000
0000
,
0000
0000
0000
0000
,
0000
0000
0000
0000
,
1000
0000
0000
0000
,
0000
0000
0000
0000
,
0000
0000
0000
0000
,
0000
0000
0000
0000
,
1000
0000
0000
0000
,
0000
0000
0000
0000
,
0000
0000
0000
0000
,
0000
0000
0000
0000
,
0100
0000
0000
0000
,
0000
0000
0000
0000
,
0000
0000
0000
0000
,
0000
0000
0000
0000
,
1000
0000
0000
0000
,
0000
0000
0000
0000
,
0000
0000
0000
0000
,
0000
0000
0000
0000
,
0100
0000
0000
0000
,
0000
0000
0000
0000
,
0000
0000
0000
0000
,
0000
0000
0000
0000
,
1000
0000
0000
0000
,
0000
0000
0000
0000
,
0000
0000
0000
0000
,
0000
0000
0000
0000
,
1000
0000
0000
0000
,
0000
0000
0000
0000
,
0010
0000
0000
0000
,
0000
0000
0000
0000
,
0100
0000
0000
0000
,
0000
0000
0000
0000
,
1000
0000
0000
0000
,
0000
0000
0000
0000
,
0100
0000
0000
0000
,
0000
0000
0000
0000
,
0000
0000
0000
0000
,
0000
0000
0000
0000
,
0100
0000
0000
0000
,
0000
0000
0000
0000
,
0000
0000
0000
0000
,
0000
0000
0000
0000
,
0010
0000
0000
0000
,
0000
0000
0000
0000
,
0000
0000
0000
0000
,
0000
0000
0000
0000
,
0100
0000
0000
0000
,
0000
0000
0000
0000
,
0000
0000
0000
0000
,
0000
0000
0000
0000
,
1000
0000
0000
0000
,
0000
0000
0000
0000
,
0000
0000
0000
0000
,
0000
0000
0000
0000
,
0100
0000
0000
0000
,
0000
0000
0000
0000
,
0000
0000
0000
0000
,
0000
0000
0000
0000
,
0010
0000
0000
0000
,
0000
0000
0000
0000
,
0000
0000
0000
0000
,
0000
0000
0000
0000
,
1000
0000
0000
0000
,
0000
0000
0000
0000
,
0000
0000
0000
0000
,
0000
0000
0000
0000
,
0010
0000
0000
0000
,
0000
0000
0000
0000
,
0000
0000
0000
0000
,
0000
0000
0000
0000
,
0010
0000
0000
0000
,
0000
0000
0000
0000
,
0000
0000
0000
0000
,
0000
0000
0000
0000
,
0100
0000
0000
0000
;

//---------------dance-single - I. Pyles----------------
#NOTES:
     dance-single:
     I. Pyles:
     Easy:
     9:
     0.556,0.835,0.057,0.362,0.087,1034.000,17.000,108.000,123.000,4.000:
0000
0000
0000
0000
,
1020
0000
0000
0000
,
0000
M000
000M
000M
0M00
000M
0000
0000
,
0000
0000
0000
0000
,
0000
M000
000M
000M
M000
023M
00M0
000M
,
1320
1000
1000
1000
,
1000
000M
1M00
0M00
100M
0M00
1000
0030
,
0001
0010
0001
0010
0001
0010
0001
0010
,
0001
0000
0010
0000
0001
0000
0010
0000
0001
0000
0100
0000
0010
1000
0001
0000
,
0200
0000
0000
0320
0000
0000
2030
0000
,
0000
0000
0000
0000
,
0000
0000
0000
0000
,
0000
0000
0000
0000
0000
0000
0000
3000
,
0002
0000
0000
0203
0000
0000
0320
0000
,
0000
0000
0000
0000
,
0230
0000
0000
0020
0030
0000
0302
0000
,
0000
0000
0000
0000
0000
0000
0000
0000
0003
0000
1000
0000
0001
0000
1000
0001
,
0020
0000
0000
0230
0000
0000
2300
0000
,
0000
0000
0000
0000
,
0000
0000
0000
0000
,
0000
0000
0000
0000
,
3002
0000
0000
0023
0000
0000
0230
0000
,
0000
0000
0000
0000
,
0320
0000
0000
0200
0300
0000
0032
0000
,
0000
0000
0000
0000
0000
0000
0000
0000
0003
0000
1000
0000
0001
0000
1000
0010
,
0100
0000
0010
1000
0001
1000
0000
0010
,
1000
0000
1000
0000
0001
0000
0000
0000
0000
0000
1000
0000
0001
0000
0010
0100
,
1000
0000
0001
0100
0010
0100
0000
0100
,
0001
0000
0001
0000
0010
0000
0000
0000
0000
0000
0100
0000
0010
0000
0001
0010
,
0100
0000
1000
0001
1000
0100
0000
0010
,
0001
0001
1000
0000
0000
0001
0100
0000
,
0010
0000
1000
0001
0100
0001
0000
0010
,
0100
0000
0100
0000
1000
0000
0000
0000
0000
0000
0100
0000
1000
0000
0001
0010
,
0100
0000
0010
0001
1000
0001
0000
0010
,
0001
0000
0001
0000
1000
0000
0000
0000
0000
0000
0001
0000
1000
0000
0010
0100
,
0001
0000
1000
0100
0010
0100
0000
0100
,
1000
0000
1000
0000
0010
0000
0000
0000
0000
0000
0100
0000
0010
0000
1000
0010
,
0100
0000
0001
1000
0001
0100
0000
0010
,
1000
1000
0001
0000
0000
1000
0100
0000
,
0010
0000
0001
1000
0100
1000
0010
0010
,
0100
0000
0100
0000
0001
0000
0000
0000
0000
0000
1000
0000
0001
1000
0001
1000
,
0001
0000
0100
0001
1000
0001
0000
0100
,
0001
0001
1000
0000
0000
0001
1000
0000
,
1001
0000
1000
0010
0100
0010
0000
0010
,
1000
0000
1000
0000
0100
0000
0000
0000
0000
0000
0010
0000
0100
0000
1000
0001
,
1000
0000
0001
1000
0001
0010
0000
0100
,
1000
1000
0001
0000
0000
1000
0010
0000
,
0100
0000
0001
1000
0010
1000
0000
0100
,
0010
0000
0010
0000
0001
0000
0000
0000
0000
0000
0010
0000
0001
0000
1000
0100
,
1000
0000
0100
1000
0001
1000
0000
0100
,
1000
1000
0001
0000
0000
1000
0001
0000
,
1001
0000
0001
0010
0100
0010
0000
0010
,
0001
0000
0001
0000
0100
0000
0000
0000
0000
0000
0010
0000
0100
0000
0001
1000
,
0001
0000
1000
0001
1000
0010
0000
0100
,
0001
0001
1000
0000
0000
0001
0010
0000
,
0100
0000
1000
0001
0010
0001
0100
0100
,
0010
0000
1000
0000
0001
0000
0000
0000
0000
0000
1000
0000
0010
1000
0010
1000
,
0001
0002
0000
0103
0100
0010
1000
0001
,
1000
2000
0000
3010
0010
0100
0001
1000
,
0001
0002
0000
0013
0010
0100
1000
0001
,
1000
2000
0000
3100
0100
0010
0001
1000
,
0001
0002
0000
0103
0100
0010
1000
0001
,
1000
2000
0000
3010
0010
0100
0001
1000
,
0001
0002
0000
0013
0010
0100
1000
0001
,
1000
2000
0000
3100
0010
0001
0100
0010
,
1000
2000
0000
3010
0010
0100
0001
1000
,
0001
0002
0000
0103
0100
0010
1000
0001
,
1000
2000
0000
3100
0100
0010
0001
1000
,
0001
0002
0000
0013
0010
0100
1000
0001
,
1000
2000
0000
3010
0010
0100
0001
1000
,
0001
0002
0000
0103
0100
0010
1000
0001
,
1000
2000
0000
3100
0100
0010
0001
1000
,
0001
0002
0000
0103
0010
1000
0100
0010
,
0200
0000
0000
0320
0000
0000
0032
0000
,
0000
0000
0000
0000
,
0000
0000
0000
0000
,
0000
0000
0000
0000
,
2003
0000
0000
3200
0000
0000
0320
0000
,
0000
0000
0000
0000
,
0230
0000
0000
0020
0030
0000
2300
0000
,
0000
0000
0000
0000
0000
0000
0000
0000
3000
0000
0001
0000
1000
0000
0001
1000
,
0020
0000
0000
0230
0000
0000
0302
0000
,
0000
0000
0000
0000
,
0000
0000
0000
0000
,
0000
0000
0000
0000
,
2003
0000
0000
3020
0000
0000
0230
0000
,
0000
0000
0000
0000
,
0320
0000
0000
0200
0300
0000
2030
0000
,
0000
0000
0000
0000
0000
0000
0000
0000
3000
0000
0001
0000
1000
0000
0001
0100
,
0010
0000
0100
0001
1000
0001
0000
0100
,
0001
0000
0001
0000
1000
0000
0000
0000
0000
0000
0001
0000
1000
0000
0100
0010
,
0001
0000
1000
0010
0100
0010
0000
0010
,
1000
0000
1000
0000
0100
0000
0000
0000
0000
0000
0010
0000
0100
0000
1000
0100
,
0010
0000
0001
1000
0001
0010
0000
0100
,
1000
1000
0001
0000
0000
1000
0010
0000
,
0100
0000
0001
1000
0010
1000
0000
0100
,
0010
0000
0010
0000
0001
0000
0000
0000
0000
0000
0010
0000
0001
0000
1000
0100
,
0010
0000
0100
1000
0001
1000
0000
0100
,
1000
0000
1000
0000
0001
0000
0000
0000
0000
0000
1000
0000
0001
0000
0100
0010
,
1000
0000
0001
0010
0100
0010
0000
0010
,
0001
0000
0001
0000
0100
0000
0000
0000
0000
0000
0010
0000
0100
0000
0001
0100
,
0010
0000
1000
0001
1000
0010
0000
0100
,
0001
0001
1000
0000
0000
0001
0010
0000
,
0100
0000
1000
0001
0010
0001
0100
0100
,
0010
0000
0010
0000
1000
0000
0000
0000
0000
0000
0001
0000
1000
0001
1000
0001
,
1000
0000
0010
1000
0001
1000
0000
0010
,
1000
1000
0001
0000
0000
1000
0001
0000
,
1001
0000
0001
0100
0010
0100
0000
0100
,
0001
0000
0001
0000
0010
0000
0000
0000
0000
0000
0100
0000
0010
0000
0001
1000
,
0001
0000
1000
0001
1000
0100
0000
0010
,
0001
0001
1000
0000
0000
0001
0100
0000
,
0010
0000
1000
0001
0100
0001
0000
0010
,
0100
0000
0100
0000
1000
0000
0000
0000
0000
0000
0100
0000
1000
0000
0001
0010
,
0001
0000
0010
0001
1000
0001
0000
0010
,
0001
0001
1000
0000
0000
0001
1000
0000
,
1001
0000
1000
0100
0010
0100
0000
0100
,
1000
0000
1000
0000
0010
0000
0000
0000
0000
0000
0100
0000
0010
0000
1000
0001
,
1000
0000
0001
1000
0001
0100
0000
0010
,
1000
1000
0001
0000
0000
1000
0100
0000
,
0010
0000
0001
1000
0100
1000
0010
0010
,
0100
0000
0001
0000
1000
0000
0000
0000
0000
0000
0001
0000
0100
0001
0100
0001
,
1000
2000
0000
3010
0010
0100
0001
1000
,
0001
0002
0000
0103
0100
0010
1000
0001
,
1000
2000
0000
3100
0100
0010
0001
1000
,
0001
0002
0000
0013
0010
0100
1000
0001
,
1000
2000
0000
3010
0010
0100
0001
1000
,
0001
0002
0000
0103
0100
0010
1000
0001
,
1000
2000
0000
3100
0100
0010
0001
1000
,
0001
0002
0000
0013
0100
1000
0010
0100
,
0001
0002
0000
0103
0100
0010
1000
0001
,
1000
2000
0000
3010
0010
0100
0001
1000
,
0001
0002
0000
0013
0010
0100
1000
0001
,
1000
2000
0000
3100
0100
0010
0001
1000
,
0001
0002
0000
0103
0100
0010
1000
0001
,
1000
2000
0000
3010
0010
0100
0001
1000
,
0001
0002
0000
0013
0010
0100
1000
0001
,
1000
2000
0000
3010
0100
0001
0010
0100
,
0020
0001
0001
0001
,
0001
M000
0M01
0M00
M001
0M00
0001
0000
,
0001
0001
0001
0001
,
0001
M000
0M01
0M00
M001
0230
M000
000M
,
1320
1000
1000
1000
,
1000
000M
1M00
0M00
100M
0M00
1000
0000
,
1000
1000
1000
1000
,
1000
0M00
100M
000M
1M00
000M
1M00
003M
,
1020
1000
1000
1000
,
1000
000M
1M00
0M00
100M
0M00
1000
0000
,
1000
1000
1000
1000
,
1000
000M
1M00
0M00
100M
0230
000M
M000
,
0321
0001
0001
0001
,
0001
M000
0M01
0M00
M001
0M00
0001
0000
,
1030
0010
1000
0010
1000
0010
1000
0010
,
1000
0000
0010
0000
1000
0000
0010
0000
1000
0000
0100
0000
0010
0001
1000
0000
,
M01M
0000
0000
0100
0000
0000
0001
0000
0000
2000
0000
0000
3000
0000
0010
0000
,
2002
0000
3003
0000
0000
0000
0010
1000
,
0202
0000
0000
0000
0303
0000
0000
0000
0000
0000
0000
0000
0100
0010
1000
0001
,
0020
0000
0000
0000
0030
0000
0200
0000
0000
0300
0000
0000
0000
0000
0000
0000
,
0001
0000
0000
0010
0000
0000
0001
0000
0000
2000
0000
0000
3000
0000
0010
0000
,
0202
0000
0303
0000
0000
0000
0001
1000
,
0220
0000
0000
0000
0330
0000
0000
0000
0000
0000
0000
0000
1000
0001
0010
0100
,
1000
0000
0010
0000
1000
0000
0010
0000
1000
0000
0010
0000
1000
0000
0010
0000
1000
0000
0010
0000
1000
0000
0010
0000
1000
0000
0100
0000
0010
0001
1000
0000
,
0001
0000
0100
0001
1000
0001
0000
0100
,
0001
0001
1000
0000
0000
0001
1000
0000
,
1001
0000
1000
0010
0100
0010
0000
0010
,
1000
0000
1000
0000
0100
0000
0000
0000
0000
0000
0010
0000
0100
0000
1000
0001
,
1000
0000
0001
1000
0001
0010
0000
0100
,
1000
1000
0001
0000
0000
1000
0010
0000
,
0100
0000
0001
1000
0010
1000
0000
0100
,
0010
0000
0010
0000
0001
0000
0000
0000
0000
0000
0010
0000
0001
0000
1000
0100
,
1000
0000
0100
1000
0001
1000
0000
0100
,
1000
1000
0001
0000
0000
1000
0001
0000
,
1001
0000
0001
0010
0100
0010
0000
0010
,
0001
0000
0001
0000
0100
0000
0000
0000
0000
0000
0010
0000
0100
0000
0001
1000
,
0001
0000
1000
0001
1000
0010
0000
0100
,
0001
0001
1000
0000
0000
0001
0010
0000
,
0100
0000
1000
0001
0010
0001
0100
0100
,
0010
0000
1000
0000
0001
0000
0000
0000
0000
0000
1000
0000
0010
1000
0010
1000
,
0001
0002
0000
0013
0010
0100
1000
0001
,
1000
2000
0000
3100
0100
0010
0001
1000
,
0001
0002
0000
0103
0100
0010
1000
0001
,
1000
2000
0000
3010
0010
0100
0001
1000
,
0001
0002
0000
0013
0010
0100
1000
0001
,
1000
2000
0000
3100
0100
0010
0001
1000
,
0001
0002
0000
0103
0100
0010
1000
0001
,
1000
2000
0000
3010
0100
0001
0010
0100
,
1000
2000
0000
3100
0100
0010
0001
1000
,
0001
0002
0000
0013
0010
0100
1000
0001
,
1000
2000
0000
3010
0010
0100
0001
1000
,
0001
0002
0000
0103
0100
0010
1000
0001
,
1000
2000
0000
3100
0100
0010
0001
1000
,
0001
0002
0000
0013
0010
0100
1000
0001
,
1000
2000
0000
3010
0010
0100
0001
1000
,
0001
0002
0000
0013
0100
1000
0010
0100
,
0020
0000
0000
0000
,
0000
000M
0M00
0M00
000M
M000
0000
0000
,
0000
0000
0000
0000
,
0000
0000
0000
0000
0000
0000
0000
0000
000M
0000
0000
0000
0000
0000
0000
0000
0M00
0000
0000
0000
0000
0000
0000
0000
0M00
0000
0000
0000
0000
0000
0000
0000
000M
0000
0000
0000
0000
0000
0000
0030
M210
0000
0000
0000
0000
0000
0000
0000
000M
0000
0000
0000
0000
0000
0000
0000
M000
0000
0000
0000
0000
0000
0000
0000
,
1320
0000
0000
0000
,
0000
000M
0M00
0M00
000M
M000
0000
0000
,
0000
0000
0000
0000
,
0000
000M
0M00
0M00
M000
000M
0M30
M000
,
MMMM
MMMM
MMMM
0MMM
0MMM
0MM0
0MM0
00M0
,
00M0
00M0
00M0
00M0
00M0
00M0
00M0
00M0
,
0000
00M0
0000
00M0
0000
00M0
0000
0000
,
00M0
0000
0000
00M0
0000
0000
0000
00M0
,
0000
0000
0000
00M0
0000
0000
0000
0000
,
00M0
0000
0000
0000
0000
00M0
0000
0000
,
0000
00M0
0000
0000
;

//---------------dance-single - I. Pyles----------------
#NOTES:
     dance-single:
     I. Pyles:
     Medium:
     10:
     0.663,0.939,0.225,0.483,0.196,1171.000,67.000,144.000,125.000,4.000:
0000
0000
0000
0000
,
1020
0000
0000
0000
,
0000
M000
000M
000M
0M00
000M
0000
0000
,
0000
0000
0000
0000
,
0000
M000
000M
000M
M000
023M
00M0
000M
,
1320
1000
1000
1000
,
1000
000M
1M00
0M00
100M
0M00
1000
0030
,
0001
0010
0001
0010
0001
0010
0001
0010
,
0001
0000
0010
0000
0001
0000
0010
0000
0001
0000
0100
0000
0010
1000
0001
0000
,
0200
0000
0000
0320
0000
0000
2030
0000
,
0000
0000
0000
0000
0000
0000
0000
0000
3000
0000
0001
0000
0100
0000
0010
1000
,
0001
0000
0000
0000
1001
0000
1000
0001
0010
0000
0100
0000
0000
0000
0010
0000
,
0001
0000
0001
0000
0100
0000
0000
0000
0000
0000
0001
0000
0010
0000
0100
0010
,
0002
0000
0000
0203
0000
0000
0320
0000
,
0000
0000
0000
0000
,
0230
0000
0000
0020
0030
0000
0302
0000
,
0000
0000
0000
0000
0000
0000
0000
0000
0003
0000
1000
0000
1001
0000
1000
0001
,
0020
0000
0000
0230
0000
0000
2300
0000
,
0000
0000
0000
0000
0000
0000
0000
0000
3000
0000
0001
0000
0010
0000
0100
1000
,
0001
0000
0000
0000
1001
0000
1000
0001
0100
0000
0010
0000
0000
0000
0100
0000
,
0001
0000
0001
0000
0010
0000
0000
0000
0000
0000
0001
0000
0100
0000
0010
0100
,
0002
0000
0000
0023
0000
0000
0230
0000
,
0000
0000
0000
0000
,
0320
0000
0000
0200
0300
0000
0032
0000
,
0000
0000
0000
0000
0000
0000
0000
0000
0003
0000
1000
0000
1001
0000
1000
0001
,
0100
0000
0000
0000
0010
0000
1000
0001
0010
0000
0100
0000
0000
0000
1100
0000
,
0100
0000
0000
1000
0000
0000
1001
0000
0000
0000
0000
0000
0000
0000
0000
0001
0000
0000
1001
0000
0000
1000
0100
1000
,
0001
0000
0000
0000
0010
0000
0001
1000
0010
0000
0100
0000
0000
0000
0101
0000
,
0100
0000
0000
0001
0000
0000
1001
0000
0000
0000
0000
0000
0000
0000
0000
0001
0000
0000
1001
0000
0000
0001
0100
0001
,
1000
0000
0000
0000
0100
0000
1000
0001
0100
0000
0010
0000
0000
0000
1010
0000
,
0010
1000
1001
0000
0000
1000
1001
0000
,
0001
0000
0000
0000
0100
0000
0001
1000
0100
0000
0010
0000
0000
0000
0011
0000
,
0010
0000
0000
0001
0000
0000
1001
0000
0000
0000
0000
0000
0000
0000
0000
1000
0000
0000
1001
0000
0000
0001
0100
0001
,
1000
0000
0000
0000
0001
0000
0100
0010
1000
0000
0001
0000
0000
0000
1001
0000
,
0001
0000
0000
0100
0000
0000
0101
0000
0000
0000
0000
0000
0000
0000
0000
0001
0000
0000
1001
0000
0000
1000
0100
1000
,
0001
0000
0000
0000
1000
0000
0100
0010
0001
0000
1000
0000
0000
0000
1001
0000
,
1000
0000
0000
0100
0000
0000
1100
0000
0000
0000
0000
0000
0000
0000
0000
1000
0000
0000
1001
0000
0000
0001
0100
0001
,
1000
0000
0000
0000
0001
0000
0010
0100
1000
0000
0001
0000
0000
0000
1001
0000
,
0001
0010
0011
0000
0000
0001
1001
0000
,
0001
0000
0000
0000
0010
0000
0001
1000
0001
0000
0010
0000
0011
0000
0011
0000
,
0001
0000
0001
0000
1001
0000
0000
0000
0000
0000
1000
0000
0001
0010
0100
1000
,
0020
0000
0130
0002
0000
0013
0200
1000
,
0301
0000
0001
0000
0010
0000
0000
0000
0000
0000
0001
0000
0010
0000
0100
0010
,
0001
0000
0000
0000
1000
0000
0010
0100
0010
0000
1000
0000
0000
0000
0001
0000
,
0010
0000
0010
0000
0100
0000
0000
0000
0000
0000
0010
0000
0100
0000
1000
0001
,
0020
0000
0130
2000
0000
3010
0200
0001
,
1300
0000
1000
0000
0010
0000
0000
0000
0000
0000
1000
0000
0010
0000
0100
0010
,
1000
0000
0000
0000
0001
0000
0010
0100
0010
0000
0001
0000
0000
0000
1000
0000
,
0010
0000
0010
0000
0100
0000
0000
0000
0000
0000
0010
0000
0100
0000
0001
1000
,
0200
0000
0310
0002
0000
0103
0020
1000
,
0031
0000
0001
0000
0100
0000
0000
0000
0000
0000
0001
0000
0100
0000
0010
0100
,
0001
0000
0000
0000
1000
0000
0100
0010
0100
0000
1000
0000
0000
0000
0001
0000
,
0100
0000
0100
0000
0010
0000
0000
0000
0000
0000
0100
0000
0010
0000
1000
0001
,
0200
0000
0310
2000
0000
3100
0020
0001
,
1030
0000
1000
0000
0100
0000
0000
0000
0000
0000
1000
0000
0100
0000
0010
0100
,
1000
0000
0000
0000
0001
0000
0100
0010
0100
0000
0001
0000
0010
0000
0010
0000
,
0100
0000
0100
0000
1000
0000
0000
0000
0000
0000
1000
0000
0001
0010
0100
1000
,
0001
0002
0000
0103
0100
0010
1000
0001
,
1000
2000
0000
3010
0010
0100
0001
1000
,
0001
0002
0000
0013
0010
0100
1000
0001
,
1000
2000
0000
3100
0100
0010
0001
1000
,
0001
0002
0000
0103
0100
0010
1000
0001
,
1000
2000
0000
3010
0010
0100
0001
1000
,
0001
0002
0000
0013
0010
0100
1000
0001
,
1000
2000
0000
3100
0010
0001
0100
0010
,
1000
2000
0000
3010
0010
0100
0001
1000
,
0001
0002
0000
0103
0100
0010
1000
0001
,
1000
2000
0000
3100
0100
0010
0001
1000
,
0001
0002
0000
0013
0010
0100
1000
0001
,
1000
2000
0000
3010
0010
0100
0001
1000
,
0001
0002
0000
0103
0100
0010
1000
0001
,
1000
2000
0000
3100
0100
0010
0001
1000
,
0001
0002
0000
0103
0010
1000
0100
0010
,
0200
0000
0000
0320
0000
0000
0032
0000
,
0000
0000
0000
0000
0000
0000
0000
0000
0003
0000
1000
0000
0100
0000
0010
0001
,
1000
0000
0000
0000
1001
0000
0001
1000
0010
0000
0100
0000
0000
0000
0010
0000
,
1000
0000
1000
0000
0100
0000
0000
0000
0000
0000
1000
0000
0010
0000
0100
0010
,
2000
0000
0000
3200
0000
0000
0320
0000
,
0000
0000
0000
0000
,
0230
0000
0000
0020
0030
0000
2300
0000
,
0000
0000
0000
0000
0000
0000
0000
0000
3000
0000
0001
0000
1001
0000
0001
1000
,
0020
0000
0000
0230
0000
0000
0302
0000
,
0000
0000
0000
0000
0000
0000
0000
0000
0003
0000
1000
0000
0010
0000
0100
0001
,
1000
0000
0000
0000
1001
0000
0001
1000
0100
0000
0010
0000
0000
0000
0100
0000
,
1000
0000
1000
0000
0010
0000
0000
0000
0000
0000
1000
0000
0100
0000
0010
0100
,
2000
0000
0000
3020
0000
0000
0230
0000
,
0000
0000
0000
0000
,
0320
0000
0000
0200
0300
0000
2030
0000
,
0000
0000
0000
0000
0000
0000
0000
0000
3000
0000
0001
0000
1001
0000
0001
1000
,
0010
0000
0000
0000
0100
0000
0001
1000
0100
0000
0010
0000
0000
0000
0011
0000
,
0010
0000
0000
0001
0000
0000
1001
0000
0000
0000
0000
0000
0000
0000
0000
1000
0000
0000
1001
0000
0000
0001
0100
0001
,
1000
0000
0000
0000
0100
0000
1000
0001
0100
0000
0010
0000
0000
0000
1010
0000
,
0010
0000
0000
1000
0000
0000
1001
0000
0000
0000
0000
0000
0000
0000
0000
1000
0000
0000
1001
0000
0000
1000
0100
1000
,
0001
0000
0000
0000
0010
0000
0001
1000
0010
0000
0100
0000
0000
0000
0101
0000
,
0100
0001
1001
0000
0000
0001
1001
0000
,
1000
0000
0000
0000
0010
0000
1000
0001
0010
0000
0100
0000
0000
0000
1100
0000
,
0100
0000
0000
1000
0000
0000
1001
0000
0000
0000
0000
0000
0000
0000
0000
0001
0000
0000
1001
0000
0000
1000
0100
1000
,
0001
0000
0000
0000
1000
0000
0010
0100
0001
0000
1000
0000
0000
0000
1001
0000
,
1000
0000
0000
0010
0000
0000
1010
0000
0000
0000
0000
0000
0000
0000
0000
1000
0000
0000
1001
0000
0000
0001
0100
0001
,
1000
0000
0000
0000
0001
0000
0010
0100
1000
0000
0001
0000
0000
0000
1001
0000
,
0001
0000
0000
0010
0000
0000
0011
0000
0000
0000
0000
0000
0000
0000
0000
0001
0000
0000
1001
0000
0000
1000
0100
1000
,
0001
0000
0000
0000
1000
0000
0100
0010
0001
0000
1000
0000
0000
0000
1001
0000
,
1000
0100
1100
0000
0000
1000
1001
0000
,
1000
0000
0000
0000
0100
0000
1000
0001
1000
0000
0100
0000
1100
0000
1100
0000
,
1000
0000
1000
0000
1001
0000
0000
0000
0000
0000
1000
0000
0001
0010
0100
1000
,
0020
0000
0130
0002
0000
0013
0200
1000
,
0301
0000
0001
0000
0010
0000
0000
0000
0000
0000
0001
0000
0010
0000
0100
0010
,
0001
0000
0000
0000
1000
0000
0010
0100
0010
0000
1000
0000
0000
0000
0001
0000
,
0010
0000
0010
0000
0100
0000
0000
0000
0000
0000
0010
0000
0100
0000
1000
0001
,
0020
0000
0130
2000
0000
3010
0200
0001
,
1300
0000
1000
0000
0010
0000
0000
0000
0000
0000
1000
0000
0010
0000
0100
0010
,
1000
0000
0000
0000
0001
0000
0010
0100
0010
0000
0001
0000
0000
0000
1000
0000
,
0010
0000
0010
0000
0100
0000
0000
0000
0000
0000
0010
0000
0100
0000
0001
1000
,
0200
0000
0310
0002
0000
0103
0020
1000
,
0031
0000
0001
0000
0100
0000
0000
0000
0000
0000
0001
0000
0100
0000
0010
0100
,
0001
0000
0000
0000
1000
0000
0100
0010
0100
0000
1000
0000
0000
0000
0001
0000
,
0100
0000
0100
0000
0010
0000
0000
0000
0000
0000
0100
0000
0010
0000
1000
0001
,
0200
0000
0310
2000
0000
3100
0020
0001
,
1030
0000
1000
0000
0100
0000
0000
0000
0000
0000
1000
0000
0100
0000
0010
0100
,
1000
0000
0000
0000
0001
0000
0100
0010
0100
0000
0001
0000
0010
0000
0010
0000
,
0100
0000
0100
0000
1000
0000
0000
0000
0000
0000
0001
0000
1000
0100
0010
0001
,
1000
2000
0000
3010
0010
0100
0001
1000
,
0001
0002
0000
0103
0100
0010
1000
0001
,
1000
2000
0000
3100
0100
0010
0001
1000
,
0001
0002
0000
0013
0010
0100
1000
0001
,
1000
2000
0000
3010
0010
0100
0001
1000
,
0001
0002
0000
0103
0100
0010
1000
0001
,
1000
2000
0000
3100
0100
0010
0001
1000
,
0001
0002
0000
0013
0100
1000
0010
0100
,
0001
0002
0000
0103
0100
0010
1000
0001
,
1000
2000
0000
3010
0010
0100
0001
1000
,
0001
0002
0000
0013
0010
0100
1000
0001
,
1000
2000
0000
3100
0100
0010
0001
1000
,
0001
0002
0000
0103
0100
0010
1000
0001
,
1000
2000
0000
3010
0010
0100
0001
1000
,
0001
0002
0000
0013
0010
0100
1000
0001
,
1000
2000
0000
3010
0100
0001
0010
0100
,
0020
0001
0001
0001
,
0001
M000
0M01
0M00
M001
0M00
0001
0000
,
0001
0001
0001
0001
,
0001
M000
0M01
0M00
M001
0230
M000
000M
,
1320
1000
1000
1000
,
1000
000M
1M00
0M00
100M
0M00
1000
0000
,
1000
1000
1000
1000
,
1000
0M00
100M
000M
1M00
000M
1M00
003M
,
1020
1000
1000
1000
,
1000
000M
1M00
0M00
100M
0M00
1000
0000
,
1000
1000
1000
1000
,
1000
000M
1M00
0M00
100M
0230
000M
M000
,
0321
0001
0001
0001
,
0001
M000
0M01
0M00
M001
0M00
0001
0000
,
1030
0010
1000
0010
1000
0010
1000
0010
,
1000
0000
0010
0000
1000
0000
0010
0000
1000
0000
0100
0000
0010
0001
1000
0000
,
M01M
0000
0000
0100
0000
0000
0001
0000
0000
2000
0000
0000
3000
0000
0010
0000
,
2002
0000
3003
0000
0000
0000
0010
1000
,
0202
0000
0000
0000
0303
0000
0000
0000
0000
0000
0000
0000
0100
0010
1000
0001
,
0020
0000
0000
0000
0000
0000
0000
0000
0000
0000
0000
0000
0030
0000
0000
0000
0000
0000
0200
0000
0000
0000
0000
0000
0000
0000
0000
0300
0000
0000
0000
0000
0000
0000
0000
0000
0000
0000
0000
0000
0000
0000
0000
0000
0000
1000
0100
1000
,
0001
0000
0000
0010
0000
0000
0001
0000
0000
2000
0000
0000
3000
0000
0010
0000
,
0202
0000
0303
0000
0000
0000
0001
1000
,
0220
0000
0000
0000
0330
0000
0000
0000
0000
0000
0000
0000
1000
0001
0010
0100
,
1000
0000
0010
0000
1000
0000
0010
0000
1000
0000
0010
0000
1000
0000
0010
0000
1000
0000
0010
0000
1000
0000
0010
0000
1000
0000
0100
0000
0010
0001
1000
0000
,
0MM2
0000
0103
0002
0000
0013
0200
1000
,
0301
0000
0001
0000
0010
0000
0000
0000
0000
0000
0001
0000
0010
0000
0100
0010
,
0001
0000
0000
0000
1000
0000
0010
0100
0010
0000
1000
0000
0000
0000
0001
0000
,
0010
0000
0010
0000
0100
0000
0000
0000
0000
0000
0010
0000
0100
0000
1000
0001
,
0020
0000
0130
2000
0000
3010
0200
0001
,
1300
0000
1000
0000
0010
0000
0000
0000
0000
0000
1000
0000
0010
0000
0100
0010
,
1000
0000
0000
0000
0001
0000
0010
0100
0010
0000
0001
0000
0000
0000
1000
0000
,
0010
0000
0010
0000
0100
0000
0000
0000
0000
0000
0010
0000
0100
0000
0001
1000
,
0200
0000
0310
0002
0000
0103
0020
1000
,
0031
0000
0001
0000
0100
0000
0000
0000
0000
0000
0001
0000
0100
0000
0010
0100
,
0001
0000
0000
0000
1000
0000
0100
0010
0100
0000
1000
0000
0000
0000
0001
0000
,
0100
0000
0100
0000
0010
0000
0000
0000
0000
0000
0100
0000
0010
0000
1000
0001
,
0200
0000
0310
2000
0000
3100
0020
0001
,
1030
0000
1000
0000
0100
0000
0000
0000
0000
0000
1000
0000
0100
0000
0010
0100
,
1000
0000
0000
0000
0001
0000
0100
0010
0100
0000
0001
0000
0010
0000
0010
0000
,
0100
0000
0100
0000
1000
0000
0000
0000
0000
0000
1000
0000
0001
0010
0100
1000
,
0001
0002
0000
0013
0010
0100
1000
0001
,
1000
2000
0000
3100
0100
0010
0001
1000
,
0001
0002
0000
0103
0100
0010
1000
0001
,
1000
2000
0000
3010
0010
0100
0001
1000
,
0001
0002
0000
0013
0010
0100
1000
0001
,
1000
2000
0000
3100
0100
0010
0001
1000
,
0001
0002
0000
0103
0100
0010
1000
0001
,
1000
2000
0000
3010
0100
0001
0010
0100
,
1000
2000
0000
3100
0100
0010
0001
1000
,
0001
0002
0000
0013
0010
0100
1000
0001
,
1000
2000
0000
3010
0010
0100
0001
1000
,
0001
0002
0000
0103
0100
0010
1000
0001
,
1000
2000
0000
3100
0100
0010
0001
1000
,
0001
0002
0000
0013
0010
0100
1000
0001
,
1000
2000
0000
3010
0010
0100
0001
1000
,
0001
0002
0000
0013
0100
1000
0010
0100
,
0020
0000
0000
0000
,
0000
000M
0M00
0M00
000M
M000
0000
0000
,
0000
0000
0000
0000
,
0000
0000
0000
0000
0000
0000
0000
0000
000M
0000
0000
0000
0000
0000
0000
0000
0M00
0000
0000
0000
0000
0000
0000
0000
0M00
0000
0000
0000
0000
0000
0000
0000
000M
0000
0000
0000
0000
0000
0000
0030
M210
0000
0000
0000
0000
0000
0000
0000
000M
0000
0000
0000
0000
0000
0000
0000
M000
0000
0000
0000
0000
0000
0000
0000
,
1320
0000
0000
0000
,
0000
000M
0M00
0M00
000M
M000
0000
0000
,
0000
0000
0000
0000
,
0000
000M
0M00
0M00
M000
000M
0M30
M000
,
MMMM
MMMM
MMMM
0MMM
0MMM
0MM0
0MM0
00M0
,
00M0
00M0
00M0
00M0
00M0
00M0
00M0
00M0
,
0000
00M0
0000
00M0
0000
00M0
0000
0000
,
00M0
0000
0000
00M0
0000
0000
0000
00M0
,
0000
0000
0000
00M0
0000
0000
0000
0000
,
00M0
0000
0000
0000
0000
00M0
0000
0000
,
0000
00M0
0000
0000
;

//---------------dance-single - I. Pyles----------------
#NOTES:
     dance-single:
     I. Pyles:
     Hard:
     13:
     0.848,1.000,0.225,0.322,0.841,1603.000,67.000,96.000,123.000,5.000:
0000
0000
0000
0000
,
1021
0000
0000
0000
,
0000
M000
000M
000M
0M00
000M
0000
0000
,
0000
0000
0000
0000
,
0000
M000
000M
000M
M000
023M
00M0
000M
,
1320
1000
1000
1000
,
1000
000M
1M00
0M00
100M
0M00
1000
0030
,
0001
0010
0001
0010
0001
0010
0001
0010
,
0001
0000
0010
0000
0001
0000
0010
0000
0001
0000
0100
0000
0010
1000
0001
0000
,
0200
0000
0000
0320
0000
0000
2030
0000
,
0000
0000
0000
0000
0000
0000
0000
0000
3000
0000
0001
0000
0100
0000
0010
1000
,
0001
0000
0000
0000
1001
0000
1000
0001
0010
0000
0100
0000
0000
0000
0010
0000
,
0001
0000
0001
0000
0100
0000
0000
0000
0000
0000
0001
0000
0010
0000
0100
0010
,
0002
0000
0000
0203
0000
0000
0320
0000
,
0000
0000
0000
0000
,
0230
0000
0000
0020
0030
0000
0302
0000
,
0000
0000
0000
0000
0000
0000
0000
0000
0003
0000
1000
0000
1001
0000
1000
0001
,
0020
0000
0000
0230
0000
0000
2300
0000
,
0000
0000
0000
0000
0000
0000
0000
0000
3000
0000
0001
0000
0010
0000
0100
1000
,
0001
0000
0000
0000
1001
0000
1000
0001
0100
0000
0010
0000
0000
0000
0100
0000
,
0001
0000
0001
0000
0010
0000
0000
0000
0000
0000
0001
0000
0100
0000
0010
0100
,
0002
0000
0000
0023
0000
0000
0230
0000
,
0000
0000
0000
0000
,
0320
0000
0000
0200
0300
0000
0032
0000
,
0000
0000
0000
0000
0000
0000
0000
0000
0003
0000
1000
0000
1001
0000
1000
0001
,
0100
0000
0000
0000
0010
0000
1000
0001
0010
0000
0100
0000
0000
0000
1100
0000
,
0100
0000
0000
1000
0000
0000
1001
0000
0000
0000
0000
0000
0000
0000
0000
0001
0000
0000
1001
0000
0000
1000
0100
1000
,
0001
0000
0000
0000
0010
0000
0001
1000
0010
0000
0100
0000
0000
0000
0101
0000
,
0100
0000
0000
0001
0000
0000
1001
0000
0000
0000
0000
0000
0000
0000
0000
0001
0000
0000
1001
0000
0000
0001
0100
0001
,
1000
0000
0000
0000
0100
0000
1000
0001
0100
0000
0010
0000
0000
0000
1010
0000
,
0010
1000
1001
0000
0000
1000
1001
0000
,
0001
0000
0000
0000
0100
0000
0001
1000
0100
0000
0010
0000
0000
0000
0011
0000
,
0010
0000
0000
0001
0000
0000
1001
0000
0000
0000
0000
0000
0000
0000
0000
1000
0000
0000
1001
0000
0000
0001
0100
0001
,
1000
0000
0000
0000
0001
0000
0100
0010
1000
0000
0001
0000
0000
0000
1001
0000
,
0001
0000
0000
0100
0000
0000
0101
0000
0000
0000
0000
0000
0000
0000
0000
0001
0000
0000
1001
0000
0000
1000
0100
1000
,
0001
0000
0000
0000
1000
0000
0100
0010
0001
0000
1000
0000
0000
0000
1001
0000
,
1000
0000
0000
0100
0000
0000
1100
0000
0000
0000
0000
0000
0000
0000
0000
1000
0000
0000
1001
0000
0000
0001
0100
0001
,
1000
0000
0000
0000
0001
0000
0010
0100
1000
0000
0001
0000
0000
0000
1001
0000
,
0001
0010
0011
0000
0000
0001
1001
0000
,
0001
0000
0000
0000
0010
0000
0001
1000
0001
0000
0010
0000
0011
0000
0011
0000
,
0001
0000
0001
0000
1001
0000
0000
0000
0000
0000
1000
0000
0001
0010
0100
1000
,
0020
0000
0130
0002
0000
0013
0200
1000
,
0301
0000
0001
0000
0010
0000
0000
0000
0000
0000
0001
0000
0010
0000
0100
0010
,
0001
0000
0000
0000
1000
0000
0010
0100
0010
0000
1000
0000
0000
0000
0001
0000
,
0010
0000
0010
0000
0100
0000
0000
0000
0000
0000
0010
0000
0100
0000
1000
0001
,
0020
0000
0130
2000
0000
3010
0200
0001
,
1300
0000
1000
0000
0010
0000
0000
0000
0000
0000
1000
0000
0010
0000
0100
0010
,
1000
0000
0000
0000
0001
0000
0010
0100
0010
0000
0001
0000
0000
0000
1000
0000
,
0010
0000
0010
0000
0100
0000
0000
0000
0000
0000
0010
0000
0100
0000
0001
1000
,
0200
0000
0310
0002
0000
0103
0020
1000
,
0031
0000
0001
0000
0100
0000
0000
0000
0000
0000
0001
0000
0100
0000
0010
0100
,
0001
0000
0000
0000
1000
0000
0100
0010
0100
0000
1000
0000
0000
0000
0001
0000
,
0100
0000
0100
0000
0010
0000
0000
0000
0000
0000
0100
0000
0010
0000
1000
0001
,
0200
0000
0310
2000
0000
3100
0020
0001
,
1030
0000
1000
0000
0100
0000
0000
0000
0000
0000
1000
0000
0100
0000
0010
0100
,
1000
0000
0000
0000
0001
0000
0100
0010
0100
0000
0001
0000
0010
0000
0010
0000
,
0100
0000
0100
0000
1000
0000
0000
0000
0000
0000
1000
0000
0001
0010
0100
1000
,
0001
0100
0001
0100
0010
1000
0010
1000
0100
0010
0001
0100
0010
1000
0100
0010
,
0001
0100
0001
0100
0010
1000
0010
1000
0100
1000
0001
0010
0001
0010
0100
1000
,
0001
0100
0001
0100
0010
1000
0010
1000
0100
1000
0001
0010
0001
0010
0100
1000
,
0001
0100
0001
0100
0010
1000
0010
1000
0100
1000
0001
0010
0001
0010
0100
1000
,
0001
0100
0001
0100
0010
1000
0010
1000
0100
0010
0001
0100
0010
1000
0100
0010
,
0001
0100
0001
0100
0010
1000
0010
1000
0100
1000
0001
0010
0001
0010
0100
1000
,
0001
0100
0001
0100
0010
1000
0010
1000
0100
1000
0001
0010
0001
0010
0100
1000
,
0001
0100
0001
0100
0010
1000
0010
1000
0100
1000
0010
1000
0001
1000
0100
1000
,
0001
0010
0001
0010
0100
1000
0100
1000
0010
0100
0001
0010
0100
1000
0010
0100
,
0001
0010
0001
0010
0100
1000
0100
1000
0010
1000
0001
0100
0001
0100
0010
1000
,
0001
0010
0001
0010
0100
1000
0100
1000
0010
1000
0001
0100
0001
0100
0010
1000
,
0001
0010
0001
0010
0100
1000
0100
1000
0010
1000
0001
0100
0001
0100
0010
1000
,
0001
0010
0001
0010
0100
1000
0100
1000
0010
0100
0001
0010
0100
1000
0010
0100
,
0001
0010
0001
0010
0100
1000
0100
1000
0010
1000
0001
0100
0001
0100
0010
1000
,
0001
0010
0001
0010
0100
1000
0100
1000
0010
1000
0001
0100
0001
0100
0010
1000
,
0001
0010
0001
0010
0100
1000
0100
1000
0010
1000
0100
1000
0001
1000
0010
1000
,
0200
0000
0000
0320
0000
0000
0032
0000
,
0000
0000
0000
0000
0000
0000
0000
0000
0003
0000
1000
0000
0100
0000
0010
0001
,
1000
0000
0000
0000
1001
0000
0001
1000
0010
0000
0100
0000
0000
0000
0010
0000
,
1000
0000
1000
0000
0100
0000
0000
0000
0000
0000
1000
0000
0010
0000
0100
0010
,
2000
0000
0000
3200
0000
0000
0320
0000
,
0000
0000
0000
0000
,
0230
0000
0000
0020
0030
0000
2300
0000
,
0000
0000
0000
0000
0000
0000
0000
0000
3000
0000
0001
0000
1001
0000
0001
1000
,
0020
0000
0000
0230
0000
0000
0302
0000
,
0000
0000
0000
0000
0000
0000
0000
0000
0003
0000
1000
0000
0010
0000
0100
0001
,
1000
0000
0000
0000
1001
0000
0001
1000
0100
0000
0010
0000
0000
0000
0100
0000
,
1000
0000
1000
0000
0010
0000
0000
0000
0000
0000
1000
0000
0100
0000
0010
0100
,
2000
0000
0000
3020
0000
0000
0230
0000
,
0000
0000
0000
0000
,
0320
0000
0000
0200
0300
0000
2030
0000
,
0000
0000
0000
0000
0000
0000
0000
0000
3000
0000
0001
0000
1001
0000
0001
1000
,
0010
0000
0000
0000
0100
0000
0001
1000
0100
0000
0010
0000
0000
0000
0011
0000
,
0010
0000
0000
0001
0000
0000
1001
0000
0000
0000
0000
0000
0000
0000
0000
1000
0000
0000
1001
0000
0000
0001
0100
0001
,
1000
0000
0000
0000
0100
0000
1000
0001
0100
0000
0010
0000
0000
0000
1010
0000
,
0010
0000
0000
1000
0000
0000
1001
0000
0000
0000
0000
0000
0000
0000
0000
1000
0000
0000
1001
0000
0000
1000
0100
1000
,
0001
0000
0000
0000
0010
0000
0001
1000
0010
0000
0100
0000
0000
0000
0101
0000
,
0100
0001
1001
0000
0000
0001
1001
0000
,
1000
0000
0000
0000
0010
0000
1000
0001
0010
0000
0100
0000
0000
0000
1100
0000
,
0100
0000
0000
1000
0000
0000
1001
0000
0000
0000
0000
0000
0000
0000
0000
0001
0000
0000
1001
0000
0000
1000
0100
1000
,
0001
0000
0000
0000
1000
0000
0010
0100
0001
0000
1000
0000
0000
0000
1001
0000
,
1000
0000
0000
0010
0000
0000
1010
0000
0000
0000
0000
0000
0000
0000
0000
1000
0000
0000
1001
0000
0000
0001
0100
0001
,
1000
0000
0000
0000
0001
0000
0010
0100
1000
0000
0001
0000
0000
0000
1001
0000
,
0001
0000
0000
0010
0000
0000
0011
0000
0000
0000
0000
0000
0000
0000
0000
0001
0000
0000
1001
0000
0000
1000
0100
1000
,
0001
0000
0000
0000
1000
0000
0100
0010
0001
0000
1000
0000
0000
0000
1001
0000
,
1000
0100
1100
0000
0000
1000
1001
0000
,
1000
0000
0000
0000
0100
0000
1000
0001
1000
0000
0100
0000
1100
0000
1100
0000
,
1000
0000
1000
0000
1001
0000
0000
0000
0000
0000
1000
0000
0001
0010
0100
1000
,
0020
0000
0130
0002
0000
0013
0200
1000
,
0301
0000
0001
0000
0010
0000
0000
0000
0000
0000
0001
0000
0010
0000
0100
0010
,
0001
0000
0000
0000
1000
0000
0010
0100
0010
0000
1000
0000
0000
0000
0001
0000
,
0010
0000
0010
0000
0100
0000
0000
0000
0000
0000
0010
0000
0001
0000
1000
0001
,
0020
0000
0130
2000
0000
3010
0200
0001
,
1300
0000
1000
0000
0010
0000
0000
0000
0000
0000
1000
0000
0010
0000
0100
0010
,
1000
0000
0000
0000
0001
0000
0010
0100
0010
0000
0001
0000
0000
0000
1000
0000
,
0010
0000
0010
0000
0100
0000
0000
0000
0000
0000
0010
0000
1000
0000
0001
1000
,
0200
0000
0310
0002
0000
0103
0020
1000
,
0031
0000
0001
0000
0100
0000
0000
0000
0000
0000
0001
0000
0100
0000
0010
0100
,
0001
0000
0000
0000
1000
0000
0100
0010
0100
0000
1000
0000
0000
0000
0001
0000
,
0100
0000
0100
0000
0010
0000
0000
0000
0000
0000
0100
0000
0001
0000
1000
0001
,
0200
0000
0310
2000
0000
3100
0020
0001
,
1030
0000
1000
0000
0100
0000
0000
0000
0000
0000
1000
0000
0100
0000
0010
0100
,
1000
0000
0000
0000
0001
0000
0100
0010
0100
0000
0001
0000
0010
0000
0010
0000
,
0100
0000
0100
0000
1000
0000
0000
0000
0000
0000
0001
0000
1000
0100
0010
0001
,
1000
0010
1000
0010
0100
0001
0100
0001
0010
0100
1000
0010
0100
0001
0010
0100
,
1000
0010
1000
0010
0100
0001
0100
0001
0010
0001
1000
0100
1000
0100
0010
0001
,
1000
0010
1000
0010
0100
0001
0100
0001
0010
0001
1000
0100
1000
0100
0010
0001
,
1000
0010
1000
0010
0100
0001
0100
0001
0010
0001
1000
0100
1000
0100
0010
0001
,
1000
0010
1000
0010
0100
0001
0100
0001
0010
0100
1000
0010
0100
0001
0010
0100
,
1000
0010
1000
0010
0100
0001
0100
0001
0010
0001
1000
0100
1000
0100
0010
0001
,
1000
0010
1000
0010
0100
0001
0100
0001
0010
0001
1000
0100
1000
0100
0010
0001
,
1000
0010
1000
0010
0100
0001
0100
0001
0010
0001
0100
0001
1000
0001
0010
0001
,
1000
0100
1000
0100
0010
0001
0010
0001
0100
0010
1000
0100
0010
0001
0100
0010
,
1000
0100
1000
0100
0010
0001
0010
0001
0100
0001
1000
0010
1000
0010
0100
0001
,
1000
0100
1000
0100
0010
0001
0010
0001
0100
0001
1000
0010
1000
0010
0100
0001
,
1000
0100
1000
0100
0010
0001
0010
0001
0100
0001
1000
0010
1000
0010
0100
0001
,
1000
0100
1000
0100
0010
0001
0010
0001
0100
0010
1000
0100
0010
0001
0100
0010
,
1000
0100
1000
0100
0010
0001
0010
0001
0100
0001
1000
0010
1000
0010
0100
0001
,
1000
0100
1000
0100
0010
0001
0010
0001
0100
0001
1000
0010
1000
0010
0100
0001
,
1000
0100
1000
0100
0010
0001
0010
0001
0100
0001
0010
0001
1000
0001
0100
0001
,
0020
0001
0001
0001
,
0001
M000
0M01
0M00
M001
0M00
0001
0000
,
0001
0001
0001
0001
,
0001
M000
0M01
0M00
M001
0230
M000
000M
,
1320
1000
1000
1000
,
1000
000M
1M00
0M00
100M
0M00
1000
0000
,
1000
1000
1000
1000
,
1000
0M00
100M
000M
1M00
000M
1M00
003M
,
1020
1000
1000
1000
,
1000
000M
1M00
0M00
100M
0M00
1000
0000
,
1000
1000
1000
1000
,
1000
000M
1M00
0M00
100M
0230
000M
M000
,
0321
0001
0001
0001
,
0001
M000
0M01
0M00
M001
0M00
0001
0000
,
1030
0010
1000
0010
1000
0010
1000
0010
,
1000
0000
0010
0000
1000
0000
0010
0000
1000
0000
0100
0000
0010
0001
1000
0000
,
M01M
0000
0000
0100
0000
0000
0001
0000
0000
2000
0000
0000
3000
0000
0010
0000
,
2002
0000
3003
0000
0000
0000
0010
1000
,
0202
0000
0000
0000
0303
0000
0000
0000
0000
0000
0000
0000
0100
0010
1000
0001
,
0020
0000
0000
0000
0000
0000
0000
0000
0000
0000
0000
0000
0030
0000
0000
0000
0000
0000
0200
0000
0000
0000
0000
0000
0000
0000
0000
0300
0000
0000
0000
0000
0000
0000
0000
0000
0000
0000
0000
0000
0000
0000
0000
0000
0000
1000
0100
1000
,
0001
0000
0000
0010
0000
0000
0001
0000
0000
2000
0000
0000
3000
0000
0010
0000
,
0202
0000
0303
0000
0000
0000
0001
1000
,
0220
0000
0000
0000
0330
0000
0000
0000
0000
0000
0000
0000
1000
0001
0010
0100
,
1000
0000
0010
0000
1000
0000
0010
0000
1000
0000
0010
0000
1000
0000
0010
0000
1000
0000
0010
0000
1000
0000
0010
0000
1000
0000
0100
0000
0010
0001
1000
0000
,
0002
0000
0103
0002
0000
0013
0200
1000
,
0301
0000
0001
0000
0010
0000
0000
0000
0000
0000
0001
0000
0010
0000
0100
0010
,
0001
0000
0000
0000
1000
0000
0010
0100
0010
0000
1000
0000
0000
0000
0001
0000
,
0010
0000
0010
0000
0100
0000
0000
0000
0000
0000
0010
0000
0100
0000
1000
0001
,
0020
0000
0130
2000
0000
3010
0200
0001
,
1300
0000
1000
0000
0010
0000
0000
0000
0000
0000
1000
0000
0010
0000
0100
0010
,
1000
0000
0000
0000
0001
0000
0010
0100
0010
0000
0001
0000
0000
0000
1000
0000
,
0010
0000
0010
0000
0100
0000
0000
0000
0000
0000
0010
0000
0100
0000
0001
1000
,
0200
0000
0310
0002
0000
0103
0020
1000
,
0031
0000
0001
0000
0100
0000
0000
0000
0000
0000
0001
0000
0100
0000
0010
0100
,
0001
0000
0000
0000
1000
0000
0100
0010
0100
0000
1000
0000
0000
0000
0001
0000
,
0100
0000
0100
0000
0010
0000
0000
0000
0000
0000
0100
0000
0010
0000
1000
0001
,
0200
0000
0310
2000
0000
3100
0020
0001
,
1030
0000
1000
0000
0100
0000
0000
0000
0000
0000
1000
0000
0100
0000
0010
0100
,
1000
0000
0000
0000
0001
0000
0100
0010
0100
0000
0001
0000
0010
0000
0010
0000
,
0100
0000
0100
0000
1000
0000
0000
0000
0000
0000
1000
0000
0001
0010
0100
1000
,
0001
0010
0001
0010
0100
1000
0100
1000
0010
0100
0001
0010
0100
1000
0010
0100
,
0001
0010
0001
0010
0100
1000
0100
1000
0010
1000
0001
0100
0001
0100
0010
1000
,
0001
0010
0001
0010
0100
1000
0100
1000
0010
1000
0001
0100
0001
0100
0010
1000
,
0001
0010
0001
0010
0100
1000
0100
1000
0010
1000
0001
0100
0001
0100
0010
1000
,
0001
0010
0001
0010
0100
1000
0100
1000
0010
0100
0001
0010
0100
1000
0010
0100
,
0001
0010
0001
0010
0100
1000
0100
1000
0010
1000
0001
0100
0001
0100
0010
1000
,
0001
0010
0001
0010
0100
1000
0100
1000
0010
1000
0001
0100
0001
0100
0010
1000
,
0001
0010
0001
0010
0100
1000
0100
1000
0010
1000
0100
1000
0001
1000
0010
1000
,
0001
0100
0001
0100
0010
1000
0010
1000
0100
0010
0001
0100
0010
1000
0100
0010
,
0001
0100
0001
0100
0010
1000
0010
1000
0100
1000
0001
0010
0001
0010
0100
1000
,
0001
0100
0001
0100
0010
1000
0010
1000
0100
1000
0001
0010
0001
0010
0100
1000
,
0001
0100
0001
0100
0010
1000
0010
1000
0100
1000
0001
0010
0001
0010
0100
1000
,
0001
0100
0001
0100
0010
1000
0010
1000
0100
0010
0001
0100
0010
1000
0100
0010
,
0001
0100
0001
0100
0010
1000
0010
1000
0100
1000
0001
0010
0001
0010
0100
1000
,
0001
0100
0001
0100
0010
1000
0010
1000
0100
1000
0001
0010
0001
0010
0100
1000
,
0001
0100
0001
0100
0010
1000
0010
1000
0100
1000
0010
1000
0001
1000
0100
1000
,
0020
0000
0000
0000
,
0000
000M
0M00
0M00
000M
M000
0000
0000
,
0000
0000
0000
0000
,
0000
0000
0000
0000
0000
0000
0000
0000
000M
0000
0000
0000
0000
0000
0000
0000
0M00
0000
0000
0000
0000
0000
0000
0000
0M00
0000
0000
0000
0000
0000
0000
0000
000M
0000
0000
0000
0000
0000
0000
0030
M210
0000
0000
0000
0000
0000
0000
0000
000M
0000
0000
0000
0000
0000
0000
0000
M000
0000
0000
0000
0000
0000
0000
0000
,
1321
0000
0000
0000
,
0000
000M
0M00
0M00
000M
M000
0000
0000
,
0000
0000
0000
0000
,
0000
000M
0M00
0M00
M000
000M
0M30
M000
,
MMMM
MMMM
MMMM
0MMM
0MMM
0MM0
0MM0
00M0
,
00M0
00M0
00M0
00M0
00M0
00M0
00M0
00M0
,
0000
00M0
0000
00M0
0000
00M0
0000
0000
,
00M0
0000
0000
00M0
0000
0000
0000
00M0
,
0000
0000
0000
00M0
0000
0000
0000
0000
,
00M0
0000
0000
0000
0000
00M0
0000
0000
,
0000
00M0
0000
0000
;

//---------------dance-single - I. Pyles----------------
#NOTES:
     dance-single:
     I. Pyles:
     Challenge:
     15:
     1.000,1.000,0.198,0.081,1.000,2429.000,59.000,24.000,125.000,5.000:

0000
0000
0000
0000
,
1021
0000
0000
0000
,
0000
M000
000M
000M
0M00
000M
0000
0000
,
0000
0000
0000
0000
,
0000
M000
000M
000M
M000
023M
00M0
000M
,
1320
1000
1000
1000
,
1000
000M
1M00
0M00
100M
0M00
1000
0030
,
0001
0010
0001
0010
0001
0010
0001
0010
,
0001
0000
0010
0000
0001
0000
0010
0000
0001
0000
0100
0000
0010
1000
0001
0000
,
0100
0010
0100
0010
0100
0010
1000
0010
1000
0010
1000
0010
0100
0001
0010
0100
,
0010
0001
0010
0001
1000
0001
1000
0001
1000
0001
0100
0001
0010
0100
0010
0001
,
1000
0010
1000
0010
0100
0001
1000
0001
1000
0001
0100
0001
0010
0100
1000
0100
,
0010
0001
0010
0001
1000
0001
1000
0001
1000
0001
0010
0001
0100
0010
0100
0001
,
0010
0100
0010
0100
0010
0100
1000
0100
1000
0100
1000
0100
0010
0001
0100
0010
,
0100
0001
0100
0001
1000
0001
1000
0001
1000
0001
0010
0001
0100
0010
0100
0001
,
1000
0100
1000
0100
0010
0001
1000
0001
1000
0001
0010
0001
0100
0010
1000
0010
,
0100
0001
0100
0001
1000
0001
1000
0001
1000
0001
0100
0001
0010
0100
0010
0001
,
0100
0010
0100
0010
0100
0010
1000
0010
1000
0010
1000
0010
0100
0001
0010
0100
,
0010
0001
0010
0001
1000
0001
1000
0001
1000
0001
0100
0001
0010
0100
0010
0001
,
1000
0010
1000
0010
0100
0001
1000
0001
1000
0001
0100
0001
0010
0100
1000
0100
,
0010
0001
0010
0001
1000
0001
1000
0001
1000
0001
0010
0001
0100
0010
0100
0001
,
0010
0100
0010
0100
0010
0100
1000
0100
1000
0100
1000
0100
0010
0001
0100
0010
,
0100
0001
0100
0001
1000
0001
1000
0001
1000
0001
0010
0001
0100
0010
0100
0001
,
1000
0100
1000
0100
0010
0001
1000
0001
1000
0001
0010
0001
0100
0010
0100
0010
,
1000
0001
0100
0001
1000
0001
1000
0001
1000
0001
0100
0001
0010
0100
1000
0001
,
0100
0000
0000
0000
0010
0000
1000
0001
0010
0000
0100
0000
0000
0000
1100
0000
,
0100
0000
0000
1000
0000
0000
1001
0000
0000
0000
0000
0000
0000
0000
0000
0001
0000
0000
1001
0000
0000
1000
0100
1000
,
0001
0000
0000
0000
0010
0000
0001
1000
0010
0000
0100
0000
0000
0000
0101
0000
,
0100
0000
0000
0001
0000
0000
1001
0000
0000
0000
0000
0000
0000
0000
0000
0001
0000
0000
1001
0000
0000
0001
0100
0001
,
1000
0000
0000
0000
0100
0000
1000
0001
0100
0000
0010
0000
0000
0000
1010
0000
,
0010
1000
1001
0000
0000
1000
1001
0000
,
0001
0000
0000
0000
0100
0000
0001
1000
0100
0000
0010
0000
0000
0000
0011
0000
,
0010
0000
0000
0001
0000
0000
1001
0000
0000
0000
0000
0000
0000
0000
0000
1000
0000
0000
1001
0000
0000
0001
0100
0001
,
1000
0000
0000
0000
0001
0000
0100
0010
1000
0000
0001
0000
0000
0000
1001
0000
,
0001
0000
0000
0100
0000
0000
0101
0000
0000
0000
0000
0000
0000
0000
0000
0001
0000
0000
1001
0000
0000
1000
0100
1000
,
0001
0000
0000
0000
1000
0000
0100
0010
0001
0000
1000
0000
0000
0000
1001
0000
,
1000
0000
0000
0100
0000
0000
1100
0000
0000
0000
0000
0000
0000
0000
0000
1000
0000
0000
1001
0000
0000
0001
0100
0001
,
1000
0000
0000
0000
0001
0000
0010
0100
1000
0000
0001
0000
0000
0000
1001
0000
,
0001
0010
0011
0000
0000
0001
1001
0000
,
0001
0000
0000
0000
0010
0000
0001
1000
0001
0000
0010
0000
0011
0000
0011
0000
,
0001
0000
0001
0000
1001
0000
0000
0000
0000
0000
1000
0000
0001
0010
0100
0010
,
0001
1000
0001
1000
0001
1000
0100
0010
0100
0010
0100
0010
0001
0100
0010
1000
,
0001
0100
0001
0100
0010
1000
0100
1000
0100
1000
0010
0100
0001
1000
0010
1000
,
0001
0010
0001
0010
0100
1000
0001
0010
0001
1000
0010
0100
0001
0010
0100
1000
,
0001
0010
0001
0010
0100
1000
0001
0100
0001
1000
0010
0100
0001
1000
0100
0010
,
0001
1000
0001
1000
0001
1000
0010
0100
0010
0100
0010
0100
0001
0010
0100
1000
,
0001
0010
0001
0010
0100
1000
0010
1000
0010
1000
0100
0010
0001
1000
0100
1000
,
0001
0100
0001
0100
0010
1000
0001
0100
0001
1000
0100
0010
0001
0100
0010
1000
,
0001
0100
0001
0100
0010
1000
0001
0010
0001
1000
0100
0010
0001
1000
0010
0100
,
0001
1000
0001
1000
0001
1000
0100
0010
0100
0010
0100
0010
0001
0100
0010
1000
,
0001
0100
0001
0100
0010
1000
0100
1000
0100
1000
0010
0100
0001
1000
0010
1000
,
0001
0010
0001
0010
0100
1000
0001
0010
0001
1000
0010
0100
0001
0010
0100
1000
,
0001
0010
0001
0010
0100
1000
0001
0100
0001
1000
0010
0100
0001
1000
0100
0010
,
0001
1000
0001
1000
0001
1000
0010
0100
0010
0100
0010
0100
0001
0010
0100
1000
,
0001
0010
0001
0010
0100
1000
0010
1000
0010
1000
0100
0010
0001
1000
0100
1000
,
0001
0100
0001
0100
0010
1000
0001
0100
0001
1000
0100
0010
0001
1000
0001
1000
,
0010
0100
0010
0100
0001
1000
0010
1000
0010
1000
0001
0100
0010
1000
0100
0010
,
0001
0100
0001
0100
0010
1000
0010
1000
0100
0010
0001
0100
0010
1000
0100
0010
,
0001
0100
0001
0100
0010
1000
0010
1000
0100
1000
0001
0010
0001
0010
0100
1000
,
0001
0100
0001
0100
0010
1000
0010
1000
0100
1000
0001
0010
0001
0010
0100
1000
,
0001
0100
0001
0100
0010
1000
0010
1000
0100
1000
0001
0010
0001
0010
0100
1000
,
0001
0100
0001
0100
0010
1000
0010
1000
0100
0010
0001
0100
0010
1000
0100
0010
,
0001
0100
0001
0100
0010
1000
0010
1000
0100
1000
0001
0010
0001
0010
0100
1000
,
0001
0100
0001
0100
0010
1000
0010
1000
0100
1000
0001
0010
0001
0010
0100
1000
,
0001
0100
0001
0100
0010
1000
0010
1000
0100
1000
0010
1000
0001
1000
0100
1000
,
0001
0010
0001
0010
0100
1000
0100
1000
0010
0100
0001
0010
0100
1000
0010
0100
,
0001
0010
0001
0010
0100
1000
0100
1000
0010
1000
0001
0100
0001
0100
0010
1000
,
0001
0010
0001
0010
0100
1000
0100
1000
0010
1000
0001
0100
0001
0100
0010
1000
,
0001
0010
0001
0010
0100
1000
0100
1000
0010
1000
0001
0100
0001
0100
0010
1000
,
0001
0010
0001
0010
0100
1000
0100
1000
0010
0100
0001
0010
0100
1000
0010
0100
,
0001
0010
0001
0010
0100
1000
0100
1000
0010
1000
0001
0100
0001
0100
0010
1000
,
0001
0010
0001
0010
0100
1000
0100
1000
0010
1000
0001
0100
0001
0100
0010
1000
,
0001
0010
0001
0010
0100
1000
0100
1000
0010
1000
0100
1000
0001
1000
0010
1000
,
0010
0100
0010
0100
0010
0100
0001
0100
0001
0100
0001
0100
0010
1000
0100
0010
,
0100
1000
0100
1000
0001
1000
0001
1000
0001
1000
0010
1000
0100
0010
0100
1000
,
0001
0100
0001
0100
0010
1000
0001
1000
0001
1000
0010
1000
0100
0010
0001
0010
,
0100
1000
0100
1000
0001
1000
0001
1000
0001
1000
0100
1000
0010
0100
0010
1000
,
0100
0010
0100
0010
0100
0010
0001
0010
0001
0010
0001
0010
0100
1000
0010
0100
,
0010
1000
0010
1000
0001
1000
0001
1000
0001
1000
0100
1000
0010
0100
0010
1000
,
0001
0010
0001
0010
0100
1000
0001
1000
0001
1000
0100
1000
0010
0100
0001
0100
,
0010
1000
0010
1000
0001
1000
0001
1000
0001
1000
0010
1000
0100
0010
0100
1000
,
0010
0100
0010
0100
0010
0100
0001
0100
0001
0100
0001
0100
0010
1000
0100
0010
,
0100
1000
0100
1000
0001
1000
0001
1000
0001
1000
0010
1000
0100
0010
0100
1000
,
0001
0100
0001
0100
0010
1000
0001
1000
0001
1000
0010
1000
0100
0010
0001
0010
,
0100
1000
0100
1000
0001
1000
0001
1000
0001
1000
0100
1000
0010
0100
0010
1000
,
0100
0010
0100
0010
0100
0010
0001
0010
0001
0010
0001
0010
0100
1000
0010
0100
,
0010
1000
0010
1000
0001
1000
0001
1000
0001
1000
0100
1000
0010
0100
0010
1000
,
0001
0010
0001
0010
0100
1000
0001
1000
0001
1000
0100
1000
0010
0100
0010
0100
,
0001
1000
0010
1000
0001
1000
0001
1000
0001
1000
0010
1000
0100
0010
0001
1000
,
0010
0000
0000
0000
0100
0000
0001
1000
0100
0000
0010
0000
0000
0000
0011
0000
,
0010
0000
0000
0001
0000
0000
1001
0000
0000
0000
0000
0000
0000
0000
0000
1000
0000
0000
1001
0000
0000
0001
0100
0001
,
1000
0000
0000
0000
0100
0000
1000
0001
0100
0000
0010
0000
0000
0000
1010
0000
,
0010
0000
0000
1000
0000
0000
1001
0000
0000
0000
0000
0000
0000
0000
0000
1000
0000
0000
1001
0000
0000
1000
0100
1000
,
0001
0000
0000
0000
0010
0000
0001
1000
0010
0000
0100
0000
0000
0000
0101
0000
,
0100
0001
1001
0000
0000
0001
1001
0000
,
1000
0000
0000
0000
0010
0000
1000
0001
0010
0000
0100
0000
0000
0000
1100
0000
,
0100
0000
0000
1000
0000
0000
1001
0000
0000
0000
0000
0000
0000
0000
0000
0001
0000
0000
1001
0000
0000
1000
0100
1000
,
0001
0000
0000
0000
1000
0000
0010
0100
0001
0000
1000
0000
0000
0000
1001
0000
,
1000
0000
0000
0010
0000
0000
1010
0000
0000
0000
0000
0000
0000
0000
0000
1000
0000
0000
1001
0000
0000
0001
0100
0001
,
1000
0000
0000
0000
0001
0000
0010
0100
1000
0000
0001
0000
0000
0000
1001
0000
,
0001
0000
0000
0010
0000
0000
0011
0000
0000
0000
0000
0000
0000
0000
0000
0001
0000
0000
1001
0000
0000
1000
0100
1000
,
0001
0000
0000
0000
1000
0000
0100
0010
0001
0000
1000
0000
0000
0000
1001
0000
,
1000
0100
1100
0000
0000
1000
1001
0000
,
1000
0000
0000
0000
0100
0000
1000
0001
1000
0000
0100
0000
1100
0000
1100
0000
,
1000
0000
1000
0000
1001
0000
0000
0000
0000
0000
0001
0000
1000
0100
0010
0100
,
1000
0001
1000
0001
1000
0001
0010
0100
0010
0100
0010
0100
1000
0010
0100
0001
,
1000
0010
1000
0010
0100
0001
0010
0001
0010
0001
0100
0010
1000
0001
0100
0001
,
1000
0100
1000
0100
0010
0001
1000
0100
1000
0001
0100
0010
1000
0100
0010
0001
,
1000
0100
1000
0100
0010
0001
1000
0010
1000
0001
0100
0010
1000
0001
0010
0100
,
1000
0001
1000
0001
1000
0001
0100
0010
0100
0010
0100
0010
1000
0100
0010
0001
,
1000
0100
1000
0100
0010
0001
0100
0001
0100
0001
0010
0100
1000
0001
0010
0001
,
1000
0010
1000
0010
0100
0001
1000
0010
1000
0001
0010
0100
1000
0010
0100
0001
,
1000
0010
1000
0010
0100
0001
1000
0100
1000
0001
0010
0100
1000
0001
0100
0010
,
1000
0001
1000
0001
1000
0001
0010
0100
0010
0100
0010
0100
1000
0010
0100
0001
,
1000
0010
1000
0010
0100
0001
0010
0001
0010
0001
0100
0010
1000
0001
0100
0001
,
1000
0100
1000
0100
0010
0001
1000
0100
1000
0001
0100
0010
1000
0100
0010
0001
,
1000
0100
1000
0100
0010
0001
1000
0010
1000
0001
0100
0010
1000
0001
0010
0100
,
1000
0001
1000
0001
1000
0001
0100
0010
0100
0010
0100
0010
1000
0100
0010
0001
,
1000
0100
1000
0100
0010
0001
0100
0001
0100
0001
0010
0100
1000
0001
0010
0001
,
1000
0010
1000
0010
0100
0001
1000
0010
1000
0001
0010
0100
1000
0001
1000
0001
,
0100
0010
0100
0010
1000
0001
0100
0001
0100
0001
1000
0010
0100
0001
0010
0100
,
1000
0010
1000
0010
0100
0001
0100
0001
0010
0100
1000
0010
0100
0001
0010
0100
,
1000
0010
1000
0010
0100
0001
0100
0001
0010
0001
1000
0100
1000
0100
0010
0001
,
1000
0010
1000
0010
0100
0001
0100
0001
0010
0001
1000
0100
1000
0100
0010
0001
,
1000
0010
1000
0010
0100
0001
0100
0001
0010
0001
1000
0100
1000
0100
0010
0001
,
1000
0010
1000
0010
0100
0001
0100
0001
0010
0100
1000
0010
0100
0001
0010
0100
,
1000
0010
1000
0010
0100
0001
0100
0001
0010
0001
1000
0100
1000
0100
0010
0001
,
1000
0010
1000
0010
0100
0001
0100
0001
0010
0001
1000
0100
1000
0100
0010
0001
,
1000
0010
1000
0010
0100
0001
0100
0001
0010
0001
0100
0001
1000
0001
0010
0001
,
1000
0100
1000
0100
0010
0001
0010
0001
0100
0010
1000
0100
0010
0001
0100
0010
,
1000
0100
1000
0100
0010
0001
0010
0001
0100
0001
1000
0010
1000
0010
0100
0001
,
1000
0100
1000
0100
0010
0001
0010
0001
0100
0001
1000
0010
1000
0010
0100
0001
,
1000
0100
1000
0100
0010
0001
0010
0001
0100
0001
1000
0010
1000
0010
0100
0001
,
1000
0100
1000
0100
0010
0001
0010
0001
0100
0010
1000
0100
0010
0001
0100
0010
,
1000
0100
1000
0100
0010
0001
0010
0001
0100
0001
1000
0010
1000
0010
0100
0001
,
1000
0100
1000
0100
0010
0001
0010
0001
0100
0001
1000
0010
1000
0010
0100
0001
,
1000
0100
1000
0100
0010
0001
0010
0001
0100
0001
0010
0001
1000
0001
0100
0001
,
0020
0001
0001
0001
,
0001
M000
0M01
0M00
M001
0M00
0001
0000
,
0001
0001
0001
0001
,
0001
M000
0M01
0M00
M001
0230
M000
000M
,
1320
1000
1000
1000
,
1000
000M
1M00
0M00
100M
0M00
1000
0000
,
1000
1000
1000
1000
,
1000
0M00
100M
000M
1M00
000M
1M00
003M
,
1020
1000
1000
1000
,
1000
000M
1M00
0M00
100M
0M00
1000
0000
,
1000
1000
1000
1000
,
1000
000M
1M00
0M00
100M
0230
000M
M000
,
0321
0001
0001
0001
,
0001
M000
0M01
0M00
M001
0M00
0001
0000
,
1030
0010
1000
0010
1000
0010
1000
0010
,
1000
0000
0010
0000
1000
0000
0010
0000
1000
0000
0100
0000
0010
0001
1000
0000
,
M01M
0000
0000
0100
0000
0000
0001
0000
0000
2000
0000
0000
3000
0000
0010
0000
,
2002
0000
3003
0000
0000
0000
0010
1000
,
0202
0000
0000
0000
0303
0000
0000
0000
0000
0000
0000
0000
0100
0010
1000
0001
,
0020
0000
0000
0000
0000
0000
0000
0000
0000
0000
0000
0000
0030
0000
0000
0000
0000
0000
0200
0000
0000
0000
0000
0000
0000
0000
0000
0300
0000
0000
0000
0000
0000
0000
0000
0000
0000
0000
0000
0000
0000
0000
0000
0000
0000
1000
0100
1000
,
0001
0000
0000
0010
0000
0000
0001
0000
0000
2000
0000
0000
3000
0000
0010
0000
,
0202
0000
0303
0000
0000
0000
0001
1000
,
0220
0000
0000
0000
0330
0000
0000
0000
0000
0000
0000
0000
1000
0001
0010
0100
,
1000
0000
0010
0000
1000
0000
0010
0000
1000
0000
0010
0000
1000
0000
0010
0000
1000
0000
0010
0000
1000
0000
0010
0000
1000
0000
0100
0000
0010
0001
1000
0000
,
0MM1
1000
0001
1000
0001
1000
0010
0100
0010
0100
0010
0100
0001
0010
0100
1000
,
0001
0010
0001
0010
0100
1000
0010
1000
0010
1000
0100
0010
0001
1000
0100
1000
,
0001
0100
0001
0100
0010
1000
0001
0100
0001
1000
0100
0010
0001
0100
0010
1000
,
0001
0100
0001
0100
0010
1000
0001
0010
0001
1000
0100
0010
0001
1000
0010
0100
,
0001
1000
0001
1000
0001
1000
0100
0010
0100
0010
0100
0010
0001
0100
0010
1000
,
0001
0100
0001
0100
0010
1000
0100
1000
0100
1000
0010
0100
0001
1000
0010
1000
,
0001
0010
0001
0010
0100
1000
0001
0010
0001
1000
0010
0100
0001
0010
0100
1000
,
0001
0010
0001
0010
0100
1000
0001
0100
0001
1000
0010
0100
0001
1000
0100
0010
,
0001
1000
0001
1000
0001
1000
0010
0100
0010
0100
0010
0100
0001
0010
0100
1000
,
0001
0010
0001
0010
0100
1000
0010
1000
0010
1000
0100
0010
0001
1000
0100
1000
,
0001
0100
0001
0100
0010
1000
0001
0100
0001
1000
0100
0010
0001
0100
0010
1000
,
0001
0100
0001
0100
0010
1000
0001
0010
0001
1000
0100
0010
0001
1000
0010
0100
,
0001
1000
0001
1000
0001
1000
0100
0010
0100
0010
0100
0010
0001
0100
0010
1000
,
0001
0100
0001
0100
0010
1000
0100
1000
0100
1000
0010
0100
0001
1000
0010
1000
,
0001
0010
0001
0010
0100
1000
0001
0010
0001
1000
0010
0100
0001
1000
0001
1000
,
0100
0010
0100
0010
0001
1000
0100
1000
0100
1000
0001
0010
0100
1000
0010
0100
,
0001
0010
0001
0010
0100
1000
0100
1000
0010
0100
0001
0010
0100
1000
0010
0100
,
0001
0010
0001
0010
0100
1000
0100
1000
0010
1000
0001
0100
0001
0100
0010
1000
,
0001
0010
0001
0010
0100
1000
0100
1000
0010
1000
0001
0100
0001
0100
0010
1000
,
0001
0010
0001
0010
0100
1000
0100
1000
0010
1000
0001
0100
0001
0100
0010
1000
,
0001
0010
0001
0010
0100
1000
0100
1000
0010
0100
0001
0010
0100
1000
0010
0100
,
0001
0010
0001
0010
0100
1000
0100
1000
0010
1000
0001
0100
0001
0100
0010
1000
,
0001
0010
0001
0010
0100
1000
0100
1000
0010
1000
0001
0100
0001
0100
0010
1000
,
0001
0010
0001
0010
0100
1000
0100
1000
0010
1000
0100
1000
0001
1000
0010
1000
,
0001
0100
0001
0100
0010
1000
0010
1000
0100
0010
0001
0100
0010
1000
0100
0010
,
0001
0100
0001
0100
0010
1000
0010
1000
0100
1000
0001
0010
0001
0010
0100
1000
,
0001
0100
0001
0100
0010
1000
0010
1000
0100
1000
0001
0010
0001
0010
0100
1000
,
0001
0100
0001
0100
0010
1000
0010
1000
0100
1000
0001
0010
0001
0010
0100
1000
,
0001
0100
0001
0100
0010
1000
0010
1000
0100
0010
0001
0100
0010
1000
0100
0010
,
0001
0100
0001
0100
0010
1000
0010
1000
0100
1000
0001
0010
0001
0010
0100
1000
,
0001
0100
0001
0100
0010
1000
0010
1000
0100
1000
0001
0010
0001
0010
0100
1000
,
0001
0100
0001
0100
0010
1000
0010
1000
0100
1000
0010
1000
0001
1000
0100
1000
,
0020
0000
0000
0000
,
0000
000M
0M00
0M00
000M
M000
0000
0000
,
0000
0000
0000
0000
,
0000
0000
0000
0000
0000
0000
0000
0000
000M
0000
0000
0000
0000
0000
0000
0000
0M00
0000
0000
0000
0000
0000
0000
0000
0M00
0000
0000
0000
0000
0000
0000
0000
000M
0000
0000
0000
0000
0000
0000
0030
M210
0000
0000
0000
0000
0000
0000
0000
000M
0000
0000
0000
0000
0000
0000
0000
M000
0000
0000
0000
0000
0000
0000
0000
,
1321
0000
0000
0000
,
0000
000M
0M00
0M00
000M
M000
0000
0000
,
0000
0000
0000
0000
,
0000
000M
0M00
0M00
M000
000M
0M30
M000
,
MMMM
MMMM
MMMM
0MMM
0MMM
0MM0
0MM0
00M0
,
00M0
00M0
00M0
00M0
00M0
00M0
00M0
00M0
,
0000
00M0
0000
00M0
0000
00M0
0000
0000
,
00M0
0000
0000
00M0
0000
0000
0000
00M0
,
0000
0000
0000
00M0
0000
0000
0000
0000
,
00M0
0000
0000
0000
0000
00M0
0000
0000
,
0000
00M0
0000
0000
;
