#TITLE:Big Bloop;
#SUBTITLE:;
#ARTIST:Aoreo;
#TITLETRANSLIT:;
#SUBTITLETRANSLIT:;
#ARTISTTRANSLIT:;
#CREDIT:;
#BANNER:../Jawn - ban.png;
#BACKGROUND:../Jawn - bg.png;
#LYRICSPATH:;
#CDTITLE:;
#MUSIC:Big Bloop.ogg;
#OFFSET:0.009;
#SAMPLESTART:30.482;
#SAMPLELENGTH:12.000;
#SELECTABLE:YES;
#BPMS:0.000=230.000;
#STOPS:;
#BGCHANGES:;
// cache tags:
#FIRSTBEAT:16.000;
#LASTBEAT:464.250;
#SONGFILENAME:Songs/Jimmy Jawns/Big Bloop - [Aoreo]/Big Bloop.sm;
#HASMUSIC:1;
#HASBANNER:1;
#MUSICLENGTH:123.119;
// end cache tags

//---------------dance-single - J. Nero (warmup)----------------
#NOTES:
     dance-single:
     J. Nero (warmup):
     Challenge:
     14:
     1.000,1.000,0.162,0.577,0.755,904.000,20.000,71.000,2.000,0.000:
0000
0000
0000
0000
,
0000
0000
0000
0000
,
0000
0000
0000
0000
,
0000
0000
0000
0000
,
2000
3000
1001
0000
0001
1000
0002
0023
,
0030
0100
0010
0000
0001
0000
1001
0000
,
2000
3000
1010
0000
0010
0100
0002
0023
,
0030
0100
0010
0000
0100
0000
1100
0000
,
2000
3000
1001
0000
0001
0100
0002
0023
,
0030
0100
0010
0000
0001
0000
1001
0000
,
2000
3000
1010
0000
0010
0100
0002
2003
,
3001
0100
0001
1000
0100
0010
0001
1000
0010
0100
0010
1000
0001
0010
0100
1000
,
0002
0003
1001
0000
1000
0010
0200
0320
,
0030
1000
0001
0000
1000
0000
M100
0100
,
0002
0003
0011
0000
0010
0100
2000
3002
,
1003
0010
1000
0100
0010
0001
1000
0001
0100
0010
0100
0001
0010
0100
1000
0001
,
2000
3000
0101
0000
0001
0010
0200
2300
,
3000
0000
0000
0000
0000
0000
0100
0000
0000
1000
0000
0000
0001
0000
0000
0000
0000
0000
0000
0000
0000
0000
0000
0000
2000
0000
0000
0000
3000
0000
0000
0000
0200
0000
0000
0000
0300
0000
0000
0000
0020
0000
0000
0000
0030
0000
0000
0000
,
0002
0000
0000
0000
0003
0000
2000
0000
0000
3000
0000
0000
0001
0000
0000
0000
0000
0000
0000
0000
0000
0000
0000
0000
1000
0000
0000
0000
0000
0000
0100
0000
0000
0000
0000
0000
0020
0000
0000
0030
0000
0000
0002
0000
0000
0003
0000
0000
,
1000
0001
0100
0001
1000
0100
0010
0001
1000
0001
0100
0010
0100
0001
1000
0001
,
0010
0100
1000
0010
0100
0010
1000
0100
,
0010
0001
0100
0001
0010
0001
0100
0010
,
1000
0100
1000
0010
0100
0001
0010
0100
,
1000
0010
1000
0100
0010
0001
0100
0001
,
0010
0100
0010
0001
0100
0010
1000
0100
,
0010
0001
0100
0001
1000
0010
0100
0010
,
1000
0100
0010
0001
0100
0001
0010
0100
,
1000
0010
0100
0010
1000
0100
0010
0001
,
1000
0100
0010
0001
0100
0001
1000
0010
1000
0000
0001
0000
0100
0000
0002
0000
,
0000
0000
2003
0000
,
3001
0100
0001
0010
0100
1000
0001
1000
0010
0000
1000
0000
0100
0000
0020
0000
,
0000
0000
0000
0000
0031
1000
0001
0010
,
0100
0000
1000
0001
0000
1000
0100
0010
,
0100
0000
1000
0001
0000
0100
0010
1000
,
0001
0100
0001
1000
0100
0010
0001
1000
0010
0100
0010
1000
0001
0010
0100
1000
,
0001
0000
0000
0100
0000
0000
0010
0000
0000
0100
0000
0000
0001
0000
0000
1000
0000
0000
0100
0000
0000
0010
0000
0000
0001
0000
0000
0000
0000
0000
0000
0000
1000
0000
0000
0000
0000
0000
0000
0000
0010
0000
0000
0000
0000
0000
0000
0000
,
1000
0100
0010
0100
1000
0000
0010
0000
,
0100
0000
0001
1000
0000
0000
1000
0000
,
0001
0100
0001
0010
0000
0100
1000
0000
,
0001
1000
0001
0000
1000
0000
0100
0000
0010
0000
0001
0000
0000
0000
0000
0000
,
1000
0100
1000
0010
0000
0000
0100
0000
,
0001
0000
1000
0100
0000
0000
0100
0000
,
0010
0001
1000
0001
0100
0010
0100
0001
,
1000
0001
1000
0100
0010
0001
1000
0010
0100
0010
1000
0001
0010
0100
1000
0001
,
1000
0010
0100
0010
0100
0010
1000
0001
,
0000
1000
0100
0010
0001
0100
0010
0100
,
0001
1000
0001
1000
0001
1000
0010
0100
,
0000
0001
0010
0100
1000
0010
0100
0010
,
1000
0100
0010
0001
0100
0001
0010
0001
,
1000
0100
1000
0010
0200
0000
0302
0003
,
1000
0100
1000
0010
0100
0001
0010
0001
,
1000
0100
1000
0001
0010
0100
1000
0001
1000
0010
0100
0010
1000
0001
1000
0100
,
0010
0001
0100
0001
1000
0010
0100
0010
1000
0001
0010
0100
1000
0010
1000
0001
,
0100
0001
0010
0100
1000
0001
1000
0010
0100
0010
1000
0100
0010
0001
0100
0001
,
2000
3000
0001
0100
0000
0001
0010
0100
,
1000
1000
0100
0000
1000
0100
0010
0002
,
0000
0000
0000
0003
0000
0000
1000
0000
0000
0000
0000
0000
0001
0000
0000
0000
0010
0000
0000
0000
0100
0000
0000
0000
,
1000
0000
0001
0100
0000
0001
1000
0100
,
0010
0000
0000
0000
0000
0000
0001
0000
0001
0000
0001
0000
,
1000
0000
1000
0001
0000
0100
0001
0000
,
2000
3000
1001
0000
0001
1000
0002
0023
,
0030
0100
0010
0000
0001
0000
1001
0000
,
2000
3000
1010
0000
0010
0100
0002
0023
,
0030
0100
0010
0000
0100
0000
1100
0000
,
2000
3000
1001
0000
0001
0100
0002
0023
,
0030
0100
0010
0000
0001
0000
1001
0000
,
2000
3000
1010
0000
0010
0100
0002
2003
,
3001
0100
0001
1000
0100
0010
0001
1000
0010
0100
0010
1000
0001
0010
0100
1000
,
0002
0003
1001
0000
1000
0010
0200
0320
,
0030
1000
0001
0000
1000
0000
M100
0100
,
0002
0003
0011
0000
0010
0100
2000
3002
,
1003
0010
1000
0100
0010
0001
1000
0001
0100
0010
0100
0001
0010
0100
1000
0001
,
2000
3000
0101
0000
0001
0010
0200
2300
,
3000
0000
0000
0000
0000
0000
0100
0000
0000
1000
0000
0000
0001
0000
0000
0000
0000
0000
0000
0000
0000
0000
0000
0000
2000
0000
0000
0000
3000
0000
0000
0000
0200
0000
0000
0000
0300
0000
0000
0000
0020
0000
0000
0000
0030
0000
0000
0000
,
0002
0000
0000
0000
0003
0000
2000
0000
0000
3000
0000
0000
0001
0000
0000
0000
0000
0000
0000
0000
0000
0000
0000
0000
1000
0000
0000
0000
0000
0000
0100
0000
0000
0000
0000
0000
0020
0000
0000
0030
0000
0000
0002
0000
0000
0003
0000
0000
,
1000
0001
0100
0001
1000
0100
0010
0001
1000
0001
0100
0010
0100
0001
1000
0001
,
0010
0100
1000
0010
0100
0010
1000
0100
,
0010
0001
0100
0001
0010
0001
0100
0010
,
1000
0100
1000
0010
0100
0001
0010
0100
,
1000
0010
1000
0100
0010
0001
0100
0001
,
0010
0100
0010
0001
0100
0010
1000
0100
,
0010
0001
0100
0001
1000
0010
0100
0010
,
1000
0100
0010
0001
0100
0001
0010
0100
,
1000
0010
0100
0010
1000
0100
0010
0001
,
1000
0100
0010
0001
0100
0001
1000
0010
1000
0000
0001
0000
0100
0000
0002
0000
,
0000
0000
2003
0000
,
3001
0100
0001
0010
0100
1000
0001
1000
0010
0000
1000
0000
0100
0000
0020
0000
,
0000
0000
0000
0000
0031
1000
0001
0010
,
0100
0000
1000
0001
0000
1000
0100
0010
,
0100
0000
1000
0001
0000
0100
0010
1000
,
0001
0100
0001
1000
0100
0010
0001
1000
0010
0100
0010
1000
0001
0010
0100
1000
,
0001
0000
0000
0100
0000
0000
0010
0000
0000
0100
0000
0000
0001
0000
0000
1000
0000
0000
0100
0000
0000
0010
0000
0000
0001
0000
0000
0000
0000
0000
0000
0000
1000
0000
0000
0000
0000
0000
0000
0000
0010
0000
0000
0000
0000
0000
0000
0000
,
1000
0100
0010
0100
1000
0000
0010
0000
,
0100
0000
0001
1000
0000
0000
1000
0000
,
0001
0100
0001
0010
0000
0100
1000
0000
,
0001
1000
0001
0000
1000
0000
0100
0000
0010
0000
0001
0000
0000
0000
0000
0000
,
1000
0100
1000
0010
0000
0000
0100
0000
,
0001
0000
1000
0100
0000
0000
0100
0000
,
0010
0001
1000
0001
0100
0010
0100
0001
,
1000
0001
1000
0100
0010
0001
1000
0010
0100
0010
1000
0001
0010
0100
1000
0001
,
1000
0010
0100
0010
0100
0010
1000
0001
,
0000
1000
0100
0010
0001
0100
0010
0100
,
0001
1000
0001
1000
0001
1000
0010
0100
,
0000
0001
0010
0100
1000
0010
0100
0010
,
1000
0100
0010
0001
0100
0001
0010
0001
,
1000
0100
1000
0010
0200
0000
0302
0003
,
1000
0100
1000
0010
0100
0001
0010
0001
,
1000
0100
1000
0001
0010
0100
1000
0001
1000
0010
0100
0010
1000
0001
1000
0100
,
0010
0001
0100
0001
1000
0010
0100
0010
1000
0001
0010
0100
1000
0010
1000
0001
,
0100
0001
0010
0100
1000
0001
1000
0010
0100
0010
1000
0100
0010
0001
0100
0001
,
2000
3000
0001
0100
0000
0001
0010
0100
,
1000
1000
0100
0000
1000
0100
0010
0002
,
0000
0000
0000
0003
0000
0000
1000
0000
0000
0000
0000
0000
0001
0000
0000
0000
0010
0000
0000
0000
0100
0000
0000
0000
,
1000
0000
0001
0100
0000
0001
1000
0100
,
1000
0001
1000
0100
0010
0001
0100
0001
1000
0010
0100
0010
1000
0001
0010
0100
,
1000
0001
0100
0001
1000
0010
0100
0010
1000
0100
0010
0001
1000
0001
0100
0010
,
2000
3000
0000
0000
0000
0000
0000
0000
0000
0000
0000
0000
0000
0000
0000
0000
;
