#TITLE:Macau Underground;
#SUBTITLE:;
#ARTIST:DJ Sharpnel;
#TITLETRANSLIT:;
#SUBTITLETRANSLIT:;
#ARTISTTRANSLIT:;
#CREDIT:;
#BANNER:macau underground bn.png;
#BACKGROUND:macau underground bg.png;
#LYRICSPATH:;
#CDTITLE:;
#MUSIC:Macau Underground.ogg;
#OFFSET:0.587;
#SAMPLESTART:116.116;
#SAMPLELENGTH:20.744;
#SELECTABLE:YES;
#BPMS:0.000=185.100;
#STOPS:;
#BGCHANGES:;
// cache tags:
#FIRSTBEAT:40.500;
#LASTBEAT:756.000;
#SONGFILENAME:Songs/SHARPNELSTREAMZ v2/Macau Underground/Macau Underground.sm;
#HASMUSIC:1;
#HASBANNER:1;
#MUSICLENGTH:246.021;
// end cache tags

//---------------dance-single - 16 (CTalon)----------------
#NOTES:
     dance-single:
     16 (CTalon):
     Challenge:
     16:
     1.000,1.000,0.016,0.069,1.000,2554.000,4.000,17.000,0.000,0.000:
0000
0000
0000
0000
,
0000
0000
0000
0000
,
0000
0000
0000
0000
,
0000
0000
0000
0000
,
0000
0000
0000
0000
,
0000
0000
0000
0000
,
0000
0000
0000
0000
,
0000
0000
0000
0000
,
0000
0000
0000
0000
,
0000
0000
0000
0000
,
0000
1000
0010
0100
0001
0010
0100
1000
,
0000
0001
0100
0010
0100
0001
0010
0001
,
0000
1000
0010
0100
0001
0010
0001
1000
,
0000
0010
0100
0001
0100
0010
1000
0001
,
0000
0010
0100
1000
0100
0010
0001
1000
,
0000
0010
0100
0010
1000
0100
0010
0001
,
0000
1000
0001
0100
0010
1000
0001
0100
,
0000
0001
0010
0100
1000
0100
1000
0001
,
0000
0100
0010
1000
0100
0010
0100
1000
,
0000
0001
0100
0010
0100
0001
0100
0001
,
0000
1000
0100
1000
0001
0100
0010
1000
,
0000
0001
0010
0100
1000
0001
0100
0001
,
0000
1000
0001
1000
0100
1000
0010
0100
,
0000
0001
0010
0100
1000
0001
0100
0001
,
0000
1000
0010
0100
0001
1000
0100
1000
,
0000
0000
0000
0000
0001
1000
0010
0100
,
0001
0010
0100
1000
0010
0100
0001
1000
0001
1000
0100
0010
0100
1000
0001
0100
,
0001
1000
0001
0100
0010
1000
0100
0010
0100
1000
0001
0100
0001
0100
0010
1000
,
0001
0010
0100
1000
0100
0010
0001
0100
0001
1000
0100
1000
0001
0100
0001
1000
,
0100
0010
0001
1000
0001
0010
0100
1000
0010
0100
0001
1000
0100
0010
0100
1000
,
0001
1000
0001
0100
0010
1000
0001
1000
0100
1000
0010
1000
0001
1000
0001
0010
,
0100
1000
0001
1000
0010
0100
0001
0010
0001
1000
0100
0010
0001
1000
0010
0100
,
0001
1000
0100
1000
0100
0010
0001
0010
0100
1000
0010
0100
0010
1000
0001
0010
,
0001
0000
0000
1000
0000
0000
0001
0000
0000
0100
0000
0000
0010
0000
0000
1000
0000
0000
0001
0000
0000
0010
0000
0000
0001
0000
0000
1000
0000
0000
0010
0000
0000
1000
0000
0000
0100
0000
0000
0010
0000
0000
0100
0000
1000
0000
0001
0000
,
1000
0010
0100
0001
0010
0100
1000
0001
1000
0001
0100
0010
0100
0001
1000
0100
,
1000
0001
1000
0100
0010
0001
0100
0010
0100
0001
1000
0100
1000
0100
0010
0001
,
1000
0010
0100
0001
0100
0010
1000
0100
1000
0001
0100
0001
1000
0100
1000
0001
,
0100
0010
1000
0001
1000
0010
0100
0001
0010
0100
1000
0001
0100
0010
0100
0001
,
1000
0001
1000
0100
0010
0001
1000
0001
0100
0001
0010
0001
1000
0001
1000
0010
,
0100
0001
1000
0001
0010
0100
1000
0010
1000
0001
0100
0010
1000
0001
0010
0100
,
1000
0001
0100
0001
0100
0010
1000
0010
0100
0001
0010
0100
0010
0001
1000
0010
,
1000
0000
0000
0001
0000
0000
0100
0000
0000
0004
0000
0000
1003
0000
0000
0010
0000
0000
0100
0000
0000
0040
0000
0000
1030
0000
0000
0100
0000
0000
1000
0000
0001
0000
0010
0000
0001
0000
0000
0000
0000
0000
1000
0000
0100
0000
1000
0000
,
0001
0010
0100
1000
0010
0100
0001
1000
0001
1000
0100
0010
0100
1000
0001
0100
,
0001
1000
0001
0100
0010
1000
0100
0010
0100
1000
0001
0100
0001
0100
0010
1000
,
0001
0010
0100
1000
0100
0010
0001
0100
0001
1000
0100
1000
0001
0100
0001
1000
,
0100
0010
0001
1000
0001
0010
0100
1000
0010
0100
0001
1000
0100
0010
0100
1000
,
0001
1000
0001
0100
0010
1000
0001
1000
0100
1000
0010
1000
0001
1000
0001
0010
,
0100
1000
0001
1000
0010
0100
0001
0010
0001
1000
0100
0010
0001
1000
0010
0100
,
0001
1000
0100
1000
0100
0010
0001
0010
0100
1000
0010
0100
0010
1000
0001
0010
,
0001
0000
0000
1000
0000
0000
0001
0000
0000
0100
0000
0000
0010
0000
0000
1000
0000
0000
0001
0000
0000
0010
0000
0000
0001
0000
0000
1000
0000
0000
0010
0000
0000
1000
0000
0000
0100
0000
0000
0010
0000
0000
0100
0000
1000
0000
0001
0000
,
1000
0010
0100
0001
0010
0100
1000
0001
1000
0001
0100
0010
0100
0001
1000
0100
,
1000
0001
1000
0100
0010
0001
0100
0010
0100
0001
1000
0100
1000
0100
0010
0001
,
1000
0010
0100
0001
0100
0010
1000
0100
1000
0001
0100
0001
1000
0100
1000
0001
,
0100
0010
1000
0001
1000
0010
0100
0001
0010
0100
1000
0001
0100
0010
0100
0001
,
1000
0001
1000
0100
0010
0001
1000
0001
0100
0001
0010
0001
1000
0001
1000
0010
,
0100
0001
1000
0001
0010
0100
1000
0010
1000
0001
0100
0010
1000
0001
0010
0100
,
1000
0001
0100
0001
0100
0010
1000
0010
0100
0001
0010
0100
0010
0001
1000
0010
,
1000
0000
0000
0001
0000
0000
0100
0000
0000
0004
0000
0000
1003
0000
0000
0010
0000
0000
0100
0000
0000
0040
0000
0000
1030
0000
0000
0100
0000
0000
1000
0000
0001
0000
1000
0000
0001
0000
0000
0000
0000
0000
1000
0000
0100
0000
1000
0000
,
0001
0001
0200
0300
0001
0001
0200
0300
,
0001
0001
2000
3000
0001
0001
2000
3000
,
0100
0100
0020
0030
0100
0100
0020
0030
,
0001
0001
0200
0300
0001
0001
0200
0300
,
0010
0010
2000
3000
0010
0010
2000
3000
,
0100
0100
0020
0030
0100
0100
0020
0030
,
0100
0100
2000
3000
0100
0100
2000
3000
,
0001
0001
0200
0300
0001
0001
0200
0300
,
0001
0001
1000
0010
0010
1000
0001
0001
,
0010
0000
0010
0000
0100
0000
1000
0000
1000
0000
0001
0000
0100
0001
0100
0000
,
0010
0010
1000
0001
0001
0010
0100
0100
,
1000
0000
1000
0000
0001
0000
0100
0000
0100
0000
0001
0000
0010
0001
0010
0000
,
0100
0000
1000
0000
0001
0000
0100
0010
1000
0001
1000
0000
0100
0010
0001
1000
,
0001
0000
0100
0000
0010
0000
1000
0001
0010
0001
0100
0000
0010
1000
0001
1000
,
0001
0000
0010
0000
0100
0000
1000
0100
0010
0001
1000
0000
0001
0100
0010
1000
,
0001
0000
0010
0000
0001
0000
0100
0010
1000
0001
0010
0000
0200
0000
0300
0000
,
1000
0100
1000
0100
0010
0001
1000
0001
1000
0100
1000
0100
0010
0001
1000
0001
,
1000
0010
1000
0010
0100
0001
1000
0001
1000
0010
1000
0010
0100
0001
1000
0001
,
0010
0100
1000
0001
0100
0010
1000
0100
0010
0100
1000
0001
0100
0010
1000
0100
,
1000
0001
0010
0001
1000
0010
0100
0001
1000
0001
0010
0001
1000
0010
0100
0001
,
1000
0100
0010
0001
0100
0010
0100
0001
1000
0100
0010
0001
0100
0010
0100
0001
,
1000
0001
0100
0001
1000
0001
0010
0100
1000
0001
0100
0001
1000
0001
0010
0100
,
1000
0001
0100
0010
1000
0100
0010
0001
1000
0001
0100
0010
1000
0100
0010
0001
,
1000
0000
0000
0001
0000
0000
0100
0000
0000
0001
0000
0000
1000
0000
0000
0100
0000
0000
1000
0000
0000
0010
0000
0000
1000
0000
0000
0001
0000
0000
0100
0000
0000
0001
0000
0000
1000
0000
0000
0100
0000
0000
1000
0000
0001
0000
1000
0000
,
0001
0010
0100
1000
0010
0100
0001
1000
0001
0010
0100
1000
0010
0100
0001
1000
,
0001
0010
0001
0100
0010
1000
0010
1000
0001
0010
0001
0100
0010
1000
0010
1000
,
0001
0010
0100
1000
0100
1000
0010
0100
0001
0010
0100
1000
0100
1000
0010
0100
,
0001
1000
0001
0100
0010
0100
0001
0010
0001
1000
0001
0100
0010
0100
0001
0010
,
0001
0010
0100
1000
0010
1000
0001
1000
0001
0010
0100
1000
0010
1000
0001
1000
,
0001
0100
0010
1000
0100
0010
0100
1000
0001
0100
0010
1000
0100
0010
0100
1000
,
0001
0100
0001
0100
0010
1000
0100
0010
0001
0100
0001
0100
0010
1000
0100
0010
,
0001
1000
0001
1000
0001
0000
1000
0100
1000
0100
1000
0000
0001
0100
0010
1000
,
0001
0010
0100
1000
0010
0100
0001
1000
0001
1000
0100
0010
0100
1000
0001
0100
,
0001
1000
0001
0100
0010
1000
0100
0010
0100
1000
0001
0100
0001
0100
0010
1000
,
0001
0010
0100
1000
0100
0010
0001
0100
0001
1000
0100
1000
0001
0100
0001
1000
,
0100
0010
0001
1000
0001
0010
0100
1000
0010
0100
0001
1000
0100
0010
0100
1000
,
0001
1000
0001
0100
0010
1000
0001
1000
0100
1000
0010
1000
0001
1000
0001
0010
,
0100
1000
0001
1000
0010
0100
0001
0010
0001
1000
0100
0010
0001
1000
0010
0100
,
0001
1000
0100
1000
0100
0010
0001
0010
0100
1000
0010
0100
0010
1000
0001
0010
,
0001
1000
0001
0100
0010
1000
0001
0010
0001
1000
0010
1000
0100
0010
0100
1000
,
0001
0100
0010
1000
0100
0010
0001
1000
0001
1000
0010
0100
0010
1000
0001
0010
,
0001
1000
0001
0010
0100
1000
0010
0100
0010
1000
0001
0010
0001
0010
0100
1000
,
0001
0100
0010
1000
0010
0100
0001
0010
0001
1000
0010
1000
0001
0010
0001
1000
,
0010
0100
0001
1000
0001
0100
0010
1000
0100
0010
0001
1000
0010
0100
0010
1000
,
0001
1000
0001
0010
0100
1000
0001
1000
0010
1000
0100
1000
0001
1000
0001
0100
,
0010
1000
0001
1000
0100
0010
0001
0100
0001
1000
0010
0100
0001
1000
0100
0010
,
0001
1000
0010
1000
0010
0100
0001
0100
0010
1000
0100
0010
0100
1000
0001
0100
,
0001
0000
0000
1000
0000
0000
0001
0000
0000
0010
0000
0000
0100
0000
0000
1000
0000
0000
0001
0000
0000
0100
0000
0000
0001
0000
0000
1000
0000
0000
0100
0000
0000
1000
0000
0000
0010
0000
0000
0100
0000
0000
0001
0000
1000
0000
0001
0000
,
1000
0100
0010
0001
0100
0010
1000
0001
1000
0001
0010
0100
0010
0001
1000
0010
,
1000
0001
1000
0010
0100
0001
0010
0100
0010
0001
1000
0010
1000
0010
0100
0001
,
1000
0100
0010
0001
0010
0100
1000
0010
1000
0001
0010
0001
1000
0010
1000
0001
,
0010
0100
1000
0001
1000
0100
0010
0001
0100
0010
1000
0001
0010
0100
0010
0001
,
1000
0001
1000
0010
0100
0001
1000
0001
0010
0001
0100
0001
1000
0001
1000
0100
,
0010
0001
1000
0001
0100
0010
1000
0100
1000
0001
0010
0100
1000
0001
0100
0010
,
1000
0001
0010
0001
0010
0100
1000
0100
0010
0001
0100
0010
0100
0001
1000
0100
,
1000
0001
1000
0010
0100
0001
1000
0100
1000
0001
0100
0001
0010
0100
0010
0001
,
1000
0010
0100
0001
0010
0100
1000
0001
1000
0001
0100
0010
0100
0001
1000
0100
,
1000
0001
1000
0100
0010
0001
0100
0010
0100
0001
1000
0100
1000
0100
0010
0001
,
1000
0010
0100
0001
0100
0010
1000
0100
1000
0001
0100
0001
1000
0100
1000
0001
,
0100
0010
1000
0001
1000
0010
0100
0001
0010
0100
1000
0001
0100
0010
0100
0001
,
1000
0001
1000
0100
0010
0001
1000
0001
0100
0001
0010
0001
1000
0001
1000
0010
,
0100
0001
1000
0001
0010
0100
1000
0010
1000
0001
0100
0010
1000
0001
0010
0100
,
1000
0001
0100
0001
0100
0010
1000
0010
0100
0001
0010
0100
0010
0001
1000
0010
,
1000
0001
1000
0100
0010
0001
1000
0010
1000
0001
0010
0001
0100
0010
1000
0001
,
1000
0100
1000
0010
0100
0001
0010
0001
1000
0010
1000
0010
0100
0001
1000
0001
,
1000
0100
1000
0010
0100
0001
0010
0001
1000
0010
1000
0010
0100
0001
1000
0001
,
1000
0100
1000
0010
0100
0001
0010
0001
1000
0010
1000
0010
0100
0001
1000
0001
,
1000
0100
1000
0010
0100
0001
0010
0001
1000
0010
1000
0010
0100
0001
1000
0001
,
1000
0010
1000
0100
0010
0001
0100
0001
1000
0100
1000
0100
0010
0001
1000
0001
,
1000
0010
1000
0100
0010
0001
0100
0001
1000
0100
1000
0100
0010
0001
1000
0001
,
1000
0010
1000
0100
0010
0001
0100
0001
1000
0100
1000
0100
0010
0001
1000
0001
,
1000
0000
0000
0010
0000
0000
1000
0000
0000
0100
0000
0000
0010
0000
0000
0001
0000
0000
0100
0000
0000
0001
0000
0000
1000
0000
0000
0100
0000
0000
1000
0000
0000
0100
0000
0000
0010
0000
0000
0001
0000
0000
1000
0000
0001
0000
1000
0000
,
0001
0010
0001
0100
0010
1000
0100
1000
0001
0100
0001
0100
0010
1000
0001
1000
,
0001
0010
0001
0100
0010
1000
0100
1000
0001
0100
0001
0100
0010
1000
0001
1000
,
0001
0010
0001
0100
0010
1000
0100
1000
0001
0100
0001
0100
0010
1000
0001
1000
,
0001
0010
0001
0100
0010
1000
0100
1000
0001
0100
0001
0100
0010
1000
0001
1000
,
0001
0100
0001
0010
0100
1000
0010
1000
0001
0010
0001
0010
0100
1000
0001
1000
,
0001
0100
0001
0010
0100
1000
0010
1000
0001
0010
0001
0010
0100
1000
0001
1000
,
0001
0100
0001
0010
0100
1000
0010
1000
0001
0010
0001
0010
0100
1000
0001
1000
,
0001
0000
0000
0100
0000
0000
0001
0000
0000
0010
0000
0000
0100
0000
0000
1000
0000
0000
0010
0000
0000
1000
0000
0000
0001
0000
0000
0010
0000
0000
0001
0000
0000
0010
0000
0000
0100
0000
0000
1000
0000
0000
0001
0000
1000
0000
0001
0000
,
1000
0100
0010
0001
0100
0010
1000
0100
0010
0001
1000
0001
0100
0010
1000
0001
,
1000
0100
0010
0001
0100
0010
1000
0100
0010
0001
1000
0001
0100
0010
1000
0001
,
1000
0100
0010
0001
0100
0010
1000
0100
0010
0001
1000
0001
0100
0010
1000
0001
,
1000
0100
0010
0001
0100
0010
1000
0100
0010
0001
1000
0001
0100
0010
1000
0001
,
1000
0010
0100
0001
0010
0100
1000
0010
0100
0001
1000
0001
0010
0100
1000
0001
,
1000
0010
0100
0001
0010
0100
1000
0010
0100
0001
1000
0001
0010
0100
1000
0001
,
1000
0010
0100
0001
0010
0100
1000
0010
0100
0001
1000
0001
0010
0100
1000
0001
,
1000
0000
0000
0010
0000
0000
0100
0000
0000
0001
0000
0000
0010
0000
0000
0100
0000
0000
1000
0000
0000
0010
0000
0000
0100
0000
0000
0001
0000
0000
1000
0000
0000
0001
0000
0000
0010
0000
0000
0100
0000
0000
1000
0000
0001
0000
1000
0000
,
0001
0010
0100
1000
0010
0100
0001
0010
0100
1000
0001
1000
0010
0100
0001
1000
,
0001
0010
0100
1000
0010
0100
0001
0010
0100
1000
0001
1000
0010
0100
0001
1000
,
0001
0010
0100
1000
0010
0100
0001
0010
0100
1000
0001
1000
0010
0100
0001
1000
,
0001
0010
0100
1000
0010
0100
0001
0010
0100
1000
0001
1000
0010
0100
0001
1000
,
0001
0100
0010
1000
0100
0010
0001
0100
0010
1000
0001
1000
0100
0010
0001
1000
,
0001
0100
0010
1000
0100
0010
0001
0100
0010
1000
0001
1000
0100
0010
0001
1000
,
0001
0100
0010
1000
0100
0010
0001
0100
0010
1000
0001
1000
0100
0010
0001
1000
,
0001
0000
0000
0100
0000
0000
0010
0000
0000
1000
0000
0000
0100
0000
0000
0010
0000
0000
0001
0000
0000
0100
0000
0000
0010
0000
0000
1000
0000
0000
0001
0000
0000
1000
0000
0000
0100
0000
0000
0010
0000
0000
0001
0000
1000
0000
0001
0000
,
1000
0000
0000
0000
,
0000
0000
0000
0000
,
0000
0001
0100
0010
1000
0100
0010
0001
,
1000
0100
0010
0001
0100
0010
1000
0001
1000
0001
0010
0100
0010
0001
1000
0010
,
1000
0001
1000
0010
0100
0001
0010
0100
0010
0001
1000
0010
1000
0010
0100
0001
,
1000
0100
0010
0001
0010
0100
1000
0010
1000
0001
0010
0001
1000
0010
1000
0001
,
0010
0100
1000
0001
1000
0100
0010
0001
0100
0010
1000
0001
0010
0100
0010
0001
,
1000
0001
1000
0010
0100
0001
1000
0001
0010
0001
0100
0001
1000
0001
1000
0100
,
0010
0001
1000
0001
0100
0010
1000
0100
1000
0001
0010
0100
1000
0001
0100
0010
,
1000
0001
0010
0001
0010
0100
1000
0100
0010
0001
0100
0010
0100
0001
1000
0100
,
1000
0001
1000
0010
0100
0001
1000
0100
1000
0001
0100
0001
0010
0100
0010
0001
,
1000
0010
0100
0001
0010
0100
1000
0001
1000
0001
0100
0010
0100
0001
1000
0100
,
1000
0001
1000
0100
0010
0001
0100
0010
0100
0001
1000
0100
1000
0100
0010
0001
,
1000
0010
0100
0001
0100
0010
1000
0100
1000
0001
0100
0001
1000
0100
1000
0001
,
0100
0010
1000
0001
1000
0010
0100
0001
0010
0100
1000
0001
0100
0010
0100
0001
,
1000
0001
1000
0100
0010
0001
1000
0001
0100
0001
0010
0001
1000
0001
1000
0010
,
0100
0001
1000
0001
0010
0100
1000
0010
1000
0001
0100
0010
1000
0001
0010
0100
,
1000
0001
0100
0001
0100
0010
1000
0010
0100
0001
0010
0100
0010
0001
1000
0010
,
1000
0000
0000
0001
0000
0000
1000
0000
0000
0100
0000
0000
0010
0000
0000
0001
0000
0000
1000
0000
0000
0010
0000
0000
1000
0000
0000
0001
0000
0000
0010
0000
0000
0001
0000
0000
0100
0000
0000
0010
0000
0000
1000
0000
0001
0000
1000
0000
,
0001
0010
0100
1000
0010
0100
0001
1000
0001
1000
0100
0010
0100
1000
0001
0100
,
0001
1000
0001
0100
0010
1000
0100
0010
0100
1000
0001
0100
0001
0100
0010
1000
,
0001
0010
0100
1000
0100
0010
0001
0100
0001
1000
0100
1000
0001
0100
0001
1000
,
0100
0010
0001
1000
0001
0010
0100
1000
0010
0100
0001
1000
0100
0010
0100
1000
,
0001
1000
0001
0100
0010
1000
0001
1000
0100
1000
0010
1000
0001
1000
0001
0010
,
0100
1000
0001
1000
0010
0100
0001
0010
0001
1000
0100
0010
0001
1000
0010
0100
,
0001
1000
0100
1000
0100
0010
0001
0010
0100
1000
0010
0100
0010
1000
0001
0010
,
0001
1000
0001
0100
0010
1000
0001
0010
0001
1000
0010
1000
0100
0010
0100
1000
,
0001
0100
0010
1000
0100
0010
0001
1000
0001
1000
0010
0100
0010
1000
0001
0010
,
0001
1000
0001
0010
0100
1000
0010
0100
0010
1000
0001
0010
0001
0010
0100
1000
,
0001
0100
0010
1000
0010
0100
0001
0010
0001
1000
0010
1000
0001
0010
0001
1000
,
0010
0100
0001
1000
0001
0100
0010
1000
0100
0010
0001
1000
0010
0100
0010
1000
,
0001
1000
0001
0010
0100
1000
0001
1000
0010
1000
0100
1000
0001
1000
0001
0100
,
0010
1000
0001
1000
0100
0010
0001
0100
0001
1000
0010
0100
0001
1000
0100
0010
,
0001
1000
0010
1000
0010
0100
0001
0100
0010
1000
0100
0010
0100
1000
0001
0100
,
0001
1000
0001
0010
0100
1000
0001
0100
0001
1000
0100
1000
0010
0100
0001
1000
,
0001
0000
0000
0000
;
