#TITLE:Dead Feelings;
#SUBTITLE:;
#ARTIST:CORE;
#TITLETRANSLIT:;
#SUBTITLETRANSLIT:;
#ARTISTTRANSLIT:;
#CREDIT:;
#BANNER:../bn.png;
#BACKGROUND:../veyron.png;
#LYRICSPATH:;
#CDTITLE:;
#MUSIC:dead feelings.ogg;
#OFFSET:0.015;
#SAMPLESTART:33.320;
#SAMPLELENGTH:17.260;
#SELECTABLE:YES;
#BPMS:0.000=230.000;
#STOPS:;
#BGCHANGES:;
// cache tags:
#FIRSTBEAT:28.000;
#LASTBEAT:660.000;
#SONGFILENAME:Songs/Cirque du Veyron/Zaia - Dead Feelings/dead feelings.sm;
#HASMUSIC:1;
#HASBANNER:1;
#MUSICLENGTH:174.006;
// end cache tags

//---------------dance-single - Zaia----------------
#NOTES:
     dance-single:
     Zaia:
     Challenge:
     16:
     1.000,1.000,0.092,0.339,1.000,1466.000,16.000,59.000,0.000,0.000:
0000
0000
0000
0000
,
0000
0000
0000
0000
,
0000
0000
0000
0000
,
0000
0000
0000
0000
,
0000
0000
0000
0000
,
0000
0000
0000
0000
,
0000
0000
0000
0000
,
2002
0000
0000
0000
,
0000
0000
0000
0000
,
0000
0000
0000
0000
,
0000
0000
0000
0000
,
0000
0000
0000
0000
0000
3000
0203
0000
,
0020
0000
0000
0000
,
0000
0000
0000
0000
,
0000
0000
0000
0000
,
0000
0000
0300
1030
,
0010
0100
0001
0000
1000
0000
0100
0000
0010
0000
0100
0000
1000
0000
0001
0000
,
0100
0010
1000
0001
0010
0100
1000
0001
,
0100
0010
1000
0001
0010
0100
1000
0010
,
0100
0001
0010
0100
1000
0010
0100
0001
,
1000
0001
0100
0000
0010
0000
0100
0000
0001
0000
0010
0000
0100
0000
1000
0000
,
0001
0100
0010
1000
0001
0010
0100
1000
,
0010
0100
0001
0100
0010
1000
0100
0010
,
0001
1000
0010
0100
0001
1000
0100
0010
,
0001
0010
0100
0000
1000
0000
0001
0000
1000
0000
0100
0000
1000
0000
0010
0000
,
1000
0001
0100
0001
0010
0001
1000
0001
,
0010
0100
0010
0001
0010
0100
0010
0001
,
1000
0010
1000
0100
1000
0010
1000
0100
,
1000
0010
0100
0000
0000
0000
0101
0000
0000
0000
0000
0000
0001
0000
0000
0000
,
0100
0010
0100
0000
0110
0000
0010
0000
,
1010
0000
0000
0000
0000
0000
1001
0000
0000
0000
0000
0000
0001
0100
0010
1000
,
0001
0000
1000
0000
0001
0000
1000
0100
,
1000
0000
0000
0000
0001
1000
0001
1000
0001
0000
0000
0000
1000
0100
1000
0100
,
1000
0000
0000
0000
0100
0010
0100
0010
0100
0000
0000
0000
0010
0001
0010
0001
,
0010
0000
0000
0000
0001
0100
0001
0100
0001
0000
0000
0000
1000
0010
1000
0010
,
1000
0000
0000
0000
0001
1000
0001
1000
0001
0000
0000
0000
1000
0100
1000
0100
,
1000
0000
0000
0000
0001
0100
0010
0100
0001
0000
0000
0000
1000
0100
0010
0100
,
1000
0000
0000
0000
0001
1000
0010
1000
0001
0000
0000
0000
1000
0010
0100
0010
,
1000
0000
0000
0000
0001
0010
0100
1000
0001
0000
0000
0000
1000
0001
0100
0001
,
1000
0000
0000
0000
0010
1000
0001
0010
0100
0000
0000
0000
1000
0001
0100
0001
,
2000
0000
0000
0000
0000
0000
0000
0000
0000
0000
0000
3010
0200
0000
0000
0000
0000
0000
0302
0000
0000
0000
0000
0000
,
2003
0000
0000
0000
0000
0000
3100
0010
,
0002
0000
0000
0000
,
0023
0000
0230
0000
,
0310
0200
0000
0000
0000
0000
0000
0000
0000
0000
0000
0000
0000
0000
0000
0000
0000
0000
0000
0000
0000
0000
0000
0000
,
0000
0000
1300
0002
0000
0000
0203
0000
0000
0302
0000
0000
,
0023
0000
0230
0000
,
2300
0000
3020
0000
,
0230
0000
0000
0000
0000
0000
0000
0000
0000
0000
0000
0301
2000
0000
0000
0000
0000
0000
3020
0000
0000
0000
0000
0000
,
0230
0000
0000
0000
0000
0000
0301
0010
,
0200
0000
0000
0000
,
2300
0000
3200
0000
,
0310
0100
1000
0002
0000
0000
0000
0000
,
0000
0000
0103
0020
0000
0000
2030
0000
0000
3200
0000
0000
,
1300
0001
0010
0200
0000
0000
0000
0000
,
1300
0010
0100
0002
0000
0000
2003
0000
,
3002
0000
0103
0001
0200
0000
0301
0100
,
0002
0000
0103
0001
0200
0000
0301
0100
,
0101
0000
0000
1010
0000
0000
1001
0000
,
0001
0010
0001
0000
0001
0000
0001
0000
,
1000
0100
0010
0001
1000
0010
1000
0001
0100
0001
1000
0010
0100
0001
1000
0100
,
0010
0100
1000
0001
1000
0001
0100
0010
1000
0001
0010
0001
1000
0100
0010
0001
,
1000
0010
0100
0001
0100
0001
1000
0100
0010
0001
1000
0001
1000
0010
0100
0001
,
1000
0100
1000
0100
0010
0001
1000
0010
0100
0010
0100
0001
1000
0100
0010
0100
,
1000
0001
0100
0010
1000
0001
0100
0001
1000
0100
1000
0001
0010
0100
1000
0001
,
0100
0010
1000
0010
0100
0001
1000
0100
1000
0001
1000
0010
0100
0001
1000
0010
,
0100
0001
0100
0001
1000
0010
0100
0001
1000
0001
1000
0100
0010
0001
1000
0100
,
1000
0100
0010
0001
1000
0001
0010
0001
0010
0100
1000
0001
1000
0010
1000
0001
,
1000
0100
0010
0001
1000
0010
0100
0001
1000
0010
1000
0001
0010
0001
1000
0001
,
0100
0010
1000
0001
0010
0100
1000
0001
1000
0001
0100
0010
1000
0001
0010
0100
,
1000
0001
1000
0001
0100
0010
0100
0001
1000
0001
1000
0100
0010
0100
1000
0001
,
1000
0001
0100
0010
0100
0001
1000
0001
1000
0100
0010
0100
1000
0001
1000
0001
,
1000
0100
0010
0001
0010
0100
1000
0001
0100
0010
1000
0010
0100
0001
1000
0001
,
0010
0100
1000
0001
1000
0100
0010
0100
1000
0001
1000
0010
0100
0010
1000
0001
,
0100
0010
0100
0010
1000
0001
1000
0100
0010
0100
0010
0001
1000
0001
0100
0010
,
0100
0010
1000
0001
1000
0010
0100
0010
0100
0001
1000
0100
0010
0001
1000
0001
,
1000
0100
0010
0000
0001
0000
0100
0000
0010
0000
0100
0000
0001
0000
1000
0000
,
0100
0010
0001
1000
0010
0100
0001
1000
,
0100
0010
0001
1000
0010
0100
0001
0010
,
0100
1000
0010
0100
0001
0010
0100
1000
,
0001
1000
0100
0000
0010
0000
0100
0000
1000
0000
0010
0000
0100
0000
0001
0000
,
1000
0100
0010
0001
1000
0010
0100
0001
,
0010
0100
1000
0100
0010
0001
0100
0010
,
1000
0001
0010
0100
1000
0001
0100
0010
,
1000
0010
0100
0000
0001
0000
1000
0000
0001
0000
0100
0000
0001
0000
0010
0000
,
0001
1000
0100
1000
0010
1000
0001
1000
,
0010
0100
0010
1000
0010
0100
0010
1000
,
0001
0010
0001
0100
0001
0010
0001
0100
,
0001
0010
0100
0000
0000
0000
1100
0000
0000
0000
0000
0000
1000
0000
0000
0000
,
0100
0010
0100
0000
0110
0000
0010
0000
,
0011
0000
0000
0000
0000
0000
1001
0000
0000
0000
0000
0000
1000
0100
0010
0100
,
1000
0000
0001
0000
1000
0000
0001
0100
,
0001
0000
0000
0000
1000
0001
1000
0001
1000
0000
0000
0000
0001
0100
0001
0100
,
0001
0000
0000
0000
0100
0010
0100
0010
0100
0000
0000
0000
0010
1000
0010
1000
,
0010
0000
0000
0000
1000
0100
1000
0100
1000
0000
0000
0000
0001
0010
0001
0010
,
0001
0000
0000
0000
1000
0001
1000
0001
1000
0000
0000
0000
0001
0100
0001
0100
,
0001
0000
0000
0000
1000
0100
0010
0100
1000
0000
0000
0000
0001
0100
0010
0100
,
0001
0000
0000
0000
1000
0001
0010
0001
1000
0000
0000
0000
0001
0010
0100
0010
,
0001
0000
0000
0000
1000
0010
0100
0001
1000
0000
0000
0000
0001
1000
0100
1000
,
0001
0000
0000
0000
0010
0001
1000
0010
0100
0000
0000
0000
0001
1000
0100
1000
,
0002
0000
0000
0000
0000
0000
0000
0000
0000
0000
0000
0103
0020
0000
0000
0000
0000
0000
2030
0000
0000
0000
0000
0000
,
3200
0000
0000
0300
0110
0000
0100
1000
,
0002
0000
0000
0000
,
0203
0000
0000
0320
0000
0000
2030
0000
,
3010
2000
0000
0000
0000
0000
0000
0000
0000
3002
0000
0000
,
0000
0000
0023
0000
,
0230
0000
0000
0000
,
0320
0000
0032
0000
,
0203
0000
0310
0100
0020
0000
0130
0001
,
0200
0000
0310
0100
0020
0000
0130
0001
,
1001
0000
0000
1100
0000
0000
0011
0000
,
0001
1000
0010
0000
0100
0000
0100
0000
,
0001
0010
0100
1000
0001
0100
0001
1000
0010
1000
0001
0100
0010
1000
0001
0010
,
0100
0010
0001
1000
0001
1000
0010
0100
0001
1000
0100
1000
0001
0010
0100
1000
,
0001
0100
0010
1000
0010
1000
0001
0010
0100
1000
0001
1000
0001
0100
0010
1000
,
0001
0010
0001
0010
0100
1000
0001
0100
0010
0100
0010
1000
0001
0010
0100
0010
,
0001
1000
0010
0100
0001
1000
0010
1000
0001
0010
0001
1000
0100
0010
0001
1000
,
0010
0100
0001
0100
0010
1000
0001
0010
0001
1000
0001
0100
0010
1000
0001
0100
,
0010
1000
0010
1000
0001
0100
0010
1000
0001
1000
0001
0010
0100
1000
0001
0010
,
0001
0010
0100
1000
0001
1000
0100
1000
0100
0010
0001
1000
0001
0100
0001
1000
,
0001
0010
0100
1000
0001
0100
0010
1000
0001
0100
0001
1000
0100
1000
0001
1000
,
0010
0100
0001
1000
0100
0010
0001
1000
0001
1000
0010
0100
0001
1000
0100
0010
,
0001
1000
0001
1000
0010
0100
0010
1000
0001
1000
0001
0010
0100
0010
0001
1000
,
0001
1000
0010
0100
0010
1000
0001
1000
0001
0010
0100
0010
0001
1000
0001
1000
,
0001
0010
0100
1000
0100
0010
0001
1000
0010
0100
0001
0100
0010
1000
0001
1000
,
0100
0010
0001
1000
0001
0010
0100
0010
0001
1000
0001
0100
0010
0100
0001
1000
,
0010
0100
0010
0100
0001
1000
0001
0010
0100
0010
0100
1000
0001
1000
0010
0100
,
0010
0100
0001
1000
0001
0100
0010
0100
0010
1000
0001
0010
0100
1000
0001
1000
,
0001
1000
0100
0010
0001
1000
0010
0100
0001
1000
0100
0010
0001
1000
0010
0100
,
0001
1000
0100
0010
0001
1000
0010
0100
0002
0000
0000
0000
0000
0000
0000
0000
,
1003
0100
0010
0001
0010
0100
1000
0001
0100
0010
1000
0010
0100
0001
1000
0100
,
1000
0001
0010
0001
1000
0010
0100
0001
1000
0100
0010
0100
1000
0001
0010
0001
,
1000
0001
1000
0001
0100
0010
1000
0001
1000
0001
0100
0010
1000
0001
1000
0001
,
0100
0010
1000
0001
1000
0001
0010
0100
1000
0001
1000
0001
0010
0100
1000
0001
,
1000
0001
0100
0010
0100
0001
1000
0100
0010
0001
0010
0100
1000
0001
0100
0001
,
0100
0010
1000
0001
1000
0100
1000
0001
0010
0100
1000
0001
1000
0010
0100
0001
,
1000
0100
0010
0100
0010
0001
1000
0100
0010
0100
0010
0001
1000
0100
0010
0100
,
0010
0001
1000
0010
0100
0010
0100
0001
1000
0010
0100
0010
0100
0001
1000
0010
,
0100
0001
1000
0001
0010
0001
1000
0100
0010
0001
1000
0010
0100
0001
0100
0010
,
1000
0001
0100
0010
1000
0001
1000
0001
0100
0010
1000
0001
0010
0100
0010
0001
,
1000
0001
1000
0001
0100
0010
1000
0001
1000
0001
0100
0010
1000
0001
1000
0001
,
0100
0010
1000
0001
1000
0001
0010
0100
1000
0001
1000
0001
0010
0100
1000
0001
,
1000
0010
1000
0001
1000
0100
1000
0001
0010
0100
1000
0001
1000
0100
0010
0001
,
1000
0010
1000
0001
0100
0001
1000
0100
0010
0100
1000
0001
0100
0010
0100
0001
,
1000
0010
0100
0010
0100
0001
1000
0010
0100
0010
0100
0001
1000
0010
0100
0010
,
0100
0001
1000
0100
0010
0100
0010
0001
1000
0100
0010
0100
0010
0001
1000
0001
,
0010
0001
0010
0100
1000
0001
0010
0100
,
1000
0010
0100
0001
1000
0001
0100
0010
1000
0000
0001
0000
0100
0000
0001
0000
,
1000
0010
0100
0001
1000
0010
0100
0001
,
1000
0100
0010
0001
1000
0100
0010
0100
1000
0000
0001
0000
0010
0000
0100
0000
,
1000
0100
0010
0001
1000
0100
1000
0001
,
1000
0001
0100
0001
1000
0010
0100
0001
1000
0000
0010
0000
1000
0000
0001
0000
,
1000
0010
0100
0001
1000
0001
0010
0001
,
1000
0001
0010
0100
1000
0001
0010
0001
1000
0000
0001
0000
0010
0000
0100
0000
,
0010
0001
0100
0010
1000
0100
0010
0001
,
0100
0010
1000
0001
1000
0010
0100
0001
0100
0000
0010
0000
0100
0000
0001
0000
,
0010
0100
1000
0010
0100
0001
0010
0100
,
1000
0001
0010
0100
1000
0001
0010
0001
1000
0000
0001
0000
0100
0000
0010
0000
,
1000
0010
0100
0001
1000
0100
0010
0100
,
1000
0001
0100
0010
1000
0010
0100
0001
1000
0000
0001
0000
0010
0000
0100
0000
,
0010
0001
1000
0010
0100
0010
1000
0001
,
0010
0100
1000
0001
0010
0001
1000
0100
0010
0000
0100
0000
1000
0000
0001
0000
,
0200
0000
0000
0000
,
0320
0000
0000
0000
,
2000
0000
0000
0000
,
3030
0000
0000
0000
;
