#TITLE:S.O.S.;
#SUBTITLE:(THE TIGER TOOK MY FAMILY);
#ARTIST:DR. JEKYLL;
#TITLETRANSLIT:;
#SUBTITLETRANSLIT:;
#ARTISTTRANSLIT:;
#CREDIT:;
#BANNER:SOS (The Tiger Took My Family).png;
#BACKGROUND:SOS (The Tiger Took My Family)-bg.png;
#LYRICSPATH:;
#CDTITLE:!toph-cdtitle.png;
#MUSIC:Dr. Jekyll - SOS (The Tiger Took My Family).mp3;
#OFFSET:-1.430;
#SAMPLESTART:35.100;
#SAMPLELENGTH:12.500;
#SELECTABLE:YES;
#BPMS:0.000=170.000;
#STOPS:;
#BGCHANGES:;
// cache tags:
#FIRSTBEAT:16.000;
#LASTBEAT:336.000;
#SONGFILENAME:Songs/Community Keyboard Megapack - Volume 1/(Toph) SOS (The Tiger Took My Family)/SOS (The Tiger Took My Family).sm;
#HASMUSIC:1;
#HASBANNER:1;
#MUSICLENGTH:122.128;
// end cache tags

//---------------dance-single - ----------------
#NOTES:
     dance-single:
     :
     Easy:
     5:
     0.464,0.481,0.303,0.106,0.000,347.000,37.000,13.000,0.000,0.000:  // measure 1
0000
0000
0000
0000
,  // measure 2
0000
0000
0000
0000
,  // measure 3
0000
0000
0000
0000
,  // measure 4
0000
0000
0000
0000
,  // measure 5
1001
0100
0010
0001
,  // measure 6
0100
0000
0010
0000
1000
0000
0100
0010
,  // measure 7
0001
1000
0010
0100
,  // measure 8
2002
0000
3003
0110
,  // measure 9
1001
0000
0100
0000
0010
1000
0001
0000
,  // measure 10
0010
0000
0100
0000
1000
0001
0100
0000
,  // measure 11
0010
0000
1000
0000
0100
0010
0001
0000
,  // measure 12
1000
0000
0010
0000
0100
0001
1000
0000
,  // measure 13
1001
0000
0010
0000
0001
0100
0010
0000
,  // measure 14
1000
0000
0001
0000
0010
0100
1000
0000
,  // measure 15
0010
0000
0100
0000
0001
1000
0100
0000
,  // measure 16
1000
0100
1000
0000
0001
0100
0001
0000
,  // measure 17
1001
0100
1010
0001
,  // measure 18
0110
1000
0101
0010
,  // measure 19
1001
0000
0100
0000
0011
0000
1000
0010
,  // measure 20
0000
0010
0010
0000
0100
0100
0100
0000
,  // measure 21
1001
0010
1100
0001
,  // measure 22
0110
1000
0101
0010
,  // measure 23
1001
0100
0011
1000
,  // measure 24
2002
0000
3003
0110
,  // measure 25
1001
0000
1000
0000
1000
0000
0000
0001
,  // measure 26
0100
0010
1000
0100
,  // measure 27
0010
0000
0010
0000
0010
0000
0000
0001
,  // measure 28
0100
0010
1000
0100
,  // measure 29
0010
0000
0010
0000
0010
0000
0000
0001
,  // measure 30
1000
0010
1000
0100
,  // measure 31
1000
0000
1000
0000
1000
0000
0000
0001
,  // measure 32
0100
0010
1000
0001
,  // measure 33
1000
0000
0100
0000
0010
0001
1000
0000
,  // measure 34
0010
0000
0100
0000
0001
1000
0100
0000
,  // measure 35
0010
0000
0001
0000
0100
0010
1000
0000
,  // measure 36
0001
0000
0100
0000
0010
1000
0001
0000
,  // measure 37
1001
0000
0100
0000
0010
0001
1000
0000
,  // measure 38
0010
0000
0100
0000
0001
1000
0100
0000
,  // measure 39
0010
0000
0001
0000
0100
0010
1000
0000
,  // measure 40
0001
0100
0010
0000
1000
0100
0010
0000
,  // measure 41
2001
0010
0100
3001
,  // measure 42
1002
0010
0100
1003
,  // measure 43
0210
0000
1000
0000
0010
0000
0301
1000
,  // measure 44
0000
1000
1000
0000
0001
0001
0001
0000
,  // measure 45
2100
0001
0010
3100
,  // measure 46
0102
1000
0010
0103
,  // measure 47
2001
3100
1002
0103
,  // measure 48
2001
0000
0000
0000
0000
0010
3010
0000
,  // measure 49
0001
0000
0001
0000
0001
0000
0000
1000
,  // measure 50
0010
0100
0001
1000
,  // measure 51
0100
0000
0100
0000
0100
0000
0000
0010
,  // measure 52
0001
1000
0010
1000
,  // measure 53
0100
0000
0100
0000
0100
0000
0000
0010
,  // measure 54
0001
1000
0010
1000
,  // measure 55
0100
0000
0100
0000
0100
0000
0000
0010
,  // measure 56
0001
0100
1000
0100
,  // measure 57
0001
0010
0100
1000
,  // measure 58
0010
0100
0001
1000
,  // measure 59
0100
1000
0010
1000
,  // measure 60
0100
0000
0001
0000
0100
0000
0010
0001
,  // measure 61
1000
0010
1001
0100
,  // measure 62
0001
0100
1001
0100
,  // measure 63
0010
0001
1010
0100
,  // measure 64
1002
0010
0103
1001
,  // measure 65
0010
0010
0010
0000
,  // measure 66
0100
0001
1000
0100
,  // measure 67
0010
0010
0010
0000
,  // measure 68
0001
0100
0010
1000
,  // measure 69
0001
0000
0001
0000
0001
0000
0000
1000
,  // measure 70
0100
0010
0001
0100
,  // measure 71
0010
0000
0010
0000
0010
0000
0000
1000
,  // measure 72
0001
0010
0100
1000
,  // measure 73
0001
0000
0001
0000
0001
0000
0000
0100
,  // measure 74
0010
1000
0001
0010
,  // measure 75
0100
0000
0100
0000
0100
0000
0000
1000
,  // measure 76
0001
0100
0010
1000
,  // measure 77
1001
0000
0010
0000
0001
0100
0010
0000
,  // measure 78
1000
0000
0100
0000
1000
0010
0100
0000
,  // measure 79
0001
0000
1000
0000
0100
0010
0001
0000
,  // measure 80
1000
0000
0010
0000
1000
0001
0010
0000
,  // measure 81
1001
0000
0100
0000
0010
1000
0001
0000
,  // measure 82
1000
0000
0100
0000
0010
0001
0100
0000
,  // measure 83
0010
0000
1000
0000
0001
0010
0100
0000
,  // measure 84
1000
0001
0100
0000
0001
1000
0100
0000
,  // measure 85
1001
0000
0000
0000
;

//---------------dance-single - ----------------
#NOTES:
     dance-single:
     :
     Medium:
     7:
     0.576,0.550,0.197,0.270,0.000,435.000,24.000,33.000,0.000,0.000:  // measure 1
0000
0000
0000
0000
,  // measure 2
0000
0000
0000
0000
,  // measure 3
0000
0000
0000
0000
,  // measure 4
0000
0000
0000
0000
,  // measure 5
1001
0100
0010
0001
,  // measure 6
0100
0000
0010
0000
1000
0000
0100
0010
,  // measure 7
0001
1000
0010
1000
,  // measure 8
0100
0010
0001
0100
0010
0000
1001
0000
,  // measure 9
0110
0000
1000
0000
0001
0100
0010
0000
,  // measure 10
1000
0100
0010
0001
0100
0010
1000
0000
,  // measure 11
0001
0000
0010
0000
0100
1000
0010
0000
,  // measure 12
0100
0001
1000
0001
0010
0100
1000
0000
,  // measure 13
1001
0000
0010
0000
0001
0100
0010
0000
,  // measure 14
1000
0100
0001
0000
1000
0010
0100
0000
,  // measure 15
1000
0000
0001
0000
0001
0100
0010
0000
,  // measure 16
1000
0100
0010
0100
1000
0010
0100
0010
,  // measure 17
1000
0000
0001
0100
0010
0000
1000
0000
,  // measure 18
0100
0010
0001
0100
0010
0000
0000
1000
,  // measure 19
0001
0000
1000
0000
0100
0000
0010
0001
,  // measure 20
0000
0001
0100
0000
0010
1000
0100
0000
,  // measure 21
1001
0000
0010
0001
0100
0000
0010
0000
,  // measure 22
1000
0100
0010
0001
0100
0000
0000
0010
,  // measure 23
1000
0000
0001
0000
0010
0000
0100
1000
,  // measure 24
0002
0203
0310
1010
,  // measure 25
2001
0000
3002
0000
1003
0000
0000
0001
,  // measure 26
0100
0010
1000
0001
0020
0000
0130
0000
,  // measure 27
2001
0000
3002
0000
1003
0000
0000
0010
,  // measure 28
0100
0001
1000
0100
0020
0000
0031
0000
,  // measure 29
1020
0000
0230
0000
0301
0000
0000
1000
,  // measure 30
0100
1000
0001
0100
0020
0000
1030
0000
,  // measure 31
0201
0000
0320
0000
1030
0000
0000
0100
,  // measure 32
0001
0100
1000
0100
0010
0001
0100
0000
,  // measure 33
1001
0000
0010
0000
1000
0100
0010
0000
,  // measure 34
0001
0100
0010
1000
0100
0010
0001
0000
,  // measure 35
1000
0000
0010
0000
0100
0001
1000
0000
,  // measure 36
0100
0010
0001
1000
0010
0100
0001
0000
,  // measure 37
1001
0000
0010
0000
0100
1000
0001
0000
,  // measure 38
0100
0010
1000
0000
0001
0010
0100
0000
,  // measure 39
1000
0000
0001
0000
0100
0010
1000
0000
,  // measure 40
0001
0010
0100
1000
0010
0100
0001
0010
,  // measure 41
0100
1000
0100
0000
0100
1000
0100
0000
,  // measure 42
0010
0001
0010
0000
0001
0100
0001
0000
,  // measure 43
1000
0001
1000
0000
1000
0001
1000
0010
,  // measure 44
0000
0010
0100
0000
0001
1000
0100
0000
,  // measure 45
0001
1000
0001
0000
0001
1000
0001
0000
,  // measure 46
0100
0010
0100
0000
0010
1000
0010
0000
,  // measure 47
1000
0100
1000
0000
0001
0010
0001
0000
,  // measure 48
0001
0100
0010
1000
0100
0010
0010
0000
,  // measure 49
2001
0000
3002
0000
1003
0000
0000
0010
,  // measure 50
0100
0001
1000
0100
0020
0000
0031
0000
,  // measure 51
2010
0000
3002
0000
0103
0000
0000
0010
,  // measure 52
1000
0100
0010
0001
0200
0000
0310
0000
,  // measure 53
1002
0000
0023
0000
0130
0000
0000
1000
,  // measure 54
0010
1000
0010
0100
0002
0000
0013
0000
,  // measure 55
1200
0000
0320
0000
0031
0000
0000
1000
,  // measure 56
0010
1000
0100
1000
0001
0010
0100
0000
,  // measure 57
1000
0000
0100
0000
0000
1000
0100
0000
,  // measure 58
0000
0000
0010
0000
0000
0001
0010
0000
,  // measure 59
0000
0000
0001
0000
0000
1000
0001
0000
,  // measure 60
0000
0000
0100
0000
0000
0010
0100
0001
,  // measure 61
1000
0100
0010
0001
1000
0000
0001
0100
,  // measure 62
0010
1000
0100
0010
0001
0000
1000
0010
,  // measure 63
0100
0001
0010
0100
1000
0000
0001
0100
,  // measure 64
0010
0000
1000
0001
0010
0000
0100
0000
,  // measure 65
1001
0000
0001
0000
0001
0000
0000
1000
,  // measure 66
0100
0010
0001
0100
,  // measure 67
0010
0000
0010
0000
0010
0000
0000
1000
,  // measure 68
0100
0010
0001
0100
,  // measure 69
2001
0000
3002
0000
1003
0000
0000
0010
,  // measure 70
0100
0001
1000
0100
0020
0000
0031
0000
,  // measure 71
1020
0000
2030
0000
3010
0000
0000
0100
,  // measure 72
0001
0100
0010
1000
0100
0010
0001
0000
,  // measure 73
0210
0000
0320
0000
0130
0000
0000
1000
,  // measure 74
0001
1000
0010
0100
0001
0010
0100
0000
,  // measure 75
2001
0000
3002
0000
1003
0000
0000
0010
,  // measure 76
0100
0001
0100
0010
1000
0001
0010
0000
,  // measure 77
1100
0000
0001
0000
0100
0010
1000
0000
,  // measure 78
0100
0010
0001
1000
0010
0100
0001
0000
,  // measure 79
1000
0000
0100
0000
0010
0001
0100
0000
,  // measure 80
0010
1000
0100
1000
0010
0100
0001
0000
,  // measure 81
1001
0000
0100
0000
0010
0001
0100
0000
,  // measure 82
0010
1000
0100
0000
0010
0001
0100
0000
,  // measure 83
0010
0000
1000
0000
0001
0010
0100
0000
,  // measure 84
1000
0010
0100
0001
1000
0100
0010
0001
,  // measure 85
1001
0000
0000
0000
;

//---------------dance-single - ----------------
#NOTES:
     dance-single:
     :
     Hard:
     9:
     0.760,0.825,0.499,0.074,0.344,580.000,61.000,9.000,0.000,0.000:  // measure 1
0000
0000
0000
0000
,  // measure 2
0000
0000
0000
0000
,  // measure 3
0000
0000
0000
0000
,  // measure 4
0000
0000
0000
0000
,  // measure 5
1000
0100
0010
0001
0100
0010
1000
0010
,  // measure 6
0100
0001
0010
0100
1000
0000
0000
0001
,  // measure 7
0100
0000
0000
0000
0000
0000
0001
0010
0100
0000
0000
0000
0000
0000
1000
0000
,  // measure 8
0001
0000
0100
0010
0100
0000
0001
0000
0010
0000
0000
0000
1001
0000
0000
0000
,  // measure 9
1100
0000
0100
1000
0000
0100
1000
0000
0010
0000
0100
0000
0001
0000
1000
0000
,  // measure 10
0000
0000
0100
0010
0000
0100
0010
0000
0001
0000
0100
0000
0010
0000
1000
0000
,  // measure 11
0100
0000
0010
0100
0000
0010
0100
0000
1000
0000
0001
0000
0100
0000
0010
0000
,  // measure 12
0000
0000
1000
0100
0000
1000
0001
0000
0010
0000
0001
0000
0100
0000
0010
0000
,  // measure 13
1000
0000
0100
1000
0000
0100
1000
0000
0010
0000
0100
0000
0001
0000
1000
0100
,  // measure 14
0000
0010
0001
0000
1000
0000
0010
0000
0100
0000
0001
0000
0010
0000
0100
0000
,  // measure 15
1000
0000
0100
1000
0000
0100
1000
0000
0001
0000
0100
0000
0010
0000
1000
0100
,  // measure 16
0000
0100
0010
0000
0001
0000
1000
0010
0000
0010
0100
0000
0001
0000
1000
0000
,  // measure 17
0001
0100
0010
1000
0100
0000
1000
0010
,  // measure 18
1000
0001
0010
0100
1000
0000
0000
0001
,  // measure 19
0100
0001
0010
0100
1000
0000
0001
0101
,  // measure 20
0000
0101
0101
0000
1001
1001
1001
1000
,  // measure 21
0001
0100
0010
1000
0001
0000
1000
0100
,  // measure 22
0010
0001
0100
0010
1000
0000
0000
0001
,  // measure 23
0010
0100
0010
0001
0100
0000
0010
1000
,  // measure 24
0011
1100
0101
1010
,  // measure 25
1001
0000
0110
0000
1001
0000
0001
0100
,  // measure 26
1000
0100
0001
0010
0200
0000
1300
0000
,  // measure 27
1001
0000
0110
0000
1001
0000
1000
0100
,  // measure 28
0001
0100
1000
0010
0200
0000
0301
0000
,  // measure 29
1001
0000
1100
0000
0101
0000
0010
1000
,  // measure 30
0100
0010
0001
0100
0020
0000
1030
0000
,  // measure 31
0011
0000
1100
0000
0101
0000
0010
1000
,  // measure 32
0001
0010
0001
0100
0010
1000
0100
0000
,  // measure 33
1000
0000
0001
1000
0000
0001
1000
0000
0010
0000
0100
0000
0001
0000
1000
0000
,  // measure 34
0000
0000
0100
0010
0000
0100
1000
0000
0001
0000
0100
0000
0010
0000
0100
0000
,  // measure 35
0001
0000
1000
0001
0000
1000
0001
0000
1000
0000
0100
0000
0001
0000
0100
0000
,  // measure 36
0000
0000
0010
0001
0000
0010
0100
0000
1000
0000
0010
0000
0100
0000
0001
0000
,  // measure 37
1000
0000
0100
1000
0000
0100
1000
0000
0010
0000
0100
0000
0001
0000
1000
0100
,  // measure 38
0000
0010
0001
0000
1000
0000
0010
0000
1000
0000
0100
0000
0001
0000
0100
0000
,  // measure 39
1000
0000
0001
0100
0000
0001
1000
0000
0010
0000
1000
0000
0100
0000
0010
0001
,  // measure 40
0000
0001
0100
0000
0010
0000
1000
0100
0000
0100
0010
0000
0001
0000
1000
0000
,  // measure 41
0010
0100
0010
0100
0010
0000
0100
0000
0010
0100
0000
0100
0010
0000
1000
0000
,  // measure 42
0001
0010
0001
0010
0001
0000
0010
0000
0100
1000
0000
1000
0100
0000
0010
0000
,  // measure 43
0001
1000
0001
1000
0001
0000
1000
0000
0001
1000
0000
1000
0001
0000
0110
0000
,  // measure 44
0000
0110
0110
0000
1010
1010
1010
1000
,  // measure 45
0001
0010
0001
0010
0001
0000
1000
0000
0010
0100
0000
0100
0001
0000
1000
0000
,  // measure 46
0100
0010
0100
0010
0100
0000
1000
0000
0001
0100
0000
0100
0010
0000
1000
0000
,  // measure 47
0100
0010
0100
0010
0100
0000
0010
0000
0001
0100
0000
0100
0010
0000
1000
0000
,  // measure 48
0001
0010
0001
0010
0001
0000
0100
0000
0010
0000
1001
0000
1001
0000
0000
0000
,  // measure 49
1100
0000
0101
0000
1100
0000
0010
1000
,  // measure 50
0100
0001
0100
1000
0020
0000
0130
0000
,  // measure 51
0101
0000
1100
0000
0101
0000
0010
0001
,  // measure 52
0100
1000
0100
0001
0020
0000
0130
0000
,  // measure 53
1001
0000
0110
0000
1001
0000
0010
1000
,  // measure 54
0100
0010
0001
0100
0020
0000
1030
0000
,  // measure 55
0011
0000
1100
0000
0101
0000
0010
1000
,  // measure 56
0001
0010
0001
0100
0010
1000
0100
0000
,  // measure 57
0001
0100
0010
1000
0100
0010
0001
0010
,  // measure 58
0100
1000
0010
0100
0001
0000
0000
1000
,  // measure 59
0100
0000
0000
0000
0000
0000
1000
0010
0100
0000
0000
0000
0000
0000
0001
0000
,  // measure 60
1000
0000
0100
0010
0100
0000
1000
0000
0001
0000
0000
0000
0000
0000
0100
0000
,  // measure 61
1001
0010
1000
0100
0001
0000
1000
0010
,  // measure 62
0001
0100
1000
0100
0001
0000
1000
0100
,  // measure 63
0001
0100
0010
0001
0100
0000
0010
1000
,  // measure 64
1001
0000
0010
0001
0100
0000
1010
0000
,  // measure 65
0011
0000
0001
0000
0001
0000
0000
1000
,  // measure 66
0010
0100
0010
1000
0200
0000
0310
0000
,  // measure 67
0001
0000
0001
0000
0001
0000
0000
0100
,  // measure 68
1000
0100
0001
1000
0200
0000
0310
0000
,  // measure 69
1001
0000
0110
0000
1001
0000
1000
0100
,  // measure 70
0001
0100
1000
0010
0200
0000
0301
0000
,  // measure 71
1100
0000
0101
0000
1010
0000
1000
0100
,  // measure 72
0010
0001
0100
0001
0010
0100
1000
0000
,  // measure 73
0101
0000
1010
0000
1100
0000
0010
0001
,  // measure 74
1000
0010
1000
0100
0001
0100
1000
0000
,  // measure 75
0101
0000
1010
0000
1100
0000
0010
0001
,  // measure 76
0100
0001
0010
0100
1000
0010
0100
0000
,  // measure 77
0001
0000
0001
1000
0000
1000
0010
0000
0100
0000
0001
0000
0010
0000
0100
0000
,  // measure 78
0000
0000
1000
0001
0000
0001
0010
0000
0100
0000
1000
0000
0001
0000
0100
0000
,  // measure 79
0010
0000
0010
1000
0000
1000
0100
0000
0010
0000
0001
0000
1000
0000
0010
0000
,  // measure 80
0000
0000
0100
0001
0000
0001
0010
0000
0100
0000
0001
0000
0100
0000
1000
0000
,  // measure 81
0001
0000
0001
0100
0000
0100
0010
0000
1000
0000
0100
0000
0010
0000
0001
0100
,  // measure 82
0000
0100
0010
0000
1000
0000
0100
0000
0010
0000
0001
0000
0100
0000
0010
0000
,  // measure 83
1000
0000
1000
0001
0000
0001
0010
0000
0100
0000
1000
0000
0010
0000
0100
0001
,  // measure 84
0000
0001
0010
0000
0100
0000
1000
0001
0000
0001
0100
0000
0010
0000
1000
0000
,  // measure 85
1001
0000
0000
0000
;

//---------------dance-single - ----------------
#NOTES:
     dance-single:
     :
     Challenge:
     11:
     1.000,1.000,1.000,0.000,0.962,821.000,186.000,0.000,0.000,0.000:  // measure 1
0000
0000
0000
0000
,  // measure 2
0000
0000
0000
0000
,  // measure 3
0000
0000
0000
0000
,  // measure 4
0000
0000
0000
0000
,  // measure 5
1100
0010
0101
1000
0110
0001
1010
0001
,  // measure 6
0110
1000
0101
0010
1001
0000
1000
1100
,  // measure 7
1001
0000
0000
0000
0000
0000
0000
0000
0000
0000
0000
0000
1000
0000
0000
0000
0000
0000
0100
0000
0000
0010
0000
0000
1001
0000
0000
0000
0000
0000
0000
0000
0000
0000
0000
0000
0100
0000
0000
0000
0000
0000
0010
0000
1000
0000
0010
0000
,  // measure 8
1000
0000
0000
0100
0000
0000
0010
0000
0000
0001
0000
0000
1000
0000
0000
0010
0000
0000
0100
0000
0000
0001
0000
0000
1000
0000
0000
0001
0000
0000
0010
0000
0000
0100
0000
0000
1000
0000
0010
0000
0100
0000
0001
0000
0010
0000
0100
0000
,  // measure 9
1001
0000
0100
1000
0000
0100
1000
0010
0100
0001
0100
0010
1000
0100
0010
0001
,  // measure 10
0100
0000
0010
1000
0000
0100
0010
0001
1000
0010
1000
0100
0010
0000
0001
0000
,  // measure 11
0100
0000
0010
0100
0000
0010
0100
0001
1000
0100
1000
0010
0100
0001
0010
0100
,  // measure 12
1000
0000
0010
0100
0000
0001
1000
0100
0010
0100
1000
0001
0100
0000
0010
0000
,  // measure 13
1001
0000
0001
1000
0000
0001
1000
0010
0100
0001
1000
0100
0010
0000
0001
0100
,  // measure 14
0000
0010
1000
0001
0010
0100
0010
0001
1000
0001
0100
0010
1000
0100
0010
0001
,  // measure 15
1000
0000
0010
1000
0000
0001
0010
0001
1000
0010
0100
0010
1000
0000
0100
0010
,  // measure 16
0000
0001
0100
0010
1000
0100
0010
0001
0000
0001
0100
0010
1000
0100
0010
0001
,  // measure 17
1001
0100
0010
1000
0011
0100
1000
0010
,  // measure 18
0101
1000
0010
0100
1001
0010
0100
1000
,  // measure 19
0101
0010
1000
0001
0110
1000
0001
0101
,  // measure 20
0000
0101
0101
0000
1001
1001
1001
0000
,  // measure 21
1100
0010
0100
0001
1100
0010
0001
0100
,  // measure 22
1001
0010
1000
0001
0110
1000
0001
0100
,  // measure 23
1010
0000
0000
0001
0000
0000
0010
0000
0000
0100
0000
0000
1001
0000
0000
0010
0000
0000
0100
0000
0000
0001
1000
0001
,  // measure 24
1000
0010
0100
0001
1000
0100
0010
0001
0100
0010
1000
0001
0110
0000
0000
0000
,  // measure 25
1001
0010
1001
0100
1001
0010
0100
0011
,  // measure 26
1001
1010
0101
1010
1100
0010
0101
0010
,  // measure 27
1001
0100
1001
0010
1001
0100
0010
1100
,  // measure 28
0011
0101
1010
1001
0110
0001
1100
0010
,  // measure 29
0101
1000
0110
0001
1100
0010
0001
1100
,  // measure 30
0101
0110
1001
1010
0011
0100
1001
0010
,  // measure 31
0101
1000
0110
0001
1100
0010
0001
1100
,  // measure 32
1001
0000
0000
0010
0000
0000
0100
0000
0000
0001
0000
0000
1000
0000
0000
0100
0000
0000
0010
0000
0000
0001
0000
0000
0100
0000
0000
0010
0000
0000
1000
0000
0000
0100
0000
0000
1000
0000
0010
0000
0100
0000
0001
0000
0010
0000
0100
0000
,  // measure 33
1001
0000
0100
1000
0000
0100
1000
0010
0100
0001
1000
0001
0010
0100
1000
0010
,  // measure 34
0100
0000
0001
0010
0000
0001
1000
0010
1000
0100
0010
0001
0100
0000
0010
0000
,  // measure 35
1000
0000
0001
1000
0000
0001
1000
0010
0100
0001
0010
0100
1000
0001
0100
0010
,  // measure 36
1000
0000
0100
0010
0000
0001
1000
0010
0100
0001
0100
0010
1000
0000
0100
0000
,  // measure 37
1001
0000
0010
0001
0000
0010
0001
1000
0010
0100
0001
0010
0100
0000
1000
0001
,  // measure 38
0000
0100
0010
1000
0100
0010
0001
1000
0010
1000
0100
0010
0001
0100
0010
1000
,  // measure 39
0001
0000
0100
0001
0000
0010
0001
0010
0100
1000
0001
1000
0010
0000
0100
0001
,  // measure 40
0000
1000
0100
0010
0001
0100
0010
1000
0000
1000
0100
0010
0001
0100
0010
1000
,  // measure 41
0001
0010
0100
1000
0001
0000
0100
0000
0010
1000
0000
0001
0010
0000
0100
0000
,  // measure 42
1000
0010
0100
0001
0010
0000
0100
0000
1000
0001
0000
0100
0010
0000
1000
0000
,  // measure 43
0100
0010
0001
0100
0010
0000
1000
0000
0100
0010
0000
0001
1000
0000
0110
0000
,  // measure 44
0000
0110
0110
0000
1001
1001
1001
0000
,  // measure 45
0011
0100
1000
0010
0100
0000
0001
0000
1000
0100
0000
1000
0001
0000
0010
0000
,  // measure 46
0001
0100
0010
1000
0001
0000
0010
0000
0100
1000
0000
0001
0100
0000
0010
0000
,  // measure 47
1000
0000
0000
0100
0000
0000
0010
0000
0000
0001
0000
0000
0100
0000
0000
0000
0000
0000
0010
0000
0000
0000
0000
0000
1000
0000
0000
0100
0000
0000
0000
0000
0000
0010
0000
0000
0001
0000
0000
0000
0000
0000
1000
0000
0001
0000
1000
0000
,  // measure 48
0001
0100
0010
1000
0100
0010
0100
1000
0101
0000
1010
0000
1010
0000
0000
0000
,  // measure 49
1001
0010
0101
0010
1001
0100
1000
0110
,  // measure 50
0011
1100
0101
1010
1001
0010
0101
1000
,  // measure 51
0110
0001
1010
0001
1100
0010
0100
0011
,  // measure 52
1100
1010
0101
1001
0110
0001
1100
0010
,  // measure 53
0101
1000
0110
0001
1100
0010
0001
1010
,  // measure 54
0101
1100
0011
1001
0110
1000
0101
0010
,  // measure 55
1001
0100
0011
1000
0110
0001
1000
0011
,  // measure 56
1000
0010
0100
0001
1000
0100
0010
0001
0100
0010
1000
0100
0011
0000
0000
0000
,  // measure 57
1001
0010
1100
0010
0001
1100
1010
0100
,  // measure 58
0001
0010
1100
0010
0001
1000
1000
0100
,  // measure 59
0010
0000
0000
0000
1000
0000
0100
0010
0001
0000
1000
0000
1000
0000
0010
0000
,  // measure 60
0100
0000
0100
0001
1100
0000
0001
0000
0100
0000
1000
0000
1000
0000
0001
0000
,  // measure 61
1001
0100
1010
0001
0110
0000
1010
0001
,  // measure 62
0110
1000
0011
0100
1001
0000
1010
0001
,  // measure 63
0110
1000
0101
0010
1001
0000
1100
0010
,  // measure 64
1001
0000
0000
0010
0000
0000
0100
0000
0000
1000
0000
0000
0001
0000
0000
0100
0000
0000
0010
0000
0000
1000
0000
0000
0100
0000
0000
0010
0000
0000
0001
0000
0000
0100
0000
0000
0001
0000
0010
0000
0100
0000
1000
0000
0010
0000
0100
0000
,  // measure 65
1001
0000
1001
0000
0001
1000
1100
0010
,  // measure 66
0001
0100
1010
0001
0100
1000
1010
0000
,  // measure 67
0001
0000
1001
0000
0001
1000
1000
0100
,  // measure 68
0010
0001
1010
0001
0100
1000
1010
0000
,  // measure 69
1001
0100
1001
0010
1001
0100
0010
1100
,  // measure 70
0011
0101
1010
1001
0110
0001
1100
0010
,  // measure 71
1001
0100
1001
0010
1001
0100
0010
1100
,  // measure 72
0011
0101
1010
1001
0011
1100
0110
0001
,  // measure 73
1010
0100
1010
0001
1010
0100
0001
1100
,  // measure 74
0011
0101
1001
1010
1100
0011
0101
0010
,  // measure 75
1001
0100
1001
0100
1001
0010
0001
0110
,  // measure 76
1010
1001
0101
0110
1001
1100
0011
0100
,  // measure 77
1001
0000
1000
0001
0000
1000
0001
0100
0010
1000
0010
0100
0001
0010
0100
1000
,  // measure 78
0010
0000
0100
0001
0000
0100
0010
1000
0100
0010
0001
1000
0010
0000
0100
0000
,  // measure 79
0001
0000
1000
0001
0000
1000
0001
0010
0100
1000
0010
0100
0001
1000
0100
0010
,  // measure 80
0001
0000
1000
0010
0000
1000
0010
1000
0001
0010
0100
1000
0001
0000
0100
0000
,  // measure 81
1001
0000
0010
1000
0000
0010
1000
0100
0010
0001
0100
0010
1000
0000
0001
1000
,  // measure 82
0000
0001
1000
0010
1000
0100
1000
0010
0100
0001
1000
0100
0010
0001
0100
0010
,  // measure 83
1000
0000
0001
1000
0000
0001
1000
0100
0010
0001
0100
0010
1000
0000
0100
1000
,  // measure 84
0000
0001
0100
0010
1000
0100
0010
0001
0000
0001
0100
0010
1000
0001
0010
0100
,  // measure 85
1001
0000
0000
0000
;
