#TITLE:Rapid Stream;
#SUBTITLE:;
#ARTIST:HANA Wakusei Music;
#TITLETRANSLIT:;
#SUBTITLETRANSLIT:;
#ARTISTTRANSLIT:;
#CREDIT:;
#BANNER:yousuckdickvk4.png;
#BACKGROUND:rapidfagetkm5-bg.png;
#LYRICSPATH:;
#CDTITLE:!kommi-cdtitle.png;
#MUSIC:rapidstream.mp3;
#OFFSET:-0.300;
#SAMPLESTART:44.740;
#SAMPLELENGTH:12.500;
#SELECTABLE:YES;
#BPMS:0.000=189.000,180.000=195.000,190.000=189.000,411.000=195.000,421.000=189.000;
#STOPS:189.938=0.010
,230.917=0.010
,420.938=0.010
,461.938=0.010
;
#BGCHANGES:;
// cache tags:
#FIRSTBEAT:0.000;
#LASTBEAT:462.125;
#SONGFILENAME:Songs/KBU/Rapid Stream (Kommisar)/bs.sm;
#HASMUSIC:1;
#HASBANNER:1;
#MUSICLENGTH:157.553;
// end cache tags

//---------------dance-single - ----------------
#NOTES:
     dance-single:
     :
     Hard:
     12:
     1.000,1.000,1.000,0.743,0.444,975.000,333.000,117.000,4.000,77.000:
1011
0000
1100
0010
1001
0010
1001
0011
,
0000
1100
0000
0011
1011
0000
1100
0010
,
1001
0000
0100
0000
0011
0000
1010
0000
0000
0000
0011
1000
0111
0000
0000
0000
,
1100
1101
0110
0001
1100
1001
0000
1100
,
0010
1001
1101
0000
1110
0111
0000
0110
,
0011
0000
0000
0000
1001
0000
0000
0000
0011
0000
0100
0000
1011
0100
0010
0100
,
1000
0000
0100
0000
0010
0000
0100
0000
0012
0003
0000
0000
1100
0000
0100
0000
,
0010
0000
0100
0000
2010
3000
0001
0000
1200
0300
0010
0000
1001
0000
0100
0000
,
0010
0000
0001
0000
2010
3000
0000
0000
0110
0000
1000
0000
0100
0000
0010
0000
,
2001
3000
0010
0000
1200
0300
0001
1100
0011
0000
0001
0010
1100
0000
0001
0000
,
0010
0100
1000
0010
1100
0100
0010
0001
,
1110
0000
0111
0000
1110
0000
1011
0000
1110
0000
1101
0010
1001
0000
0100
0000
,
0010
0000
0100
0000
0012
0003
0000
0000
1100
0000
1000
0000
0100
0000
0010
0000
,
0102
0003
1000
0000
0021
0030
0100
0000
1001
0000
0100
0000
0010
0000
1000
0000
,
0012
0003
0000
0000
0011
0000
0100
0000
0010
0000
0001
0000
0120
0030
1000
0000
,
0201
0300
0010
1100
0011
0000
0001
0010
1100
0000
0001
0000
0010
0000
0100
0000
,
1000
0010
1001
0100
0010
0001
1110
1011
,
1101
0000
0000
0000
1011
0000
0000
0000
1110
0000
0000
0000
1011
0000
0100
0000
0012
0003
0000
0000
0100
0000
0000
0000
0010
0000
0000
0000
0002
0003
0000
0000
,
1000
0000
0000
0000
0001
0000
0000
0000
0010
0000
0000
0000
1000
0000
0000
0000
0200
0300
0000
0000
0010
0000
0000
0000
0002
0003
0000
0000
0010
0000
0000
0000
,
0100
0000
0000
0000
2000
3000
0000
0000
0001
0000
0000
0000
0010
0000
0000
0000
0001
0000
0000
0000
0100
0000
0000
0000
0020
0030
0000
0000
0001
0000
0000
0000
,
0100
0000
0000
0000
2000
3000
0000
0000
0020
0030
0000
0000
0000
0000
0000
0000
0001
0000
0000
0000
0020
0030
0000
0000
0100
0000
0000
0000
1000
0000
0000
0000
,
0010
0000
0000
0000
0100
0000
0000
0000
2000
3000
0000
0000
0010
0000
0000
0000
1100
0000
0000
0000
0001
0000
0000
0000
0200
0000
0000
0000
0010
0000
0000
0000
,
1001
0000
0300
0000
0020
0000
0000
0000
0100
0000
0030
0000
0002
0000
0000
0003
1020
0000
0000
0000
1001
0000
0030
0000
0200
0000
0000
0000
0010
0000
0300
0000
,
1102
0003
0010
0000
0100
0000
2011
3000
0100
0000
1000
0000
0121
0030
0001
1100
,
0011
0000
0000
0000
0101
0000
1000
0000
0001
0000
0110
1000
0101
0000
0100
0000
,
1010
0000
0001
0000
0100
0000
1001
0000
0200
0000
0000
0300
0011
0000
1100
0000
,
0011
0000
0110
0000
1000
0000
1000
0000
0110
0000
1000
0000
0010
0000
0100
0010
,
1001
0000
0000
0000
0010
0000
0000
0000
0101
0000
0000
0000
1000
0000
0000
0000
0100
0000
0000
0000
1010
0000
0000
0000
0002
0000
0000
0000
1100
0003
0000
0000
,
1020
0030
0100
0000
0011
0000
2100
3000
0011
0000
0100
0000
1001
0000
0100
0000
,
0010
0000
0001
0000
1010
0000
0200
0300
1000
0000
0100
0000
1000
0000
0102
0003
,
0010
0000
0001
0000
1020
0030
0100
0000
0010
0000
0100
0000
1001
0000
0020
0030
,
0100
0000
0010
0000
0100
0000
2010
3000
0001
0000
0010
0000
1001
0100
0010
0001
,
1100
0010
0100
1000
0110
0001
0010
0100
0011
1000
0100
0010
1001
0000
1001
0000
,
0010
2202
0000
0000
0000
0000
0000
0000
,
0000
0000
0000
0000
3303
0000
0001
1000
0001
0010
0100
1000
0110
0001
0010
0100
,
1001
0100
0011
0100
0002
0013
0110
1000
,
0010
0000
0001
0000
0010
0000
0100
0000
2000
0000
0011
0000
0100
0000
3010
0100
,
1000
0100
0010
0001
1010
0100
1000
0100
1001
0000
0100
0000
0011
0000
0100
0000
,
0002
0000
0100
0003
1010
0000
0100
0000
0010
0000
0001
0000
1100
0010
0001
0010
,
0100
0010
2001
0000
0010
0000
0100
0000
0010
0000
0001
3000
0111
0000
0010
0000
,
1000
0000
0100
0000
0011
0000
0100
0000
0002
0000
0010
0003
0110
0000
1000
0000
,
0010
0001
1010
0100
2000
0011
0100
3010
,
1000
0001
0010
0100
1001
0100
0010
0001
1100
0000
0100
0000
0011
0000
1000
0000
,
0002
0000
0013
0000
0110
0000
1000
0000
0001
0000
0100
0000
0011
0100
1000
0000
,
0002
0000
1100
0000
0100
0003
0010
0000
0100
0000
1000
0000
0121
0030
0001
0000
,
1000
0000
0000
0000
0000
0000
0000
0000
0100
0000
0000
0000
0000
0000
0000
0000
0010
0000
0000
0000
0000
0000
0000
0000
0100
0000
0000
0000
0000
0000
0000
0000
0010
0000
0000
0000
0000
0000
0000
0001
0000
0000
0000
0000
0000
0000
0100
0000
0000
0000
0000
0000
0000
0000
0010
0000
0000
0000
0000
0000
0000
0001
0000
0000
,
0000
0000
0000
0000
0000
0000
0000
0000
0000
0000
0000
0000
1000
0000
0000
0000
0000
0000
0000
0000
0000
0000
0000
0000
0000
0000
0000
0000
0000
0000
0000
0000
0000
0100
0000
0000
0000
0000
0000
0000
0000
0000
0000
0000
0000
0000
0000
0000
0000
0000
0000
0000
0000
0000
0010
0000
0000
0000
0000
0000
0000
0000
0000
0000
0000
0000
0000
0000
0000
0000
0000
0000
0000
0000
0000
0100
0000
0000
0000
0000
0000
0000
0000
0000
0000
0000
0000
0000
0000
0000
0000
0000
0000
0000
0000
0000
0010
0000
0000
0000
0000
0000
0000
0000
0000
0000
0000
0000
0000
0000
0000
0000
0001
0000
0000
0000
0000
0000
0000
0000
0000
0000
0000
0000
0000
0000
0000
0000
0000
0000
0000
0000
1000
0000
0000
0000
0000
0000
0000
0000
0000
0000
0000
0000
0000
0000
0000
0000
0000
0000
0000
0000
0100
0000
0000
0000
0000
0000
0000
0000
0000
0000
0000
0000
0000
0000
0000
0000
0000
0000
0000
0010
0000
0000
0000
0000
0000
0000
0000
0000
0000
0000
0000
0000
0000
0000
0000
0000
0000
0100
0000
0000
,
0000
0000
0000
0000
0000
0000
0000
0000
0000
0000
0000
0000
0000
0000
0000
0010
0000
0000
0000
0000
0000
0000
0000
0000
0000
0000
0000
0000
0000
0000
0000
0000
0001
0000
0000
0000
0000
0000
0000
0000
0000
0000
0000
0000
0000
0000
0000
0000
0000
0000
0000
1000
0000
0000
0000
0000
0000
0000
0000
0000
0000
0000
0000
0000
0000
0000
0000
0000
0000
0100
0000
0000
0000
0000
0000
0000
0000
0000
0000
0000
0000
0000
0000
0000
0010
0000
0000
0000
0000
0000
0000
0000
0000
0000
0000
0000
1101
0000
0000
0000
0000
0000
0000
0000
0000
0000
0000
0000
0000
0000
0000
0000
0000
0000
0000
0000
0000
0000
0000
0000
0010
0000
0000
0000
0000
0000
0000
0000
0000
0000
0000
0000
0000
0000
0000
0000
0000
0000
0000
0000
0000
0000
0000
0000
0101
0000
0000
0000
0000
0000
0000
0000
0000
0000
0000
0000
0000
0000
0000
0000
0000
0000
0000
0000
0000
0000
0000
0000
0020
0000
0000
0000
0000
0000
0000
0000
0000
0000
0000
0000
0030
0000
0000
0000
0000
0000
0000
0000
0000
0000
0000
0000
,
1001
0000
0010
0000
1000
0000
0011
0000
0100
0000
1010
0000
1001
0010
0100
1000
,
0011
1000
0100
0010
1101
0000
0010
0000
1100
0000
0002
0003
0110
0000
0001
0000
,
0100
0000
1010
0000
0001
0000
0110
0000
1001
0100
0010
0001
1100
0001
0010
0100
,
1011
0000
0100
0000
1001
0000
0020
0030
0101
0000
1000
0000
0010
0000
0101
0000
,
0010
0000
1100
0000
1001
0100
0010
0001
1010
0100
0010
0001
1110
0000
0001
0000
,
0110
0000
0002
0003
1010
0000
0100
0000
0001
0000
1100
MM00
0000
0000
0001
0000
,
0010
0000
0100
0000
1000
0000
0010
0000
0100
0000
0010
0000
1002
0003
0100
0000
,
0010
0100
0011
0100
1000
1000
0100
0001
,
0101
1000
0111
0000
0001
1110
0011
0000
,
0010
0000
1100
0000
1100
0000
0010
0100
0012
0003
0100
0000
1011
0000
0000
0000
,
1100
0010
0101
0010
1001
0011
0000
1010
,
0000
0011
1101
0000
1100
0010
1001
0100
,
0011
0000
1010
0000
0000
0000
1100
0001
1110
0000
0000
0000
1100
0000
1011
0000
,
0110
0001
1100
0101
0000
1100
0010
1001
,
1011
0000
1110
1101
0000
0110
0011
0000
,
1001
0000
0000
0000
0101
0000
0010
0000
1110
0001
0010
0001
1000
0000
0100
0000
,
0010
0000
0100
0000
0012
0003
0000
0000
1010
0000
0100
0000
0010
0000
0001
0000
,
1200
0300
0001
0000
2010
3000
0100
0000
1001
0000
0100
0000
0010
0000
0001
0000
,
2100
3000
0000
0000
0101
0000
1000
0000
0100
0000
0010
0000
1002
0003
0010
0000
,
2100
3000
0010
1100
0011
0000
0001
0010
1100
0000
0001
0000
0010
0000
0100
0000
,
1000
0010
1001
0100
0010
0001
1110
1011
,
0111
0000
1101
0000
1110
0000
1011
0100
1001
0000
0100
0000
0010
0000
0100
0000
,
1002
0003
0000
0000
1010
0000
1000
0000
0100
0000
0010
0000
0201
0300
1000
0000
,
0012
0003
0100
0000
1001
0000
0100
0000
0010
0000
1000
0000
0102
0003
0000
0000
,
0110
0000
1000
0000
0100
0000
0010
0000
0201
0300
1000
0000
0012
0003
0100
0011
,
1100
0000
0001
0010
1100
0000
0001
0000
0010
0000
0100
0000
1000
0000
0010
0000
,
1001
0100
0010
0001
1110
1101
1011
1110
,
0111
0000
0000
0000
1011
0000
0100
0000
2001
3000
0000
0000
0100
0000
0000
0000
0010
0000
0000
0000
0002
0003
0000
0000
1000
0000
0000
0000
0001
0000
0000
0000
,
0010
0000
0000
0000
1000
0000
0000
0000
0200
0300
0000
0000
0010
0000
0000
0000
0002
0003
0000
0000
0010
0000
0000
0000
0100
0000
0000
0000
2000
3000
0000
0000
,
0001
0000
0000
0000
0010
0000
0000
0000
0001
0000
0000
0000
0100
0000
0000
0000
0020
0030
0000
0000
0001
0000
0000
0000
0100
0000
0000
0000
2000
3000
0000
0000
,
0020
0030
0000
0000
0000
0000
0000
0000
0001
0000
0000
0000
0020
0030
0000
0000
0100
0000
0000
0000
1000
0000
0000
0000
0010
0000
0000
0000
0100
0000
0000
0000
,
2000
3000
0000
0000
0010
0000
0000
0000
1100
0000
0000
0000
0001
0000
0000
0000
0200
0000
0000
0000
0010
0000
0000
0000
1001
0000
0300
0000
0020
0000
0000
0000
,
1000
0000
0030
0000
0002
0000
0000
0003
1020
0000
0000
0000
1001
0000
0030
0000
0200
0000
0000
0000
0010
0000
0300
0000
1012
0000
0003
0000
0100
0000
0000
0000
,
0010
0000
2101
3000
0010
0000
1000
0000
0121
0030
1000
0011
1100
0000
0000
0000
,
0101
0000
1000
0000
0001
0000
0110
0001
1100
0000
0001
0000
1010
0000
0001
0000
,
0100
0000
1001
0000
0200
0000
0000
0300
0110
0000
1010
0000
0011
0000
0110
0000
,
1000
0000
1000
0000
0110
0000
1000
0000
0010
0000
0100
1000
0011
0000
1000
0000
,
0101
0000
0000
0000
1000
0000
0000
0000
0100
0000
0000
0000
1010
0000
0000
0000
0002
0000
0000
0000
1100
0003
0000
0000
1020
0000
0030
0000
0100
0000
0000
0000
,
0011
0000
2100
3000
0011
0000
0100
0000
1001
0000
0100
0000
0010
0000
0001
0000
,
1010
0000
0200
0300
1000
0000
0100
0000
1000
0000
0102
0003
0010
0000
0001
0000
,
1020
0030
0100
0000
0010
0000
0100
0000
1001
0000
0020
0030
0100
0000
0010
0000
,
0100
0000
2010
3000
0001
0000
0010
0000
1001
0010
0100
1000
0011
0100
0010
0001
,
0110
1000
0100
0010
1100
0001
0010
0100
1001
0000
1001
0000
0100
0000
2022
0000
,
0000
0000
0000
0000
,
3033
0000
0100
0010
0001
0010
0100
1000
0011
1000
0100
0010
1001
0000
0100
0000
,
0011
0100
0002
0013
0101
1000
0010
0001
,
0010
0000
0100
0000
2000
0000
0011
0000
0100
0000
3010
0100
1000
0001
1000
0001
,
0110
1000
0100
0010
1001
0000
0100
0000
1010
0000
0100
0000
0002
0000
0103
0000
,
1001
0000
0100
0000
0010
0000
0001
0000
0110
1000
0001
1000
0100
0010
2001
0000
,
0010
0000
0100
0000
0001
0000
0010
3000
1101
0000
0010
0000
1000
0000
0100
0000
,
1001
0000
0100
0000
0002
0000
0010
0003
0110
0000
1000
0000
0010
0000
0001
0000
,
1010
0000
0100
0000
2000
0000
0011
0000
0100
0000
3010
0000
1000
0100
0010
0001
,
1100
0010
0001
0010
1100
0000
0100
0000
0011
0000
1000
0000
0002
0000
0013
0000
,
0101
0000
1000
0000
0001
0000
0100
0000
0011
0100
1000
0000
0002
0000
1010
0000
,
0100
0003
0010
0000
0100
0000
1000
0000
0121
0030
0100
0000
1000
0000
0100
0000
,
0010
0000
0000
0000
0000
0000
0000
0000
0100
0000
0000
0000
0000
0000
0000
0000
0010
0000
0000
0000
0000
0000
0000
0001
0000
0000
0000
0000
0000
0000
0100
0000
0000
0000
0000
0000
0000
0000
0010
0000
0000
0000
0000
0000
0000
0001
0000
0000
0000
0000
0000
0000
1000
0000
0000
0000
0000
0000
0000
0100
0000
0000
0000
0000
,
0000
0000
0000
0000
0000
0000
0010
0000
0000
0000
0000
0000
0000
0000
0000
0000
0000
0000
0000
0000
0000
0000
0000
0000
0000
0000
0000
0100
0000
0000
0000
0000
0000
0000
0000
0000
0000
0000
0000
0000
0000
0000
0000
0000
0000
0000
0000
0000
0010
0000
0000
0000
0000
0000
0000
0000
0000
0000
0000
0000
0000
0000
0000
0000
0001
0000
0000
0000
0000
0000
0000
0000
0000
0000
0000
0000
0000
0000
0000
0000
0000
0000
0000
0000
1000
0000
0000
0000
0000
0000
0000
0000
0000
0000
0000
0000
0000
0000
0000
0000
0000
0000
0000
0000
0100
0000
0000
0000
0000
0000
0000
0000
0000
0000
0000
0000
0000
0000
0000
0000
0000
0000
0000
0010
0000
0000
0000
0000
0000
0000
0000
0000
0000
0000
0000
0000
0000
0000
0000
0000
0000
0100
0000
0000
0000
0000
0000
0000
0000
0000
0000
0000
0000
0000
0000
0000
0000
0000
0000
0010
0000
0000
0000
0000
0000
0000
0000
0000
0000
0000
0000
0000
0000
0000
0000
0000
0001
0000
0000
0000
0000
0000
0000
0000
0000
0000
0000
0000
0000
0000
0000
0000
,
0000
1000
0000
0000
0000
0000
0000
0100
0000
0000
0000
0000
0010
0000
0000
0000
1101
0000
0000
0000
0000
0000
0000
0000
0010
0000
0000
0000
0000
0000
0000
0000
1001
0000
0000
0000
0000
0000
0000
0000
0200
0000
0000
0000
0300
0000
0000
0000
0011
0000
0000
0000
0000
0000
0000
0000
0100
0000
0000
0000
0000
0000
0000
0000
,
1000
0000
0011
0000
0100
0000
1010
0000
1001
0010
0100
1000
0011
1000
0100
0010
,
1101
0000
0010
0000
1100
0000
0002
0003
0110
0000
0001
0000
0100
0000
1010
0000
,
0001
0000
0110
0000
1001
0100
0010
0001
1100
0001
0010
0100
1011
0000
0100
0000
,
1001
0000
0020
0030
0101
0000
1000
0000
0010
0000
0101
0000
0010
0000
1100
0000
,
1001
0100
0010
0001
1010
0100
0010
0001
1110
0000
0001
0000
0110
0000
0002
0003
,
1010
0000
0100
0000
0001
0000
1010
M0M0
0000
0000
0001
0000
0010
0000
0100
0000
,
1000
0000
0010
0000
0100
0000
0010
0000
1002
0003
0100
0000
0010
0000
0100
0000
,
0011
0100
1000
1000
0100
0001
0101
1000
,
0111
0000
0010
0111
1100
0000
0010
1001
,
1001
0000
0000
0000
0010
0000
0100
0000
2010
0000
3000
0000
0100
0000
0000
0000
2022
3033
0000
0000
0000
0000
0000
0000
0000
0000
0000
0000
0000
0000
0000
0000
;
