#TITLE:Beyond The Gates Of Infinity;
#SUBTITLE:;
#ARTIST:Rhapsody;
#TITLETRANSLIT:;
#SUBTITLETRANSLIT:;
#ARTISTTRANSLIT:;
#CREDIT:;
#BANNER:(cerdo_claro)Beyond The Gates Of Infinity-bn.JPG;
#BACKGROUND:(cerdo_claro)Beyond The Gates Of Infinity-bg.jpg;
#LYRICSPATH:;
#CDTITLE:cdtitle.png;
#MUSIC:(cerdo_claro)Beyond The Gates Of Infinity.ogg;
#OFFSET:-26.300;
#SAMPLESTART:42.293;
#SAMPLELENGTH:22.660;
#SELECTABLE:YES;
#BPMS:0.000=180.000,453.500=90.000,477.000=180.000,509.000=90.000,531.000=45.000,532.000=180.000,660.000=90.000,680.500=180.000,736.875=179.997,975.500=179.999,1010.750=179.997,1117.500=89.998,1137.500=44.999,1138.750=89.998,1141.500=89.997;
#STOPS:;
#BGCHANGES:;
// cache tags:
#FIRSTBEAT:0.000;
#LASTBEAT:1138.750;
#SONGFILENAME:Songs/toune 2/(cerdo_claro)Beyond The Gates Of Infinity/(cerdo_claro)Beyond The Gates Of Infinity.sm;
#HASMUSIC:1;
#HASBANNER:1;
#MUSICLENGTH:442.070;
// end cache tags

//---------------dance-single - ----------------
#NOTES:
     dance-single:
     :
     Hard:
     11:
     0.722,1.000,0.765,0.290,0.597,1767.000,338.000,128.000,0.000,16.000:

1000
0001
0001
1000
1000
0010
0010
0100
,
0100
0001
0001
0010
0010
0100
0100
1000
,
1000
0010
0010
0100
0100
0001
0001
0010
,
0010
0100
0100
1000
1000
0010
0010
0100
,
0100
0001
0001
0010
0010
0100
0100
1000
,
1000
0000
0000
0000
,
1010
1100
0001
0001
0010
0010
1000
1000
,
0001
0001
0100
0100
0010
0010
1000
1000
,
0010
0010
0100
0100
0010
0010
0101
0011
,
1000
1000
0010
0010
0100
0100
0001
0001
,
1000
1000
0100
0100
0010
0010
0001
0001
,
1010
0000
1010
0000
1001
1001
0000
0000
,
0000
0000
0000
0011
0000
0000
0000
0000
,
0001
0000
0001
1000
0001
0000
0100
0000
1000
0000
0010
0000
0001
0000
0100
0000
,
1010
0000
1001
0000
1001
1001
0000
0000
,
0000
0000
0000
0000
0220
0000
0000
0330
,
0000
0001
0001
0001
1000
0010
0100
0001
,
1010
0000
0101
0000
1100
0010
0100
0001
,
0010
0100
1000
0010
0100
0001
0001
0010
,
0100
1000
0010
0100
0001
1000
0010
0100
,
0001
0010
1000
1000
0010
0100
0001
1000
,
0010
0100
0001
0100
1000
0010
0001
1000
,
0010
0000
0000
0100
0000
0000
0001
0000
0000
1000
0000
0000
0010
0000
0000
0100
0000
0000
1010
0000
0001
0000
0100
0000
,
0010
0000
1000
0010
0000
0000
0001
0000
0000
1000
0000
0000
0001
0000
0000
0010
0000
0000
0100
0000
0000
1000
0000
0000
,
0010
0001
0100
1000
0010
0010
0001
0100
,
0010
1000
0001
0100
0010
1000
0010
0100
,
0001
0001
1000
0010
0100
0001
1000
0010
,
0001
0100
1000
0010
0100
0100
0001
0100
,
1000
0100
0010
0001
0100
0010
1000
0010
0100
1001
0000
0000
,
0110
1001
0000
0000
,
0022
0000
0000
0000
0000
0033
0000
0000
,
0001
1000
0010
0100
0001
0010
0100
1000
,
0010
0000
0100
0000
0011
0000
0000
0000
0000
0000
0001
1000
0001
0000
1000
0000
,
0010
0000
1000
0000
0001
0000
0101
0000
0000
0000
0001
1000
0001
0000
1000
0000
,
0010
0000
0100
0000
0001
0000
1010
0000
0000
0000
0001
1000
0001
0000
1000
0000
,
0010
0100
0001
0001
0100
1000
1000
0010
,
0001
0000
0001
0000
1000
0000
0101
0010
1000
0001
0110
0001
1000
0010
1100
0001
,
0100
0010
0101
0010
1000
0001
0110
1000
0001
0100
0011
1000
0010
0100
1010
0001
,
0100
0010
1100
0001
1000
0010
0101
0010
1000
0010
0101
0010
0001
0100
1010
0001
,
0100
0010
0101
1000
0010
0100
0011
0000
0000
0000
0000
0000
1100
0000
0000
0000
,
0000
0000
0110
0000
0000
0000
1001
0100
0001
0100
1010
0100
0001
1000
0011
1000
,
0001
0010
1100
0010
0100
1000
0011
0100
0001
0010
0101
0010
0001
0100
1010
0100
,
0001
1000
0110
0001
1000
0010
0101
0010
1000
0001
0110
1000
0010
0100
1010
0100
,
0001
1000
0110
0001
0010
0001
1100
0000
0000
0000
0000
0011
0000
0000
0000
0000
,
0000
1001
0000
1001
0000
0000
0110
0000
,
0000
0000
0101
0000
0000
2020
0000
0000
0000
0000
0000
0000
0000
0000
0000
0000
,
3030
0000
0000
0001
0000
0000
0000
1000
,
0000
0001
0000
0100
0000
0000
0000
0001
,
0000
0000
0000
1000
0000
0000
0000
0001
,
0000
0100
0000
0010
0000
0000
0000
0001
,
0000
0000
0000
1000
0000
0000
0000
0010
,
0000
0100
0000
0001
0000
0000
0000
0011
,
0000
0000
0000
0001
0000
0000
0000
1000
,
0000
0010
0000
0100
0000
0000
0000
0001
,
0000
1100
1100
0001
0000
0000
0000
0100
,
0000
0010
0000
1000
0000
0000
0000
0001
,
0000
0000
0000
0100
0000
0000
0000
0010
,
0000
1000
0000
0001
0000
0000
0000
0001
,
0000
0000
0000
0100
0000
0000
0000
0010
,
0000
1000
0000
0001
0000
0000
0000
0100
,
0000
0000
0000
0010
0000
0000
0000
0100
,
0000
0001
0000
0010
0000
0000
1000
0001
,
0010
0100
1000
0020
0000
0000
0000
0000
,
0030
0002
0000
2000
0000
0000
0000
0000
,
3003
0000
0000
1001
0000
0000
1000
0000
,
0000
0010
0000
0100
0000
0001
0010
0000
,
0000
0100
0000
2000
0000
0000
3020
0000
,
0000
0230
0000
0302
0000
0000
0023
0000
,
0000
2030
0000
3002
0000
0000
0203
0000
,
0000
0020
0330
2002
0000
0000
0000
0000
,
0000
0000
0000
0000
3003
0000
0011
1000
0010
0100
1001
0010
0100
0001
1100
0001
,
0100
0010
0101
0010
1000
0001
0110
0001
1000
0010
0101
1000
0001
0100
1010
0100
,
0001
1000
0110
0001
1000
0100
0011
1000
0001
0010
1100
0010
1000
0100
1010
0001
,
1000
0010
0101
1000
0001
0100
1010
0000
0000
0000
0000
0000
0110
0000
0000
0000
,
0000
0000
0110
0000
0000
0000
1100
0001
1000
0010
0101
0010
0001
0100
1010
0100
,
0001
1000
0110
0001
1000
0010
1100
0010
1000
0100
0011
0100
0001
0010
1100
0001
,
1000
0001
0110
0001
1000
0010
1100
0001
1000
0010
0101
0010
1000
0001
0110
1000
,
0001
0100
1010
0000
0000
0000
0011
0000
0000
0000
0000
0000
1100
0000
1000
0000
,
0000
0011
0000
0110
0000
0000
1001
0000
,
0000
1001
0000
0220
0000
0000
0000
0000
,
0330
0000
0000
0000
0000
0000
0001
0010
0100
1000
0010
0100
0001
0010
0100
0000
,
1000
0010
0100
0001
1000
0010
0101
0000
0000
0000
0000
0000
1010
0000
0000
0000
,
0000
0000
1001
0000
0000
0000
0100
0001
1000
0001
0010
0100
1000
0010
0100
0000
,
1000
0001
1000
0010
0100
0010
0101
0000
0000
0000
0000
0000
1010
0000
0000
0000
,
0000
0000
0101
0000
0000
0000
1000
0010
0100
0001
0010
0100
1000
0010
0100
0000
,
1000
0010
0100
0001
1000
0010
1100
0000
0000
0000
0000
0000
1010
0000
0000
0000
,
0000
0000
0011
0000
0000
0000
0100
0001
1000
0001
0100
0010
1000
0100
0010
0000
,
1000
0001
0100
0010
1000
0100
0011
0000
0000
0000
0000
0000
1010
0000
0000
0000
,
0000
1001
0000
0001
0000
0000
1000
0000
,
0000
0001
0000
1010
0000
0000
0101
0000
,
0000
0110
0000
1001
0000
0000
1000
0000
,
0000
0001
0000
0011
0000
0000
1010
0000
,
0000
0110
0000
1001
0000
0000
1000
0000
,
0000
0010
0000
0100
0000
0001
0001
1100
,
0000
1000
1000
0101
0000
0000
0001
0000
,
0000
0000
0100
0000
0000
0000
0020
0000
0000
0000
0000
0000
0000
0030
0000
0001
,
1000
0010
0100
0001
1000
0010
2002
0000
0000
0000
0000
0000
0000
0000
0000
0000
,
3003
0110
0000
0220
0000
0000
0000
0000
,
0000
0330
0000
1001
0000
1000
0001
0000
,
0000
0100
0000
0001
0000
1000
0010
0000
,
0000
0100
0000
0002
0000
0000
2003
0000
,
0000
3020
0000
0230
0000
0000
0302
0000
,
0000
0203
0000
0320
0000
0000
2030
0000
,
0000
3002
0000
0023
0000
0000
0000
0000
,
0000
0000
0030
0001
1000
0010
0100
0001
,
0010
0100
1000
0101
1100
0101
1100
0101
,
1100
0101
1100
0001
0001
0100
1000
0010
,
0100
0001
0010
1100
0011
1100
0011
1100
,
0011
1100
0011
0001
0010
0100
1000
0010
,
0100
0001
0010
0110
1001
0110
1001
0110
,
1001
0110
1001
0001
0010
0100
1000
0010
,
0100
0001
0000
0001
1000
0010
0000
0010
,
0100
0001
0000
0001
1000
0010
0000
0100
,
0010
0000
0000
0000
0000
0000
0000
0000
0000
0000
0000
0000
0000
0000
0000
0000
0000
0000
0000
0000
0000
0000
0000
0000
0100
0000
0000
0000
0000
0000
0000
0000
0000
0000
0000
0000
0000
0000
0000
0000
0000
0000
0000
0000
0000
0000
0000
0000
0000
0000
0000
0000
0000
0000
0000
0000
0000
0000
0000
0000
0000
0000
0000
0000
0000
0000
0000
0000
0000
0000
0000
0000
0000
0000
0000
0000
0000
0000
0001
0000
0000
0000
0000
0000
0000
0000
0000
0000
0000
0000
0000
0000
0000
0000
0000
0000
0000
0000
0000
1000
0000
0000
0000
0000
0000
0000
0000
0000
0000
0000
0000
0000
0000
0000
0000
0000
0000
0000
0000
0000
0000
0000
0010
0000
0000
0000
0000
0000
0000
0000
0000
0000
0000
0000
0000
0000
0000
0000
0000
0000
0000
0000
0000
0000
0000
0100
0000
0000
0000
0000
0000
0000
0000
0000
0000
0000
0000
0000
0000
0000
0000
0000
0000
0000
0000
0000
0000
0000
0000
0000
0000
0000
0000
0000
0000
0000
0000
0000
0000
0000
0000
0000
0000
0000
0000
0000
0000
0000
0000
0000
0000
0000
,
0001
0000
0000
0000
0000
0000
0000
0000
0000
0000
0000
0000
0000
0000
0000
0000
0000
0000
0000
0000
0000
0000
0000
0000
0010
0000
0000
0000
0000
0000
0000
0000
0000
0000
0000
0000
0000
0000
0000
0000
0000
0000
0000
0000
0000
0000
0100
0000
0000
0000
0000
0000
0000
0000
0000
0000
0000
0000
0000
0000
0000
0000
0000
0000
0000
0000
0000
0000
0000
1000
0000
0000
0000
0000
0000
0000
0000
0000
0000
0000
0000
0000
0000
0000
0000
0000
0000
0000
0000
0000
0000
0000
0000
0010
0000
0000
0000
0000
0000
0000
0000
0000
0000
0000
0000
0000
0000
0000
0000
0000
0000
0000
0000
0000
0000
0000
0000
0000
0000
0000
0000
0000
0000
0000
0000
0000
0000
0000
0000
0000
0000
0000
0000
0000
0000
0000
0000
0000
0000
0000
0000
0000
0000
0000
0000
0000
0000
0000
0000
0000
0000
0000
0000
0000
0000
0000
0000
0000
0000
0000
0000
0000
0000
0000
0000
0001
0000
0000
0000
0000
0000
0000
0000
0000
0000
0000
0000
0000
0000
0000
0000
0000
0000
0000
0000
0000
0000
0000
0000
1000
0000
0000
,
0000
0000
0000
0000
0000
0000
0000
0000
0000
0000
0000
0000
0000
0000
0000
0000
0000
0000
0000
0000
0000
0010
0000
0000
0000
0000
0000
0000
0000
0000
0000
0000
0000
0000
0000
0000
0000
0000
0000
0000
0000
0000
0000
0000
0000
0100
0000
0000
0000
0000
0000
0000
0000
0000
0000
0000
0000
0000
0000
0000
0000
0000
0000
0000
0000
0000
0000
0000
0000
0000
0001
0000
0000
0000
0000
0000
0000
0000
0000
0000
0000
0000
0000
0000
0000
0000
0000
0000
0000
0000
0000
0000
0000
0000
0000
0000
0000
0000
0000
0000
0000
0000
0000
0000
0000
0000
0000
0000
0000
0000
0000
0000
0000
0000
0000
0000
0000
0000
0000
0001
0000
0000
0000
0000
0000
0000
0000
0000
0000
0000
0000
0000
0000
0000
0000
0000
0000
0000
0000
0000
0000
0000
0000
0000
1000
0000
0000
0000
0000
0000
0000
0000
0000
0000
0000
0000
0000
0000
0000
0000
0000
0000
0000
0000
0000
0000
0000
0000
0010
0000
0000
0000
0000
0000
0000
0000
0000
0000
0000
0000
0000
0000
0000
0000
0000
0000
0000
0000
0000
0000
0000
0000
,
0000
0001
0000
0000
0000
0000
0000
0000
0000
0000
0000
0000
0000
0000
1000
0000
0000
0000
0000
0000
0000
0000
0000
0000
0000
0010
0000
0000
0000
0000
0000
0000
0000
0000
0000
0000
0100
0000
0000
0000
0000
0000
0000
0000
0000
0000
0000
0000
0001
0000
0000
0000
0000
0000
0000
0000
0000
0000
0000
0000
0000
0000
0000
0000
0000
0000
0000
0001
0000
0000
0000
0000
0000
0000
0000
0000
0000
0000
0000
0000
0000
0000
0000
0000
0000
0000
0000
0000
0000
0000
0000
0010
0000
0000
0000
0000
0000
0000
0000
0000
0000
0000
0000
0000
0000
0000
0000
0000
0000
0000
0000
0000
0000
0000
0000
0000
0000
0100
0000
0000
0000
0000
0000
0000
0000
0000
0000
0000
0000
0000
0000
0000
0000
0000
0000
0000
0000
0000
0000
1000
0000
0000
0000
0000
0000
0000
0000
0000
0000
0000
0000
0000
0000
0000
0000
0000
0000
0000
0000
0000
0000
0000
0000
0000
0000
0010
0000
0000
0000
0000
0000
0000
0000
0000
0000
0000
0000
0000
0000
0000
0000
0000
0000
0000
0000
0000
0000
0000
0000
0000
0000
0000
,
0000
0000
0000
0000
0000
0000
0000
0000
0000
0000
0000
0000
0000
0000
0000
0000
0000
0000
0000
0000
0000
0000
0000
0000
0100
0000
0000
0000
0000
0000
0000
0000
0000
0000
0000
0000
0000
0000
0000
0000
0000
0000
0000
0000
0000
0000
0000
0001
0000
0000
0000
0000
0000
0000
0000
0000
0000
0000
0000
0000
0000
0000
0000
0000
0000
0000
0000
0000
0000
0010
0000
0000
0000
0000
0000
0000
0000
0000
0000
0000
0000
0000
0000
0000
0000
0000
0000
0000
0000
0000
0000
0000
0000
0000
0100
0000
0000
0000
0000
0000
0000
0000
0000
0000
0000
0000
0000
0000
0000
0000
0000
0000
0000
0000
0000
0000
0000
0000
0000
0000
0000
0000
0000
0000
0000
0000
0000
0000
0000
0000
0000
0000
0000
0000
0000
0000
0000
0000
0000
0000
0000
0000
0000
0000
0000
0000
0000
0000
0000
0000
0000
0000
0000
0000
0000
0000
0000
0000
0000
0000
0000
0000
0000
0000
0000
0000
1100
0000
0000
0000
0000
0000
0000
0000
0000
0000
0000
0000
0000
0000
0000
0000
0000
0000
0000
0000
0000
0000
0000
0000
0000
0000
,
0000
0000
0000
0000
0000
0000
0000
0000
0000
0000
0000
0011
0000
0000
0000
0000
0000
0000
0000
0000
0000
0000
0000
0000
0000
0000
0000
0000
0000
0000
0000
0000
0000
0000
0000
0000
0000
0000
0000
0000
0000
0000
0000
0000
0000
0000
0000
0110
0000
0000
0000
0000
0000
0000
0000
0000
0000
0000
0000
0000
0000
0000
0000
0000
0000
0000
0000
0000
0000
0000
0000
0000
0000
0000
0000
0000
0000
0000
0000
0000
0000
0000
0110
0000
0000
0000
0000
0000
0000
0000
0000
0000
0000
0000
0000
0000
0000
0000
0000
0000
0000
0000
0000
0000
0000
0000
0000
0000
0000
0000
0000
0000
0000
0000
0000
0000
0000
0000
0000
0000
0000
0000
0000
0002
0000
0000
0000
0000
0000
0000
0000
0000
0000
0000
0000
0000
0000
0000
0000
0000
0000
0023
0000
0000
0000
0000
0000
0000
0000
0000
0000
0000
0000
0000
0000
0000
0000
0000
0000
0000
0230
0000
0000
0000
0000
0000
0000
0000
0000
0000
0000
0000
0000
0000
0000
0000
0000
0000
2300
0000
0000
0000
0000
0000
0000
0000
0000
0000
0000
0000
0000
0000
,
0000
0000
0000
0000
0000
0000
0000
3020
0000
0000
0000
0000
0000
0000
0000
0000
0000
0000
0000
0000
0000
0000
0000
0000
0000
2030
0000
0000
0000
0000
0000
0000
0000
0000
0000
0000
0000
0000
0000
0000
0000
0000
0000
0000
0000
0000
0000
0000
3002
0000
0000
0000
0000
0000
0000
0000
0000
0000
0000
0000
1000
0000
0000
0000
0000
0000
0000
0000
0000
0000
0000
0000
0100
0000
0000
0000
0000
0000
0000
0000
0000
0000
0000
0000
0013
0000
0000
0000
0000
0000
0000
0000
0000
0000
0000
0000
0001
0000
0000
0000
0000
0000
0000
0000
0000
0000
0000
0000
0100
0000
0000
0000
0000
0000
0000
0000
0000
0000
0000
0000
0010
0000
0000
0000
0000
0000
0000
0000
0000
0000
0000
0000
1000
0000
0000
0000
0000
0000
0000
0000
0000
0000
0000
0000
0001
0000
0000
0000
0000
0000
0000
0000
0000
0000
0000
0000
0100
0000
0000
0000
0000
0000
0000
0000
0000
0000
0000
0000
0001
0000
0000
0000
0000
0000
0000
0000
0000
0000
0000
0000
0100
0000
0000
0000
0000
0000
0000
0000
0000
0000
0000
0000
,
0010
1000
0010
0100
0001
0100
0001
0100
0010
1000
0010
0100
0011
1000
0001
0100
,
0010
1000
0001
0010
1100
0001
1000
0010
0100
0001
0100
0001
1000
0010
1000
0001
,
0010
0001
1000
0010
1000
0001
0010
0100
1000
0010
0100
0010
0101
0010
0001
1000
,
0010
0100
0001
0100
1010
0001
0100
0010
1000
0100
0010
0001
0100
0010
1000
0010
,
0100
0001
1010
0100
0001
1000
0010
0100
0001
1000
0010
0100
0011
1000
0001
0100
,
0010
1000
0001
0100
1010
0001
0100
0001
1000
0010
1000
0001
0100
0001
0010
0100
,
1000
0010
0100
0001
0110
0001
1000
0001
1000
0010
1000
0001
0100
0010
1000
0001
,
0010
0100
1000
0010
2002
0000
0000
0000
0000
0000
0000
0000
3013
0000
0000
0000
,
1000
0001
0000
1000
,
0001
0100
0000
0001
,
0010
0000
0100
0000
0000
0000
0001
0010
,
0100
1000
0100
0000
0010
0000
0001
0000
,
0100
2000
0000
3020
,
1031
0000
0000
1001
,
1001
0000
0000
0011
,
1010
0000
0000
0000
0000
0000
0000
0000
0000
0000
0000
0000
0000
0000
0000
0220
,
0000
0000
0000
0330
,
0002
2003
3020
0230
,
0311
0000
1001
0000
,
0002
0000
0000
0000
0000
2000
3000
2000
,
3003
0000
0000
0000
,
0011
0000
0000
1010
,
1001
0000
0000
0110
,
0120
0000
0000
0000
0000
0000
0000
0030
,
1001
0000
0000
0000
,
0011
0000
1100
0000
,
0110
0000
1001
0000
,
0202
0000
0000
0000
0300
0000
2000
3000
,
2000
3003
0001
0000
1000
0010
0100
0001
,
1010
0000
0000
0011
,
0011
0000
0000
1100
,
1100
0000
0000
0000
0000
0000
0000
0011
,
0000
0000
0001
0000
1000
0010
0100
0000
,
1001
0000
0000
0000
,
1010
0000
0101
0000
,
0110
0000
0000
1001
,
1010
0000
0001
0010
0100
1000
0010
0001
,
1100
0000
0000
0011
,
0011
0000
0000
1100
,
1100
0000
0000
0000
0000
0000
0000
0001
,
0000
0000
0000
0000
0001
1000
0001
0000
1000
0000
0001
0000
1000
0000
0010
0000
,
1100
0000
0000
0000
0000
0000
0000
0110
,
0000
0000
1010
0000
,
0101
0000
0000
1001
,
1001
0000
0000
0000
,
0102
0000
0000
0000
0000
1000
0000
0000
0000
0000
0100
0000
0000
0000
0000
1003
,
0000
0000
0000
0000
0000
0000
0000
0000
0000
0000
0000
0000
0000
0000
0000
0000
0000
0000
0000
0000
0000
0000
0000
0000
0000
0000
0000
0000
0000
0000
0000
0000
0000
0000
0000
0000
0000
0000
0000
0000
0000
0000
0000
0000
0000
0000
0000
0000
2010
0000
0000
0000
0000
0000
0000
0000
0000
0000
0000
0000
0000
0000
0000
0000
0000
0000
0000
0000
0000
0000
0000
0000
0000
0000
0000
0000
0000
0000
0000
0000
0000
0000
0000
0000
0000
0000
0000
0000
0000
0000
0000
0000
0000
0000
0000
0000
0000
0000
0000
0000
0000
0000
0000
0000
0000
0000
0000
0000
3001
0000
0000
0000
0000
0000
0000
0000
0000
0000
0000
0000
0000
0000
0000
0000
0000
0000
0000
0000
0000
0000
0000
0000
0000
0000
0000
0000
0000
0000
0000
0000
0000
0000
0000
0000
0000
0000
0000
0000
0000
0000
0000
0000
0000
0000
0000
0000
0000
0000
0000
0000
0000
0000
0000
0000
0000
0000
0000
0000
0000
0000
0000
0000
0000
0000
0000
0001
0000
0000
0000
0000
0000
0000
0000
0000
0000
0000
0000
0000
0000
0000
0000
0000
,
0000
0000
0000
0000
0000
0000
0000
0000
0000
0000
0000
0000
0000
0000
0001
0000
0000
0000
0000
0000
0000
0000
0000
0000
0000
0000
0000
0000
0000
0000
0000
0000
0000
0000
0000
0000
0000
0000
0000
0000
0000
0000
0000
0000
0000
0000
0000
0000
1001
0000
0000
0000
0000
0000
0000
0000
0000
0000
0000
0000
0000
0000
0000
0000
0000
0000
0000
0000
0000
0000
0000
0000
0000
0000
0000
0000
0000
0000
0000
0000
0000
0000
0000
0000
0000
0000
0000
0000
0000
0000
0000
0000
0000
0000
0000
0000
0000
0000
0000
0000
0000
0000
0000
0000
0000
0000
0000
0000
0210
0000
0000
0000
0000
0000
0000
0000
0000
0000
0000
0000
0000
0000
0000
0000
0000
0000
0000
0000
0000
0000
0000
0000
0000
0000
0000
0000
0000
0000
0000
0000
0000
0000
0000
0000
0000
0000
0000
0000
0000
0000
0000
0000
0000
0000
0000
0000
0000
0000
0000
0000
0000
0000
0000
0000
0000
0000
0000
0000
0001
0000
0000
0000
0000
0000
0000
0000
0000
0000
0000
0000
0000
0000
0000
0000
0000
0000
0000
0000
0000
0000
0000
0000
,
0000
0000
0000
1000
0000
0000
0000
0000
0010
0000
0000
0000
0000
0301
0000
0000
,
0000
0000
0000
1000
0000
0000
0000
0000
0011
0000
1100
0000
0000
0110
0000
0000
,
0000
0000
1001
0000
0000
1001
0000
0000
0000
0000
0000
0000
0000
0000
0000
0000
,
0000
0000
0000
0001
0000
0000
1000
0000
,
0000
0010
0000
0000
0100
0000
0000
0001
,
0000
0000
1000
0000
0000
0010
0000
0000
,
0100
0000
0000
0001
0000
0000
1000
0000
,
0000
0000
0010
0000
0000
0100
0000
0000
,
0000
0001
0000
0000
0000
1000
0000
0000
,
0010
0000
0000
0000
0000
0100
0000
0000
,
0000
0002
0000
0000
,
0000
0000
0000
0003
,
0000
0000
0000
0000
,
0020
0000
0000
0000
0000
0000
0000
0000
0000
0230
0000
0000
0000
0000
0000
2300
,
0000
0000
0000
3002
,
0000
0000
2003
0000
0000
0000
0000
0000
0000
0000
0000
0000
0000
3002
0000
0000
,
0000
0000
0000
0203
0000
0000
0000
0000
0000
0000
0000
0000
0000
0320
0000
0000
,
0000
0000
0000
0000
0000
2030
0000
0000
0000
0000
0000
0000
0000
0000
3002
0000
,
0000
0203
0000
0000
0320
0000
0000
2030
0000
0000
0000
0000
0000
0000
0000
0000
,
0000
0000
0000
3002
0000
0000
0000
0000
0203
0000
0000
0000
0000
0000
0000
0000
,
0302
0000
0000
0000
0000
0000
0023
0000
0000
0000
0000
2030
0000
0000
0000
0000
,
0000
0000
0000
0000
3002
0000
0000
0203
,
0000
0000
0000
0000
0000
0000
0000
0000
0000
0000
0302
0000
0000
0000
0000
2003
,
0000
0000
0000
0000
0000
0000
0000
0000
0000
0000
0000
3020
0000
0000
0000
0000
,
0000
0230
0000
0000
0000
0000
0000
0000
0000
0000
0000
0000
0000
0302
0000
0000
,
0000
0000
0000
2003
0000
0000
0000
0000
0000
0000
0000
0000
0000
0000
0000
3010
,
0000
0000
0000
0000
1001
0000
0000
1001
0000
0000
0000
0000
0000
0000
0000
0000
,
0000
0002
0000
0000
0000
2003
0000
0000
,
0000
0000
0000
0002
,
0000
0000
0000
0000
0000
0000
0000
0000
0000
0000
0000
0000
3013
0100
0001
1000
,
0010
0100
1000
0011
0000
0000
0000
0000
0001
0100
0010
1000
0001
0100
1001
0000
,
1000
0010
0100
0001
1100
0000
0000
0000
0000
0001
0100
0010
1000
0001
1000
0001
,
0100
0010
1000
0100
0010
0001
0100
0010
1000
0001
1100
0000
1000
0010
0100
0001
,
1000
0100
0011
0000
0001
1000
0001
1000
0010
1000
0101
0000
1000
0001
1000
0001
,
0110
0000
1001
0000
1100
0000
0000
0011
0000
0000
2002
0000
0000
0000
3003
0000
,
0000
0000
0001
1000
0001
1000
0101
0000
1000
0100
0010
0001
1000
0100
0010
0001
,
1100
0000
0001
0010
0100
1000
0001
0010
1100
0000
0000
0001
1000
0001
1000
0100
,
0010
0001
1000
0001
1000
0010
0100
0001
1000
0010
0100
0001
1100
0000
0001
1000
,
0010
0100
0001
1000
0101
0000
1000
0010
0100
0001
1000
0001
1100
0000
0001
1000
,
0010
0100
0001
1000
0101
0000
0101
0000
0000
0110
0000
0000
1001
0000
0000
0000
,
0000
0000
0000
0000
0220
0000
0000
0000
0000
0330
0000
0000
0000
0011
0000
0000
,
0000
0000
1100
0000
1001
0000
0000
0000
0000
1100
0000
0000
0000
0000
0000
0000
,
0000
0000
0000
0011
0000
0000
0000
0000
0000
0000
0000
0000
0010
0000
0000
0000
1000
0000
0000
0000
0001
0000
0000
0000
1000
0000
0000
0000
0010
0000
0000
0000
0100
0000
0000
0000
0001
0000
0000
0000
1000
0000
0000
0000
0010
0000
0000
0000
,
0200
0000
0000
0000
0000
0000
0311
0000
0000
0000
0000
1100
0000
0000
0011
0000
,
1000
0010
0001
0100
1000
0010
0001
0010
0100
1000
0010
0100
,
0001
0000
0000
0000
1000
0000
0000
0000
0001
0000
0000
0000
1000
0000
0000
0000
0010
0000
0000
0000
0000
0002
0000
0000
0000
0000
0000
0000
0000
0000
0000
0000
0000
0000
0000
0000
0000
0000
0000
0000
0000
0000
0000
0000
0000
1103
0000
0000
,
0000
0000
0000
0000
0011
0000
0000
0101
0000
0000
0000
0000
1001
0000
0000
0000
,
0000
0000
0000
0000
0000
0000
0000
0000
0000
1010
0000
0000
0000
0000
0000
0000
0000
0000
0000
0000
0000
0000
0000
0000
0001
0000
0000
0000
0100
0000
0000
0000
0010
0000
0000
0000
1000
0000
0000
0000
0001
0000
0000
0000
1000
0000
0000
0000
,
0002
0000
0000
0000
0000
0000
0000
0000
0000
1103
0000
0000
0000
0000
0011
0000
,
0101
0000
0000
0000
0000
1100
0000
0000
0000
0000
1001
0000
0000
0000
0000
0000
,
0001
0000
0000
0000
0010
0000
0000
0000
0100
0000
0000
0000
1000
0000
0000
0000
0010
0000
0000
0000
0100
0000
0000
0000
0001
0000
0000
2000
0000
0000
0001
0000
0000
3010
0000
0000
0100
0000
0000
1000
0000
0000
0010
0000
0000
1000
0000
0000
,
0001
0100
0001
0100
0010
1000
0100
0010
0001
1000
0110
0001
1000
0010
0100
0001
,
1100
0001
1000
0010
0100
0001
0110
1000
0001
0010
0101
0010
1000
0001
1000
0010
,
0100
0001
0110
1000
0001
0100
0001
1000
0010
0100
1010
0100
0001
1000
0010
0100
,
0001
1000
0110
0001
1000
0010
0100
0001
0010
0100
1010
0100
0001
1000
0010
0100
,
0011
1000
0001
0100
0010
0001
0110
1000
0010
0100
0011
1000
0001
1000
0010
0100
,
0011
1000
0010
0100
0001
1000
0110
0001
1000
0010
0101
1000
0010
0100
0001
0010
,
0100
1000
0001
1000
0001
0100
1010
0100
0001
1000
0011
1000
0010
0100
0001
1000
,
0100
0010
0001
1000
0010
0100
0001
0010
0100
1000
0011
0000
1000
0010
0100
0001
,
1000
0001
1000
0000
1000
0010
0100
0001
1000
0001
0110
0000
0000
0000
0000
0000
,
1010
0000
0000
0000
0000
0000
1001
0000
0000
0000
0001
0010
0100
1000
0001
0100
,
0010
1000
0001
0000
1000
0001
1000
0010
0100
0001
0110
0000
0000
0000
0000
0000
,
1010
0000
0000
0000
0000
0000
1001
0000
0000
0000
1000
0010
0100
0001
1000
0001
,
0010
0100
1000
0000
1000
0010
0100
0001
1000
0001
0110
0000
0000
0000
0000
0000
,
1010
0000
0000
0101
0000
2020
0000
0000
,
0000
0000
0000
0000
0000
3131
0000
0000
,
1010
0000
0000
0110
0000
0012
0000
0000
,
0000
0000
0000
0000
0000
2013
0000
0000
,
0000
3120
0000
0000
0000
2130
0000
0000
,
0000
0000
0000
0000
0000
3012
0000
0000
,
0000
0000
0000
0000
0000
0213
0000
0000
,
0000
1320
0000
0000
0000
2031
0000
0000
,
0000
3120
0000
0000
0000
0032
0203
0320
,
2030
3020
0032
0203
2300
3010
0000
1001
,
0000
0000
0011
0000
1000
0100
0010
0001
1000
0100
0011
0000
0000
0000
0000
0000
,
0000
0000
0000
1001
0000
0210
0000
0000
,
0000
0002
0000
0000
0000
0000
0000
0000
0303
0000
0001
0000
1000
0000
0010
0000
,
0100
0001
1000
0010
0100
0001
1000
0010
,
0010
0100
0001
1000
0100
0100
0001
0010
,
1000
0001
0100
0010
1000
0010
0010
0100
,
0001
1000
0010
0100
0010
1000
1000
0010
,
0100
0001
1000
0010
0100
0001
0001
1000
,
0010
0100
0000
0010
0000
0001
1000
0010
,
0100
0001
1000
0001
1000
0101
1100
0101
,
1100
0101
1100
0101
1100
0001
0010
0100
,
1000
0010
0100
0001
1000
0011
1100
0011
,
1100
0011
1100
0011
1100
0001
1000
0010
,
0100
0001
1000
0010
1000
0011
1010
0011
,
1010
0011
1010
0011
1010
0001
0010
1000
,
0100
0010
0001
1000
0010
0001
1000
0001
,
0000
1000
0001
1000
0000
0010
0100
0010
,
0000
0100
0001
0100
0000
0001
0000
1000
,
0000
0001
0000
0100
0000
0000
0000
0001
,
0000
1000
0000
0010
0000
0100
0000
0001
,
0000
0000
0000
0000
0000
0010
0000
1000
,
0000
0001
0000
0100
0000
0010
0000
0000
,
0000
0001
0000
1000
0000
0010
0000
0100
,
0100
0001
0001
1000
1000
0001
0000
1000
,
0000
0010
0000
0100
0000
0001
0000
0000
,
0000
0001
0000
0010
0000
0100
0000
1001
,
0000
1000
1000
0010
1001
0000
0000
0000
,
1010
0000
0000
0101
0000
0000
1001
0000
,
0000
0000
0000
0000
0000
0000
0000
0000
0000
0000
0000
0000
0000
0000
0000
0000
0000
0000
0000
0000
0001
0000
0000
0000
0000
0000
0000
0000
0000
0000
0000
0000
0000
0000
0000
0000
0000
0000
0000
0000
0000
0000
0000
0000
0000
0000
0000
0000
0000
0000
0000
0000
0000
0000
0000
0000
0000
0000
0000
0000
0000
1000
0000
0000
0000
0000
0000
0000
0000
0000
0000
0000
0000
0000
0000
0000
0000
0000
0000
0000
0000
0000
0000
0000
0000
0000
0000
0000
0000
0000
0000
0000
0000
0000
0000
0000
0000
0000
0000
0000
0000
0000
0010
0000
0000
0000
0000
0000
0000
0000
0000
0000
0000
0000
0000
0000
0000
0000
0000
0000
0000
0000
0000
0000
0000
0000
0000
0000
0000
0000
0000
0000
0000
0000
0000
0000
0000
0000
0000
0000
0100
0000
0000
0000
0000
0000
0000
0000
0000
0000
0000
0000
0000
0000
0000
0000
0000
0000
0000
0000
0000
0000
0000
0000
0000
0000
0000
0000
0000
0000
0000
0000
0000
0000
0000
0000
0000
0000
0000
0000
0000
0000
0000
0000
0001
0000
0000
0000
0000
0000
0000
0000
,
0000
0000
0000
0000
0000
0000
0000
0000
0000
1000
0000
0000
0000
0000
0000
0000
0000
0000
0000
0000
0000
0000
0000
0000
1002
0000
0000
0000
0100
0000
0000
0000
0013
0000
0000
0000
0001
0000
0000
0000
1000
0000
0000
0000
0010
0000
0000
0000
0100
0000
0000
0000
0001
0000
0000
0000
0100
0000
0000
0000
0001
0000
0000
0000
,
1000
0010
1000
0010
0100
0001
0100
0001
0100
0010
1000
0100
0010
0001
1100
0001
,
0100
0010
1000
0001
1000
0010
0101
0010
1000
0001
1000
0001
1000
0010
0100
0001
,
0010
0001
1000
0100
0010
0001
1000
0010
0100
0001
1000
0001
0110
1000
0001
1000
,
0001
0100
0010
1000
0001
0010
1100
0010
0001
1000
0010
0100
0001
1000
0010
0100
,
0001
1000
0001
0010
0001
1000
0110
0001
1000
0001
0010
0100
1000
0010
1100
0001
,
0100
0010
1000
0010
0100
0001
0110
0001
1000
0001
1000
0010
0100
0001
0100
0010
,
1000
0001
1000
0010
0100
0001
1100
0001
1000
0010
0100
0001
1000
0100
1000
0100
,
0010
0100
0010
0001
0010
0001
2002
0000
0000
0000
0000
0000
3003
0000
0001
0000
,
0000
0000
0010
0000
0001
0100
1001
0000
0000
0000
0000
0000
0000
0000
0001
0000
,
0000
0000
0000
1000
0000
0000
0000
1000
0100
0010
0000
0000
0000
0000
0000
0000
0000
0000
0000
0000
0000
0001
0000
0000
,
0000
1000
0000
0010
0001
1000
0010
0001
,
1000
0000
0000
0000
0000
0000
0000
0000
0000
0000
0000
0000
0000
0000
0000
0000
0000
0000
0000
0000
0000
0000
0000
0001
0000
0000
0000
0000
0000
0000
0000
0000
0000
0000
0000
1000
0000
0000
0000
0000
0000
0000
0000
0000
0000
0000
0000
0010
0000
0000
0000
0000
0000
0000
0000
0000
0000
0000
0000
0100
0000
0000
0000
0000
0000
0000
0000
0000
0000
0000
0000
0001
0000
0000
0000
0000
0000
0000
0000
0000
0000
0000
0000
0000
0000
0000
0000
0000
0000
0000
0000
0000
0000
0000
0000
0000
0000
0000
0000
0000
0000
0000
0000
0000
0000
0000
0000
0000
0000
0000
0000
0000
0000
0000
0000
0000
0000
0000
0000
0000
0010
0000
0000
0000
0000
0000
0000
0000
0000
0000
0000
0000
0000
0000
0000
0000
0000
0000
0000
0000
0000
0000
0000
0000
0000
0000
0000
0000
0000
0000
0000
0000
0000
0000
0000
0000
0000
0000
0000
0000
0000
0000
0000
0000
0000
0000
0000
0000
1000
0000
0000
0000
0000
0000
0000
0000
0000
0000
0000
0000
0000
0000
0000
0000
0000
0000
0000
0000
0000
0000
0000
0000
,
0000
0000
0001
0000
0000
0000
0200
0000
0000
0000
0000
0310
0000
0000
0000
0000
;
