#TITLE:Don't Cry;
#SUBTITLE:Lotus (2007);
#ARTIST:Akineko;
#TITLETRANSLIT:;
#SUBTITLETRANSLIT:;
#ARTISTTRANSLIT:;
#CREDIT:;
#BANNER:Don't Cry.jpg;
#BACKGROUND:Don't Cry-bg.jpg;
#LYRICSPATH:;
#CDTITLE:!tsuka.png;
#MUSIC:Don't Cry.mp3;
#OFFSET:-0.847;
#SAMPLESTART:37.700;
#SAMPLELENGTH:12.000;
#SELECTABLE:YES;
#BPMS:0.000=152.672,1.000=156.009,33.000=156.028,97.000=155.977,161.000=155.990,225.000=155.971,289.000=155.996,353.000=155.977,417.000=155.964;
#STOPS:;
#BGCHANGES:;
// cache tags:
#FIRSTBEAT:0.000;
#LASTBEAT:257.000;
#SONGFILENAME:Songs/VGMP 3/Don't Cry (Tsuka)/Don't Cry.sm;
#HASMUSIC:1;
#HASBANNER:1;
#MUSICLENGTH:103.941;
// end cache tags

//---------------dance-single - Blank----------------
#NOTES:
     dance-single:
     Blank:
     Hard:
     11:
     1.000,1.000,1.000,0.366,1.000,667.000,247.000,38.000,0.000,0.000:

1000
0100
0010
0000
0001
0000
0010
0100
,
1000
0100
0000
0000
0000
0000
0000
0000
,
0100
0010
0001
0000
1000
0000
0001
0010
,
0100
1000
0000
0000
0000
0000
0001
0000
,
0110
1100
0110
0000
0001
0000
1010
0100
,
1000
0101
0000
0000
0000
0000
0000
0000
,
1001
0110
1100
0000
0100
0000
0011
0010
,
0100
0000
1000
0000
0000
0000
0110
0000
0000
0110
0000
0000
0110
0000
0000
0000
,
1001
0100
1010
0001
0110
0000
1000
0010
0101
0000
0010
1000
0011
0000
0110
0001
,
1100
0000
0110
0000
0000
0000
0010
0100
1001
0000
0100
0010
1000
0000
1000
0010
,
0101
0000
0110
0001
1100
0000
1000
0100
0011
0000
1000
0010
0101
0000
0110
0001
,
1100
0000
0110
0000
0000
0000
0100
0010
1001
0000
0010
0100
0001
0000
0001
1000
,
0110
0000
0101
0010
1100
0000
0010
0100
0011
0000
0010
1000
0101
0000
0110
0001
,
1100
0000
0110
0000
0000
0000
0100
0010
1001
0000
0010
0100
1000
0000
1000
0100
,
0011
0000
0110
0001
1100
0000
0010
1000
0101
0000
1000
0100
0011
0000
0110
0001
,
1100
0000
0110
0000
0000
0000
0100
0010
1001
0000
0010
0100
0001
0000
0001
0100
,
1010
0000
0010
0101
1010
0000
0010
1000
0101
0000
0010
1000
0011
0000
0110
0001
,
1100
0000
0110
0000
0000
0000
0010
0100
1001
0000
0100
0010
1000
0000
1000
0100
,
0011
0000
0110
0001
1100
0000
0010
1000
0101
0000
0010
0001
1100
0000
0110
1000
,
0011
0000
0110
0000
0000
0000
0100
0010
1001
0000
0010
0100
1000
0000
1000
0100
,
0011
0000
0110
0001
1100
0000
0010
1000
0101
0000
0010
0100
0011
0000
0110
0001
,
1100
0000
0000
0000
0022
0033
0000
0000
0000
0000
0000
0000
0220
0330
0001
0000
1010
0000
0000
0000
0101
0000
0010
0000
2200
3300
0000
0000
1000
0000
0100
0000
,
0022
0033
0000
0000
0110
0000
0001
0000
2200
3300
0000
0000
0010
0000
1000
0000
0101
0000
0000
0000
1000
0000
0100
0000
0011
0000
0000
0000
0110
0000
0001
0000
,
1100
0000
0000
0000
0110
0000
0000
0000
0000
0000
0000
0000
0010
0000
0100
0000
1001
0000
0000
0000
0101
0000
0110
0000
2002
3003
0000
0000
0220
0330
0000
0000
,
2200
3300
0010
0000
0100
0000
0010
0000
2002
3003
0100
0000
0010
0000
0100
0000
0001
0000
0010
0000
0100
0000
0010
0000
1000
0000
0100
0000
0001
0000
0010
0000
,
0100
0000
0110
0000
0000
0000
1000
0100
0010
0100
1000
0100
0001
0010
1000
0010
,
0101
0000
0000
0000
1000
0100
0010
0100
0001
0010
0100
1000
0100
0010
0100
0001
,
0010
0000
1100
0000
0000
0000
0001
0010
0100
0001
0010
0100
0100
1000
0001
0010
,
0110
0000
0000
0000
1100
0010
0001
0010
0100
0000
0100
1000
0110
0000
0100
1000
,
0100
0010
0101
0000
0000
0000
0001
0010
0100
0000
0001
0010
0100
0001
0010
0100
,
1010
0000
1100
0100
0100
0100
0110
0010
,
1000
0000
0000
0000
0202
0303
0000
0000
0000
0000
0000
0000
0010
0000
0000
0000
1000
0000
0001
0000
0100
0000
0010
0000
0100
0000
0000
0000
1100
0000
0000
0000
,
0110
0000
0000
0000
0011
0000
0100
0010
1001
0000
0100
1000
0011
1000
0100
0010
,
1001
0000
0011
0100
1010
0000
0001
0100
1010
0000
0100
0010
1001
0100
0010
0100
,
1001
0000
0010
0001
0110
0000
1000
0010
0101
0000
0010
0001
1100
0001
0100
0010
,
0101
0000
1010
0001
0110
0000
0010
0001
1100
0000
0001
0100
1010
0000
0010
0100
,
1001
0000
0100
0010
0101
0000
1000
0010
0101
0000
0010
0100
1001
0100
0010
0100
,
1001
0000
0110
0001
1100
0000
0001
0100
1010
0000
0001
1000
0011
0100
0001
0010
,
1100
0000
0010
0001
1100
0000
0010
0100
1001
0000
0010
0100
1001
0100
0010
0001
,
1010
0000
0101
1000
0110
0000
0100
0001
0110
0000
1000
0001
1100
0000
0010
1000
,
0101
0000
0000
0000
1100
0000
0110
0000
0022
0033
0000
0000
1000
0000
0010
0000
0101
0000
0000
0000
0010
0000
1000
0000
0101
0000
0010
0000
0001
0000
0010
0000
,
1100
0000
0110
1000
0011
0000
1000
0010
0101
0000
0010
1000
0101
0010
0001
0100
,
1010
0000
0100
0010
1100
0000
0001
0010
0101
0000
1000
0010
1100
0000
0010
0100
,
1010
0000
0001
0100
0011
0000
1000
0010
1100
0000
0001
0010
1100
0000
0001
1000
,
0110
0000
0001
1000
0110
0000
0010
0001
1100
0000
0010
0100
0011
0100
1000
0100
,
0011
0000
0000
0000
0200
0300
0010
0000
1001
0000
0000
0000
0020
0030
0100
0000
2002
3003
0000
0000
0010
0000
0100
0000
2002
3003
0010
0000
0100
0000
1000
0000
,
0202
0303
0000
0000
0010
0000
0100
0000
2002
3003
0000
0000
0010
0000
0001
0000
0110
0000
0000
0000
0001
0000
1000
0000
0110
0000
0000
0000
0010
0000
0001
0000
,
1100
0000
0010
1000
0101
0000
1000
0001
0110
0000
1000
0001
1100
0010
1000
0100
,
0011
1000
0001
1000
0011
0000
0010
0000
1100
0000
0100
1000
0011
0000
0010
0100
,
1010
0000
1000
0110
1001
0000
0001
0010
1100
0000
0100
0010
0101
0000
0010
0000
,
1010
0000
1001
0000
0011
0000
0100
0010
1100
0000
0010
0100
0011
1000
0001
0100
,
1010
0000
1000
0011
1100
0000
0100
1000
0011
0000
0100
0010
1001
0100
1000
0010
,
0101
0000
1001
0010
1100
0000
1000
0100
0011
0000
0001
0010
1100
0000
0100
0010
,
1001
0000
0010
0101
1010
0000
0100
0010
0101
0000
0010
1000
0110
0000
0001
0000
,
0110
0000
0011
0000
1100
0000
0010
0100
1010
0000
0100
0010
1001
0000
0100
0010
,
0101
0000
0001
0110
1001
0000
1000
0100
0011
0000
0100
0010
1001
0100
1010
0001
,
0110
1000
0100
0010
2002
3003
0000
0000
0011
0000
0000
0000
0010
0000
0100
0000
,
1001
0100
0010
0000
1001
0000
0010
0000
,
1100
0010
0001
0000
1010
0000
0001
0010
,
0101
1000
0010
0000
1001
0000
0010
0000
,
0220
0330
0000
0000
1100
0000
0000
0000
0220
0330
0000
0000
1000
0000
0010
0000
0101
0000
0000
0000
0010
0000
0100
0000
1010
0000
0000
0000
0100
0000
0001
0000
,
1010
0000
0101
0000
0000
0000
0100
0010
1001
0000
1000
0001
0110
0000
0100
0010
,
1001
0000
0110
0001
1100
0000
1000
0010
0101
0000
1000
0100
0011
0000
0010
1000
,
0110
0000
1001
0000
0000
0000
0110
0000
0000
0110
0000
0000
0110
0000
0000
0000
,
1001
0100
1010
0001
0110
0000
0000
0000
0000
0000
0000
0000
0000
0000
0000
0000
;
