#TITLE:Pump Me Amadeus;
#SUBTITLE:;
#ARTIST:Banya;
#TITLETRANSLIT:;
#SUBTITLETRANSLIT:;
#ARTISTTRANSLIT:;
#CREDIT:;
#BANNER:Pump Me Amadeus-banner.png;
#BACKGROUND:Pump Me Amadeus-bg.png;
#LYRICSPATH:;
#CDTITLE:esm09-cdtitle.png;
#MUSIC:Pump Me Amadeus.mp3;
#OFFSET:-0.306;
#SAMPLESTART:59.274;
#SAMPLELENGTH:12.000;
#SELECTABLE:YES;
#BPMS:0.000=170.000;
#STOPS:;
#BGCHANGES:;
// cache tags:
#FIRSTBEAT:4.000;
#LASTBEAT:272.000;
#SONGFILENAME:Songs/KBU/Pump Me Amadeus [eastsideman09]/pumpmeamadeus.sm;
#HASMUSIC:1;
#HASBANNER:1;
#MUSICLENGTH:101.659;
// end cache tags

//---------------dance-single - ----------------
#NOTES:
     dance-single:
     :
     Hard:
     12:
     1.000,1.000,1.000,0.364,1.000,716.000,174.000,37.000,0.000,0.000:
0000
0000
0000
0000
,
0011
0000
0010
0100
0010
0000
0010
0100
0010
0000
0010
0100
1010
0000
0010
0100
,
1001
0000
0001
0010
0001
0000
0001
0010
0001
0000
0001
0010
0001
0000
0001
0010
,
1100
0000
1000
0001
1000
0000
1000
0001
1000
0000
1000
0001
1000
0000
1000
0001
,
1100
0010
0100
0010
0100
0010
0100
0010
0101
1000
0001
1000
0001
1000
0001
1000
,
0001
0000
0000
0000
0000
0000
0001
0000
0000
0000
0000
0000
0100
0000
0000
0000
0000
0000
0100
0000
0000
0000
0000
0000
0001
0000
0000
1000
0000
0000
0001
0000
0000
1000
0000
0000
0001
0000
0010
0000
0100
0000
1000
0000
0100
0000
0010
0000
,
0001
0000
0000
0000
0000
0000
0001
0000
0000
0000
0000
0000
0010
0000
0000
0000
0000
0000
0010
0000
0000
0000
0000
0000
0001
0000
0000
1000
0000
0000
0001
0000
0000
1000
0000
0000
0001
0000
0010
0000
0100
0000
1000
0000
0100
0000
0010
0000
,
0001
0000
0000
0000
0000
0000
0001
0000
0000
0000
0000
0000
0010
0000
0000
0000
0000
0000
0010
0000
0000
0000
0000
0000
0001
0000
0000
1000
0000
0000
0001
0000
0000
1000
0000
0000
0001
0000
0010
0000
0100
0000
1000
0000
0100
0000
0010
0000
,
0001
0000
0000
0000
0000
0000
0001
0000
0000
0000
0000
0000
0100
0000
0000
0000
0000
0000
0100
0000
0000
0000
0000
0000
0001
0000
0000
1000
0000
0000
0001
0000
0000
1000
0000
0000
0001
0000
0010
0000
0100
0000
1000
0000
0100
0000
0010
0000
,
0001
0000
0001
0000
1100
0000
1000
0000
0001
0100
0001
0100
0011
0000
0000
0000
,
0010
0100
0010
0100
1010
0000
0000
0000
0010
1000
0010
1000
0110
1000
0100
1000
,
0101
0000
0000
0001
1100
0000
0000
1000
0110
0000
0000
0010
0101
0000
0000
0001
,
1010
0000
1001
0000
0110
0110
0110
0110
,
1010
0000
0010
1000
0010
0000
1000
0010
1000
0000
0010
1000
0010
0000
1000
0010
,
0101
0000
0100
0001
0100
0000
0001
0100
0001
0000
0100
0001
0100
0000
0001
0100
,
1001
0000
1000
0001
1000
0000
0001
1000
0001
0000
1000
0001
1000
0000
0001
1000
,
0110
0000
0100
0010
0100
0000
0010
0100
0010
0000
0100
0010
0100
0000
0010
0100
,
1010
0000
0100
0001
0100
0000
0001
0100
0001
0000
0100
0001
0100
0000
0001
0100
,
0011
0000
0010
0100
0010
0000
0100
0010
0100
0000
0010
0100
0010
0000
0100
0010
,
1100
0000
0100
1000
0100
0000
1000
0100
1000
0000
0100
1000
0100
0000
1000
0100
,
1010
0000
0010
1000
0010
0000
1000
0010
1000
0000
0010
1000
0010
0000
1000
0010
,
0101
0110
0101
0110
1010
0110
1010
0110
,
0101
1001
1100
1001
0011
1001
1010
1001
,
1100
0110
1100
0110
0011
0110
0011
0110
,
1100
1001
0101
1001
1010
1001
0011
1001
,
1010
0000
0001
0010
0100
0000
0100
0000
1010
0100
0001
0010
0100
0000
0100
0000
,
1010
0000
0100
0001
0100
0010
1000
0001
1000
0010
1000
0001
2000
0000
3000
0000
,
0110
0000
0000
0000
1000
0001
0100
0000
0010
0000
0100
0000
1000
0000
0010
0000
0100
0000
0010
0000
1000
0000
0001
0000
0010
0000
0100
0000
1000
0000
0010
0000
,
0100
0100
0001
0001
1000
1000
0010
0010
,
0020
0000
0000
0000
0000
0000
0000
0000
0000
0000
0000
0000
0030
0000
0000
0000
1100
0000
0000
0000
0010
0000
0000
0000
1000
0000
0001
0000
0000
0100
0000
0000
,
0020
0000
0000
0000
0000
0000
0000
0000
1030
0001
0000
0000
0010
0000
0001
0000
1000
0000
0100
0020
0000
0000
0000
0000
0000
0000
0000
0000
0000
0000
0000
0000
,
0130
0001
1000
0100
0010
0001
0100
0010
0001
0010
0100
1000
0001
0100
0010
1000
,
0100
0001
0100
0001
0010
1000
0010
1000
0001
0010
0001
0010
0100
1000
0100
1000
,
0101
0000
1000
0001
0010
0000
0010
0000
0100
0000
0100
0000
0001
0000
0001
0000
,
1100
0000
0001
0010
0100
0000
0100
0000
0010
0000
0010
1000
0001
0000
0001
0000
,
1010
0000
0001
1000
0100
0000
0100
1000
0001
0010
0001
1000
0001
0000
0100
0000
,
0010
1000
0010
1000
0010
0100
0010
0100
0001
0100
0001
0100
0001
1000
0001
1000
,
0011
0110
0011
0110
1100
1100
1001
1010
,
0110
0110
0101
0101
1001
1010
1100
1100
,
1000
0100
0010
0100
1000
0010
0100
0010
1000
0100
0010
0001
0010
0100
0010
0001
,
0100
0010
1000
0010
0100
0010
1000
0010
0100
0001
0010
0001
0100
0010
1000
0100
,
1010
0000
0000
0110
,
0101
0000
0001
0100
0001
0000
0001
0100
0001
0000
0001
0100
0011
0000
0001
0100
,
1001
0000
1000
0100
1000
0000
1000
0100
1000
0000
1000
0100
1000
0000
1000
0100
,
1010
0000
0010
1000
0010
0000
0010
1000
0010
0000
0010
1000
0010
0000
0010
1000
,
0110
0000
0100
0001
0100
0000
0100
0001
0100
0010
1000
0001
0100
0010
1000
0001
,
1010
0000
1000
0010
1000
0000
1000
0010
1000
0000
1000
0010
1100
0000
1000
0010
,
1001
0000
0001
0010
0001
0000
0001
0010
0001
0000
0001
0010
0001
0000
0001
0010
,
0101
0000
0100
0001
0100
0000
0100
0001
0100
0000
0100
0001
0100
0000
0100
0001
,
0110
0000
0010
1000
0010
0000
0010
1000
0010
0100
0001
1000
0010
0100
0001
1000
,
0101
0000
0110
0000
1010
0000
1001
0000
1000
0100
0010
0001
0010
0000
0001
0010
,
1100
0000
0001
0100
0010
0000
0001
0010
0100
0000
0001
0100
0010
0000
0001
0010
,
1001
0000
1100
0000
0110
0000
0011
0000
0001
0010
0100
1000
0100
0000
1000
0010
,
0100
0000
1000
0100
0010
0000
1000
0010
0100
0000
1000
0100
0010
0000
1000
0010
,
0101
0000
1001
0000
1100
0000
0110
0000
0010
0001
0010
0100
2000
0000
3000
0000
,
0101
0000
1001
0000
0011
0000
0110
0000
0100
1000
0100
0010
0002
0000
0003
0000
,
1010
0000
0110
0000
0101
0000
1001
0000
0001
0010
0100
1000
0200
0000
0300
0000
,
1010
0000
0110
0000
0101
0000
1001
0000
1000
0100
0010
0001
1000
0100
0010
0001
,
0110
1100
0110
0011
0110
0101
0110
0011
,
1001
1100
0110
0011
0110
1100
0110
1010
,
0110
0101
0110
1010
1001
1100
0110
0011
,
1001
1100
0110
0011
0110
0101
0110
0011
,
1001
2002
3003
2020
3030
0220
0330
0202
,
0303
0000
1001
0000
0022
0000
0033
0000
1000
0100
0010
0001
1000
0100
0010
0001
,
1100
2200
3300
2002
3003
0022
0033
0220
,
0330
0000
1100
0000
2002
0000
3003
0000
0001
0010
0100
1000
0001
0010
0100
1000
,
0011
0022
0033
0220
0330
2200
3300
2002
,
3003
0101
0220
0000
0000
0000
0000
0000
,
0330
0000
0000
0000
;
