#TITLE:Songs;
#SUBTITLE:;
#ARTIST:Dj Sharpnel;
#TITLETRANSLIT:;
#SUBTITLETRANSLIT:;
#ARTISTTRANSLIT:;
#CREDIT:Involution;
#BANNER:songs bn.png;
#BACKGROUND:songs bg.png;
#LYRICSPATH:;
#CDTITLE:involution.png;
#MUSIC:Dj Sharpnel - Songs (Cut).mp3;
#OFFSET:-0.025;
#SAMPLESTART:60.640;
#SAMPLELENGTH:12.000;
#SELECTABLE:YES;
#BPMS:0.000=175.000,1.000=175.000,2.000=175.000,3.000=175.000,4.000=175.000,5.000=175.000,6.000=175.000,7.000=175.000,8.000=175.000,9.000=175.000,10.000=175.000,11.000=175.000,12.000=175.000,13.000=175.000,14.000=175.000,15.000=175.000,16.000=175.000,17.000=175.000,18.000=175.000,19.000=175.000,20.000=175.000,21.000=175.000,22.000=175.000,23.000=175.000,24.000=175.000,25.000=175.000,26.000=175.000,27.000=175.000,28.000=175.000,29.000=175.000,30.000=175.000,31.000=175.000,32.000=175.000,33.000=175.000,34.000=175.000,35.000=175.000,36.000=175.000,37.000=175.000,38.000=175.000,39.000=175.000,40.000=175.000,41.000=175.000,42.000=175.000,43.000=175.000,44.000=175.000,45.000=175.000,46.000=175.000,47.000=175.000,48.000=175.000,49.000=175.000,50.000=175.000,51.000=175.000,52.000=175.000,53.000=175.000,54.000=175.000,55.000=175.000,56.000=175.000,57.000=175.000,58.000=175.000,59.000=175.000,60.000=175.000,61.000=175.000,62.000=175.000,63.000=175.000,64.000=175.000,65.000=175.000,66.000=175.000,67.000=175.000,68.000=175.000,69.000=175.000,70.000=175.000,71.000=175.000,72.000=175.000,73.000=175.000,74.000=175.000,75.000=175.000,76.000=175.000,77.000=175.000,78.000=175.000,79.000=175.000,80.000=175.000,81.000=175.000,82.000=175.000,83.000=175.000,84.000=175.000,85.000=175.000,86.000=175.000,87.000=175.000,88.000=175.000,89.000=175.000,90.000=175.000,91.000=175.000,92.000=175.000,93.000=175.000,94.000=175.000,95.000=175.000,96.000=175.000,97.000=175.000,98.000=175.000,99.000=175.000,100.000=175.000,101.000=175.000,102.000=175.000,103.000=175.000,104.000=175.000,105.000=175.000,106.000=175.000,107.000=175.000,108.000=175.000,109.000=175.000,110.000=175.000,111.000=175.000,112.000=175.000,113.000=175.000,114.000=175.000,115.000=175.000,116.000=175.000,117.000=175.000,118.000=175.000,119.000=175.000,120.000=175.000,121.000=175.000,122.000=175.000,123.000=175.000,124.000=175.000,125.000=175.000,126.000=175.000,127.000=175.000,128.000=175.000,129.000=175.000,130.000=175.000,131.000=175.000,132.000=175.000,133.000=175.000,134.000=175.000,135.000=175.000,136.000=175.000,137.000=175.000,138.000=175.000,139.000=175.000,140.000=175.000,141.000=175.000,142.000=175.000,143.000=175.000,144.000=175.000,145.000=175.000,146.000=175.000,147.000=175.000,148.000=175.000,149.000=175.000,150.000=175.000,151.000=175.000,152.000=175.000,153.000=175.000,154.000=175.000,155.000=175.000,156.000=175.000,157.000=175.000,158.000=175.000,159.000=175.000,160.000=175.000,161.000=175.000,162.000=175.000,163.000=175.000,164.000=175.000,165.000=175.000,166.000=175.000,167.000=175.000,168.000=175.000,169.000=175.000,170.000=175.000,171.000=175.000,172.000=175.000,173.000=175.000,174.000=175.000,175.000=175.000,176.000=175.000,177.000=175.000,178.000=175.000,179.000=175.000,180.000=175.000,181.000=175.000,182.000=175.000,183.000=175.000,184.000=175.000,185.000=175.000,186.000=175.000,187.000=175.000,188.000=175.000,189.000=175.000,190.000=175.000,191.000=175.000,192.000=175.000,193.000=175.000,194.000=175.000,195.000=175.000,196.000=175.000,197.000=175.000,198.000=175.000,199.000=175.000,200.000=175.000,201.000=175.000,202.000=175.000,203.000=175.000,204.000=175.000,205.000=175.000,206.000=175.000,207.000=175.000,208.000=175.000,209.000=175.000,210.000=175.000,211.000=175.000,212.000=175.000,213.000=175.000,214.000=175.000,215.000=175.000,216.000=175.000,217.000=175.000,218.000=175.000,219.000=175.000,220.000=175.000,221.000=175.000,222.000=175.000,223.000=175.000,224.000=175.000,225.000=175.000,226.000=175.000,227.000=175.000,228.000=175.000,229.000=175.000,230.000=175.000,231.000=175.000,232.000=175.000,233.000=175.000,234.000=175.000,235.000=175.000,236.000=175.000,237.000=175.000,238.000=175.000,239.000=175.000,240.000=175.000,241.000=175.000,242.000=175.000,243.000=175.000,244.000=175.000,245.000=175.000,246.000=175.000,247.000=175.000,248.000=175.000,249.000=175.000,250.000=175.000,251.000=175.000,252.000=175.000,253.000=175.000,254.000=175.000,255.000=175.000,256.000=175.000,257.000=175.000,258.000=175.000,259.000=175.000,260.000=175.000,261.000=175.000,262.000=175.000,263.000=175.000,264.000=175.000,265.000=175.000,266.000=175.000,267.000=175.000,268.000=175.000,269.000=175.000,270.000=175.000,271.000=175.000,272.000=175.000,273.000=175.000,274.000=175.000,275.000=175.000,276.000=175.000,277.000=175.000,278.000=175.000,279.000=175.000,280.000=175.000,281.000=175.000,282.000=175.000,283.000=175.000,284.000=175.000,285.000=175.000,286.000=175.000,287.000=175.000,288.000=175.000,289.000=175.000,290.000=175.000,291.000=175.000,292.000=175.000,293.000=175.000,294.000=175.000,295.000=175.000,296.000=175.000,297.000=175.000,298.000=175.000,299.000=175.000,300.000=175.000,301.000=175.000,302.000=175.000,303.000=175.000,304.000=175.000,305.000=175.000,306.000=175.000,307.000=175.000,308.000=175.000,309.000=175.000,310.000=175.000,311.000=175.000,312.000=175.000,313.000=175.000,314.000=175.000,315.000=175.000,316.000=175.000,317.000=175.000,318.000=175.000,319.000=175.000,320.000=175.000,321.000=175.000,322.000=175.000,323.000=175.000,324.000=175.000,325.000=175.000,326.000=175.000,327.000=175.000,328.000=175.000,329.000=175.000,330.000=175.000,331.000=175.000,332.000=175.000,333.000=175.000,334.000=175.000,335.000=175.000,336.000=175.000,337.000=175.000,338.000=175.000,339.000=175.000,340.000=175.000,341.000=175.000,342.000=175.000,343.000=175.000,344.000=175.000,345.000=175.000,346.000=175.000,347.000=175.000,348.000=175.000,349.000=175.000,350.000=175.000,351.000=175.000,352.000=175.000,353.000=175.000,354.000=175.000,355.000=175.000,356.000=175.000,357.000=175.000,358.000=175.000,359.000=175.000,360.000=175.000,361.000=175.000,362.000=175.000,363.000=175.000,364.000=175.000,365.000=175.000,366.000=175.000,367.000=175.000,368.000=175.000,369.000=175.000,370.000=175.000,371.000=175.000,372.000=175.000,373.000=175.000,374.000=175.000,375.000=175.000,376.000=175.000,377.000=175.000,378.000=175.000,379.000=175.000,380.000=175.000,381.000=175.000,382.000=175.000,383.000=175.000,384.000=175.000,385.000=175.000,386.000=175.000,387.000=175.000,388.000=175.000,389.000=175.000,390.000=175.000,391.000=175.000,392.000=175.000,393.000=175.000,394.000=175.000,395.000=175.000,396.000=175.000,397.000=175.000,398.000=175.000,399.000=175.000,400.000=175.000,401.000=175.000,402.000=175.000,403.000=175.000,404.000=175.000,405.000=175.000,406.000=175.000,407.000=175.000,408.000=175.000,409.000=175.000,410.000=175.000,411.000=175.000,412.000=175.000,413.000=175.000,414.000=175.000,415.000=175.000,416.000=175.000,417.000=175.000,418.000=175.000,419.000=175.000,420.000=175.000;
#STOPS:;
#BGCHANGES:;
// cache tags:
#FIRSTBEAT:0.000;
#LASTBEAT:418.000;
#SONGFILENAME:Songs/toune 2/(Involution) Songs/songs.sm;
#HASMUSIC:1;
#HASBANNER:1;
#MUSICLENGTH:144.065;
// end cache tags

//---------------dance-single - ----------------
#NOTES:
     dance-single:
     :
     Hard:
     13:
     1.000,1.000,1.000,0.222,1.000,1013.000,354.000,32.000,0.000,8.000:
1001
0100
0010
0100
1001
0000
0010
0000
1100
0000
1000
0000
0011
0000
0010
0000
,
1001
0100
0011
0010
0101
1000
1010
0100
,
0011
1000
1100
0010
0110
0001
0101
1000
,
1010
0010
0110
1000
0011
0010
1100
0001
,
0110
1000
1100
0010
0011
0100
1100
0001
,
0101
0010
1001
0100
0110
0001
1010
1000
,
0101
0010
1100
1000
0110
0001
1100
0100
,
0011
0010
1100
0010
0101
0100
1001
0100
,
0110
0010
0001
0000
1000
0000
1000
0000
,
0001
0000
0000
0000
0010
0010
0010
0000
0000
0000
0000
0000
0110
0000
0011
0000
,
1100
1000
0001
0001
,
1000
0000
0000
0000
0100
0100
0100
0000
0000
0000
0000
0000
1001
0000
0000
0000
,
0220
0330
0000
0000
0001
0000
0000
0000
1000
0000
0000
0000
1000
0000
0000
0000
,
0001
0000
0000
0000
0010
0010
0010
0000
0000
0000
0000
0000
0110
0000
1100
0000
,
0011
1000
0001
0001
,
1000
0000
0010
0000
1100
0110
0011
0000
,
2002
3003
0000
0000
0000
0000
0000
0000
1000
0000
0000
0000
0000
0000
0000
0000
0001
0000
0000
0000
0000
0000
0000
0000
0001
0000
0000
0000
0000
0000
0000
0000
,
1000
0000
0000
0000
0100
0100
0100
0000
0000
0000
0000
0000
0110
0000
0011
0000
,
1100
0001
1000
1000
,
0001
0000
0000
0000
0001
0001
0001
0000
0000
0000
0000
0000
1001
0000
0000
0000
,
0220
0330
0000
0000
0000
0000
0000
0000
1000
0000
0000
0000
0000
0000
0000
0000
0001
0000
0000
0000
0000
0000
0000
0000
0001
0000
0000
0000
0000
0000
0000
0000
,
1000
0000
0000
0000
1000
1000
1000
0000
0000
0000
0000
0000
0110
0000
1100
0000
,
0011
0001
1000
1000
,
0001
0000
1000
0000
0011
0110
1100
0000
,
0220
0330
0000
0000
1000
0000
0000
0000
0001
0000
0000
0000
0001
0000
0000
0000
,
1000
0000
0000
0000
0001
0001
0001
0000
0000
0000
0000
0000
0110
0000
1001
0000
,
0110
0001
1000
1000
,
0001
0000
0000
0000
1000
1000
1000
0000
0000
0000
0000
0000
1001
0000
0000
0000
,
0220
0330
0000
0000
0000
0000
0000
0000
1000
0000
0000
0000
0000
0000
0000
0000
0001
0000
0000
0000
0000
0000
0000
0000
0001
0000
0000
0000
0000
0000
0000
0000
,
1000
0000
0000
0000
0010
0010
0010
0000
0000
0000
0000
0000
1001
0000
0110
0000
,
1001
0010
0100
0100
,
0010
0000
0110
0000
0101
1001
1010
0000
,
2002
3003
0000
0000
0010
0000
0000
0000
0100
0000
0000
0000
0100
0000
0000
0000
,
0010
0000
0000
0000
0100
0100
0100
0000
0000
0000
0000
0000
1100
0000
0110
0000
,
0011
1000
0001
0001
,
1000
0000
0000
0000
0010
0010
0010
0000
0000
0000
0000
0000
0110
0000
0000
0000
,
0220
0330
0000
0000
0000
0000
0000
0000
1000
0000
0100
0000
1000
0000
0100
0000
0010
0000
0100
0000
0010
0000
0001
0000
0010
0000
0001
0000
0010
0000
0100
0000
,
0010
0100
1000
0100
1000
0100
0010
0001
0010
0100
1000
0010
0001
0100
0001
0010
,
0100
0000
0000
1000
0000
0000
0010
0000
0000
0100
0000
0000
1000
0000
0100
0000
0010
0000
0001
0000
0100
0000
0010
0000
0100
0000
0010
0000
1000
0000
0100
0000
0010
0000
0001
0000
0010
0000
0100
0000
1000
0000
0010
0000
0100
0000
0010
0000
,
0100
0000
0001
0000
0010
0000
0100
0000
1000
0000
0010
0000
2002
0000
0000
3003
0000
0000
0000
0000
0000
0000
0000
0000
0220
0000
0000
0330
0000
0000
2200
0000
0000
3300
0000
0000
0022
0000
0000
0000
0000
0000
0000
0000
0000
0000
0000
0000
,
0033
0000
0000
0000
1001
0010
0100
0001
0110
1000
0100
0010
1100
0001
1000
0100
,
0011
1000
0001
0010
1100
0010
0100
0001
0110
1000
0100
0010
1001
0000
0010
0000
,
0011
0000
0100
0000
1100
0001
0010
0001
0110
1000
0100
1000
0011
0100
0010
0100
,
1001
0010
0001
0010
1100
0001
1000
0100
1001
0100
1000
0100
0011
0000
0100
0000
,
1100
0000
0001
0000
0110
1000
0100
0010
1001
0010
1000
0100
0011
0100
0010
0001
,
1100
0010
0100
1000
0110
0001
1000
0100
0011
0100
0001
0010
1100
0000
0001
0000
,
0110
0000
1000
0000
1010
0100
1000
0100
0011
1000
0010
0100
1010
0001
0010
1000
,
0101
0010
1000
0001
0110
1000
0001
0010
1100
0001
1000
0100
0011
0000
0010
0000
,
0110
0000
0100
0000
1100
0010
1000
0100
0011
1000
0100
1000
0110
0001
0010
0001
,
1100
0010
1000
0100
0011
0100
0010
0001
0110
1000
0100
0010
1100
0000
0100
0000
,
0110
0000
0010
0000
0011
0100
0001
0010
1100
0001
1000
0001
0110
1000
0010
1000
,
0101
0010
0100
0001
1010
0100
0010
1000
0110
1000
0001
1000
0011
0000
0010
0000
,
0110
0000
0100
0000
1100
0010
1000
0010
0101
1000
0001
0100
1010
0001
0100
0001
,
0110
1000
0100
1000
0011
0100
0010
0001
1100
0010
0100
1000
0110
0000
0010
0000
,
0101
0000
1000
0000
0011
0100
0010
0100
1001
0010
0100
1000
0101
0010
0001
0010
,
1100
0001
1000
0001
0110
1000
0100
0010
1100
0010
1000
0010
0101
0000
1000
0000
,
0110
0000
0010
0000
1001
0100
1000
0001
0110
1000
0001
1000
0011
0100
0010
0001
,
1010
0001
0100
0010
0101
1000
0001
1000
0110
0001
1000
0001
1010
0000
0001
0000
,
0110
0000
1000
0000
0101
0010
0100
0001
1010
0100
0001
1000
0110
0001
1000
0010
,
1001
0100
0010
1000
0011
0100
0001
0010
1100
0010
1000
0100
0011
0000
1000
0000
,
0110
0000
1000
0000
0011
0100
0010
0001
1100
0010
0100
1000
0110
0001
0010
0100
,
0011
0100
1000
0001
0110
0001
0100
0001
1100
0010
1000
0100
0011
0000
0100
0000
,
0110
0000
0010
0000
0011
1000
0001
0010
1100
0001
1000
0001
0110
1000
0100
1000
,
0011
0100
0001
1000
0110
0001
1000
0010
1100
0010
1000
0100
0011
0000
1000
0000
,
0110
0000
0001
0000
1010
0100
0010
1000
0101
0010
0100
0001
1010
0001
1000
0001
,
0110
1000
0010
1000
0101
0010
1000
0010
1100
0001
0010
0001
1100
0000
0010
0000
,
0011
0000
1000
0000
0110
1000
0001
0010
1100
0001
1000
0100
0011
1000
0001
1000
,
0110
0001
1000
0010
1001
0010
0100
0001
0110
1000
0010
1000
0101
0000
1000
0000
,
1100
0000
0001
0000
0011
1000
0010
1000
0110
0001
1000
0100
0011
1000
0001
0010
,
1100
0001
1000
0010
0101
0010
0100
0010
0101
0000
1010
0000
0101
0000
0010
0000
,
1100
0000
0110
0000
0011
0000
1100
0000
0110
0000
1100
0000
0110
0011
1100
0011
,
0110
0000
1100
0000
0011
0000
0110
0000
2002
3003
0000
0000
0000
0000
0000
0000
0220
0330
0000
0000
0022
0033
0000
0000
2200
3300
0000
0000
1001
0000
0000
0000
,
1001
0110
1100
0011
,
0110
1001
0110
0011
,
1100
0110
0011
1100
,
0110
0000
0000
0000
0000
0000
0000
0000
1011
0000
0000
0000
0000
0000
0000
0000
1011
0000
0000
0000
0000
0000
0000
0000
0011
0100
0010
0000
0100
0000
1000
0000
,
0110
0011
1100
0110
,
0011
0101
1010
1001
,
0110
0011
1010
0110
,
0101
0000
0000
0000
0000
0000
0000
0000
1101
0000
0000
0000
0000
0000
0000
0000
1101
0000
0000
0000
0000
0000
0000
0000
1100
0010
0001
0000
0010
0000
1000
0000
,
0011
1100
0110
1001
,
0110
0101
1100
1100
,
0101
0110
1001
1100
,
0110
0000
0000
0000
0000
0000
0000
0000
1110
0000
0000
0000
0000
0000
0000
0000
0111
0000
0000
0000
0000
0000
0000
0000
1100
0010
0001
0000
1000
0000
0010
0000
,
0101
1100
0110
1010
,
1100
0110
0011
1100
,
0110
0011
1100
0110
,
1100
0000
0000
0000
0000
0000
0000
0000
1101
0000
0000
0000
0000
0000
0000
0000
1011
0000
0000
0000
0000
0000
0000
0000
1100
0010
0001
0000
1000
0000
0001
0000
,
0110
1000
0010
1000
0011
0100
0010
0001
1010
0100
1000
0001
0110
1000
0100
1000
,
0011
0100
0010
0100
1001
0100
0001
0100
1010
0001
1000
0001
0110
0000
0010
0000
,
1001
0000
0100
0000
0011
1000
0100
1000
0110
0001
1000
0100
1001
0100
0010
0001
,
0110
1000
0100
0010
1100
0010
0100
0010
0101
1000
0100
1000
0110
0000
1000
0000
,
1001
0000
0001
0000
0101
0010
0100
0001
1100
0010
1000
0001
0110
1000
0010
0100
,
1001
0100
0001
0100
0011
1000
0001
0010
1100
0001
1000
0001
0110
0000
1000
0000
,
1001
0000
0001
0000
0101
1000
0010
0100
1010
0001
1000
0001
0110
1000
0010
0100
,
1001
0000
0000
0010
0000
0000
1000
0000
0000
0001
0000
0000
0110
0000
0000
0000
0000
0000
0100
0000
0000
0000
0000
0000
1100
0000
0000
0000
0000
0000
0010
0000
0000
0000
0000
0000
0011
0000
0100
0000
1000
0000
0100
0000
1000
0000
0001
0000
,
1100
0000
0010
0000
0001
0000
0010
0000
0001
0000
1000
0000
0011
0000
0000
1000
0000
0000
0010
0000
0000
0100
0000
0000
1001
0000
0000
0010
0000
0000
1000
0000
0000
0100
0000
0000
0011
0000
0000
0100
0000
0000
0010
0000
0000
0001
0000
0000
,
1010
0100
0010
1000
0110
0001
1000
0010
1001
0100
0010
0100
0011
0000
0100
0000
,
1100
0000
0001
0000
0110
1000
0001
0010
1001
0010
1000
0001
0110
1000
0100
1000
,
0011
0100
0010
0001
1100
0010
1000
0001
0110
1000
0001
0010
1100
0000
1000
0000
,
0101
0000
0010
0000
0011
0100
1000
0010
1100
0001
1000
0001
0110
1000
0001
0010
,
1100
0010
1000
0100
0011
1000
0001
1000
0110
0001
0100
0010
1001
0000
0010
0000
,
0101
0000
1000
0000
1100
0010
0001
1000
0110
0001
1010
0100
0011
1000
0100
0010
,
1001
0100
0011
1100
0110
0011
0110
1100
0110
1000
0101
0010
0101
1000
0100
0010
,
0100
0010
0001
0100
2002
0000
0000
0000
3003
0000
0000
0000
0000
0000
0000
0000
;

//---------------dance-single - ----------------
#NOTES:
     dance-single:
     :
     Challenge:
     15:
     1.000,1.000,1.000,0.125,1.000,1061.000,359.000,18.000,0.000,41.000:
1001
0100
0010
0100
1001
0000
0010
0000
1100
0000
1000
0000
0011
0000
0010
0000
,
1001
0100
0011
0010
0101
1000
1010
0100
,
0011
1000
1100
0010
0110
0001
0101
1000
,
1010
0010
0110
1000
0011
0010
1100
0001
,
0110
1000
1100
0010
0011
0100
1100
0001
,
0101
0010
1001
0100
0110
0001
1010
1000
,
0101
0010
1100
1000
0110
0001
1100
0100
,
0011
0010
1100
0010
0101
0100
1001
0100
,
0110
0010
0001
0000
1000
0000
1000
0000
,
0001
0000
0000
0000
0010
0010
0010
0000
0000
0000
0000
0000
1110
0000
0111
0000
,
1110
1000
0001
0001
,
1000
0000
0000
0000
0100
0100
0100
0000
0000
0000
0000
0000
1001
0000
0000
0000
,
0110
0001
1000
1000
,
0001
0000
0000
0000
0010
0010
0010
0000
0000
0000
0000
0000
1101
0000
1011
0000
,
1101
1000
0001
0001
,
1000
0000
1110
0000
1101
0111
1011
0000
,
1001
1000
0001
0001
,
1000
0000
0000
0000
0100
0100
0100
0000
0000
0000
0000
0000
0111
0000
1110
0000
,
0111
0001
1000
1000
,
0001
0000
0000
0000
0001
0001
0001
0000
0000
0000
0000
0000
1001
0000
0000
0000
,
0110
1000
0001
0001
,
1000
0000
0000
0000
1000
1000
1000
0000
0000
0000
0000
0000
1011
0000
1101
0000
,
1011
0001
1000
1000
,
0001
0000
1101
0000
0111
1011
1110
0000
,
0110
1000
0001
0001
,
1000
0000
0000
0000
0001
0001
0001
0000
0000
0000
0000
0000
1011
0000
1101
0000
,
1011
0001
1000
1000
,
0001
0000
0000
0000
1000
1000
1000
0000
0000
0000
0000
0000
1001
0000
0000
0000
,
0110
1000
0001
0001
,
1000
0000
0000
0000
0010
0010
0010
0000
0000
0000
0000
0000
0111
0000
0111
0000
,
0111
0010
0100
0100
,
0010
0000
1011
0000
1101
1101
1101
0000
,
1001
0010
0100
0100
,
0010
0000
0000
0000
0100
0100
0100
0000
0000
0000
0000
0000
1110
0000
1110
0000
,
1110
1000
0001
0001
,
1000
0000
0000
0000
0010
0010
0010
0000
0000
0000
0000
0000
0110
0000
0000
0000
,
1001
0000
0000
0000
1000
0100
1000
0100
0010
0100
0010
0001
0010
0001
0010
0100
,
0010
0100
1000
0100
1000
0100
0010
0001
0010
0100
1000
0010
0001
0100
0001
0010
,
0100
0000
0000
1000
0000
0000
0010
0000
0000
0100
0000
0000
1000
0000
0100
0000
0010
0000
0001
0000
0100
0000
0010
0000
0100
0000
0010
0000
1000
0000
0100
0000
0010
0000
0001
0000
0010
0000
0100
0000
1000
0000
0010
0000
0100
0000
0010
0000
,
0100
0000
0001
0000
0010
0000
0100
0000
1000
0000
0010
0000
2002
0000
0000
3003
0000
0000
0000
0000
0000
0000
0000
0000
0220
0000
0000
0330
0000
0000
2200
0000
0000
3300
0000
0000
0022
0000
0000
0000
0000
0000
0000
0000
0000
0000
0000
0000
,
0033
0000
0000
0000
1001
0010
0100
0001
0110
1000
0100
0010
1100
0001
1000
0100
,
0011
1000
0001
0010
1100
0010
0100
0001
0110
1000
0100
0010
1001
0000
0010
0000
,
0011
0000
0100
0000
1100
0001
0010
0001
0110
1000
0100
1000
0011
0100
0010
0100
,
1001
0010
0001
0010
1100
0001
1000
0100
1001
0100
1000
0100
0011
0000
0100
0000
,
1100
0000
0001
0000
0110
1000
0100
0010
1001
0010
1000
0100
0011
0100
0010
0001
,
1100
0010
0100
1000
0110
0001
1000
0100
0011
0100
0001
0010
1100
0000
0001
0000
,
0110
0000
1000
0000
1010
0100
1000
0100
0011
1000
0010
0100
1010
0001
0010
1000
,
0101
0010
1000
0001
0110
1000
0001
0010
1100
0001
1000
0100
0011
0000
0010
0000
,
0110
0000
0100
0000
1100
0010
1000
0100
0011
1000
0100
1000
0110
0001
0010
0001
,
1100
0010
1000
0100
0011
0100
0010
0001
0110
1000
0100
0010
1100
0000
0100
0000
,
0110
0000
0010
0000
0011
0100
0001
0010
1100
0001
1000
0001
0110
1000
0010
1000
,
0101
0010
0100
0001
1010
0100
0010
1000
0110
1000
0001
1000
0011
0000
0010
0000
,
0110
0000
0100
0000
1100
0010
1000
0010
0101
1000
0001
0100
1010
0001
0100
0001
,
0110
1000
0100
1000
0011
0100
0010
0001
1100
0010
0100
1000
0110
0000
0010
0000
,
0101
0000
1000
0000
0011
0100
0010
0100
1001
0010
0100
1000
0101
0010
0001
0010
,
1100
0001
1000
0001
0110
1000
0100
0010
1100
0010
1000
0010
0101
0000
1000
0000
,
0110
0000
0010
0000
1001
0100
1000
0001
0110
1000
0001
1000
0011
0100
0010
0001
,
1010
0001
0100
0010
0101
1000
0001
1000
0110
0001
1000
0001
1010
0000
0001
0000
,
0110
0000
1000
0000
0101
0010
0100
0001
1010
0100
0001
1000
0110
0001
1000
0010
,
1001
0100
0010
1000
0011
0100
0001
0010
1100
0010
1000
0100
0011
0000
1000
0000
,
0110
0000
1000
0000
0011
0100
0010
0001
1100
0010
0100
1000
0110
0001
0010
0100
,
0011
0100
1000
0001
0110
0001
0100
0001
1100
0010
1000
0100
0011
0000
0100
0000
,
0110
0000
0010
0000
0011
1000
0001
0010
1100
0001
1000
0001
0110
1000
0100
1000
,
0011
0100
0001
1000
0110
0001
1000
0010
1100
0010
1000
0100
0011
0000
1000
0000
,
0110
0000
0001
0000
1010
0100
0010
1000
0101
0010
0100
0001
1010
0001
1000
0001
,
0110
1000
0010
1000
0101
0010
1000
0010
1100
0001
0010
0001
1100
0000
0010
0000
,
0011
0000
1000
0000
0110
1000
0001
0010
1100
0001
1000
0100
0011
1000
0001
1000
,
0110
0001
1000
0010
1001
0010
0100
0001
0110
1000
0010
1000
0101
0000
1000
0000
,
1100
0000
0001
0000
0011
1000
0010
1000
0110
0001
1000
0100
0011
1000
0001
0010
,
1100
0001
1000
0010
0101
0010
0100
0010
0101
0000
1010
0000
0101
0000
0010
0000
,
1100
0000
0110
0000
0011
0000
1100
0000
0110
0000
1100
0000
0110
0011
1100
0011
,
0110
0000
1100
0000
0011
0000
0110
0000
2002
3003
0000
0000
0000
0000
0000
0000
0220
0330
0000
0000
0022
0033
0000
0000
2200
3300
0000
0000
1001
0000
0000
0000
,
1001
0110
1100
0011
,
0110
1001
0110
0011
,
1100
0110
0011
1100
,
0110
0000
0000
0000
0000
0000
0000
0000
1011
0000
0000
0000
0000
0000
0000
0000
1011
0000
0000
0000
0000
0000
0000
0000
0011
0100
0010
0000
0100
0000
1000
0000
,
0011
0011
1100
0110
,
0011
0101
1010
1001
,
0110
0011
1010
0110
,
0101
0000
0000
0000
0000
0000
0000
0000
1101
0000
0000
0000
0000
0000
0000
0000
1101
0000
0000
0000
0000
0000
0000
0000
1100
0010
0001
0000
0010
0000
1000
0000
,
0011
1100
0110
1001
,
0110
0101
1100
1100
,
0101
0110
1001
1100
,
0110
0000
0000
0000
0000
0000
0000
0000
1110
0000
0000
0000
0000
0000
0000
0000
0111
0000
0000
0000
0000
0000
0000
0000
1100
0010
0001
0000
1000
0000
0010
0000
,
0101
1100
0110
1010
,
1100
0110
0011
1100
,
0110
0011
1100
0110
,
1100
0000
0000
0000
0000
0000
0000
0000
1101
0000
0000
0000
0000
0000
0000
0000
1011
0000
0000
0000
0000
0000
0000
0000
1100
0010
0001
0000
1000
0000
0001
0000
,
0110
1000
0010
1000
0011
0100
0010
0001
1010
0100
1000
0001
0110
1000
0100
1000
,
0011
0000
0000
0100
0000
0000
0010
0000
0000
0100
0000
0000
1001
0000
0000
0100
0000
0000
0001
0000
0000
0100
0000
0000
1010
0000
0000
0001
0000
0000
1000
0000
0000
0001
0000
0000
0110
0000
1000
0000
0100
0000
0010
0000
0100
0000
0010
0000
,
1001
0000
0010
0000
1000
0000
0100
0000
0000
0000
0000
0000
0011
0000
0000
1000
0000
0000
0100
0000
0000
1000
0000
0000
0110
0000
0000
0001
0000
0000
1000
0000
0000
0100
0000
0000
1001
0000
0000
0100
0000
0000
0010
0000
0000
0001
0000
0000
,
0110
0000
0000
1000
0000
0000
0100
0000
0000
0010
0000
0000
1100
0000
0000
0010
0000
0000
0100
0000
0000
0010
0000
0000
0101
0000
0000
1000
0000
0000
0100
0000
0000
1000
0000
0000
0110
0000
0001
0000
0100
0000
1000
0000
0010
0000
0100
0000
,
1001
0000
0010
0000
0100
0000
0001
0000
0000
0000
0000
0000
0101
0000
0000
0010
0000
0000
0100
0000
0000
0001
0000
0000
1100
0000
0000
0010
0000
0000
1000
0000
0000
0001
0000
0000
0110
0000
0000
1000
0000
0000
0010
0000
0000
0100
0000
0000
,
1001
0000
0000
0100
0000
0000
0001
0000
0000
0100
0000
0000
0011
0000
0000
1000
0000
0000
0001
0000
0000
0010
0000
0000
1100
0000
0000
0001
0000
0000
1000
0000
0000
0001
0000
0000
0110
0000
1000
0000
0100
0000
1000
0000
0100
0000
0010
0000
,
1001
0000
0100
0000
0010
0000
0001
0000
0000
0000
0000
0000
0101
0000
0000
1000
0000
0000
0010
0000
0000
0100
0000
0000
1010
0000
0000
0001
0000
0000
1000
0000
0000
0001
0000
0000
0110
0000
0000
1000
0000
0000
0010
0000
0000
0100
0000
0000
,
1001
0000
0000
0000
0000
0000
0000
0000
0000
0000
0000
0000
0010
0000
0000
0000
0000
0000
0000
0000
0000
0000
0000
0000
1000
0000
0000
0000
0000
0000
0000
0000
0000
0000
0000
0000
0001
0000
0000
0000
0000
0000
0000
0000
0000
0000
0000
0000
0110
0000
0000
0000
0000
0000
0000
0000
0001
0000
0000
0000
0000
0000
0000
0000
1000
0000
0000
0000
0000
0000
0000
0000
0100
0000
0000
0000
0000
0000
0000
0000
0001
0000
0000
0000
0000
0000
0000
0000
0010
0000
0000
0000
0000
0000
0000
0000
1100
0000
0000
0000
0000
0000
0000
0000
0010
0000
0000
0000
0000
0000
0000
0000
0001
0000
0000
0000
0000
0000
0000
0000
0010
0000
0000
0000
0000
0000
0000
0000
0001
0000
0000
0000
0000
0000
0000
0000
0100
0000
0000
0000
0000
0000
0000
0000
0011
0000
0000
0000
0000
0000
1000
0000
0000
0000
0000
0000
0100
0000
0000
0000
0000
0000
1000
0000
0000
0000
0000
0000
0100
0000
0000
0000
0000
0000
1000
0000
0000
0000
0000
0000
0100
0000
0000
0000
0000
0000
0010
0000
0000
0000
0000
0000
,
1100
0001
0010
0100
1000
0100
0010
0100
0011
0000
1000
0000
0010
0000
0100
0000
1001
0000
0010
0000
1000
0000
0100
0000
0011
0000
0100
0000
0010
0000
0001
0000
,
1010
0000
0000
0100
0000
0000
0010
0000
0000
1000
0000
0000
0110
0000
0000
0001
0000
0000
1000
0000
0000
0010
0000
0000
1001
0000
0000
0100
0000
0000
0010
0000
0000
0100
0000
0000
0011
0000
1000
0000
0010
0000
0100
0000
0001
0000
0010
0000
,
1100
0000
0001
0000
0010
0000
0001
0000
0000
0000
0000
0000
0110
0000
0000
1000
0000
0000
0001
0000
0000
0010
0000
0000
1001
0000
0000
0010
0000
0000
1000
0000
0000
0001
0000
0000
0110
0000
0000
1000
0000
0000
0100
0000
0000
1000
0000
0000
,
0011
0000
0000
0100
0000
0000
0010
0000
0000
0001
0000
0000
1100
0000
0000
0010
0000
0000
1000
0000
0000
0001
0000
0000
0110
0000
0000
1000
0000
0000
0001
0000
0000
0010
0000
0000
1100
0000
0001
0000
0010
0000
0001
0000
1000
0000
0010
0000
,
0101
0000
1000
0000
0100
0000
0010
0000
0000
0000
0000
0000
0011
0000
0000
0100
0000
0000
1000
0000
0000
0010
0000
0000
1100
0000
0000
0001
0000
0000
1000
0000
0000
0001
0000
0000
0110
0000
0000
1000
0000
0000
0001
0000
0000
0010
0000
0000
,
1100
0000
0000
0010
0000
0000
1001
0000
0000
0100
0000
0000
0011
0000
0000
1000
0000
0000
0001
0000
0000
1000
0000
0000
0110
0000
0000
0001
0000
0000
1100
0000
0000
0001
0000
0000
0110
0000
1000
0000
0100
0000
0010
0000
0100
0000
1000
0000
,
0101
0000
0010
0000
0100
0000
1001
0000
0000
0000
0000
0000
1010
0000
0000
0100
0000
0000
0010
0000
0000
1000
0000
0000
0110
0000
0000
0001
0000
0000
1010
0000
0000
0100
0000
0000
0011
0000
0000
1000
0000
0000
0100
0000
0000
0010
0000
0000
,
1001
0100
0011
1100
0110
0011
0110
1100
0110
1000
0101
0010
0101
1000
0100
0010
,
0100
0010
0001
0100
2002
0000
0000
0000
3003
0000
0000
0000
0000
0000
0000
0000
;
