#TITLE:Yuna's Ballad;
#SUBTITLE:;
#ARTIST:Yuna's Ballad;
#TITLETRANSLIT:;
#SUBTITLETRANSLIT:;
#ARTISTTRANSLIT:;
#CREDIT:;
#BANNER:kuuy.JPG;
#BACKGROUND:6.jpg;
#LYRICSPATH:;
#CDTITLE:Yuna's Ballad;
#MUSIC:Yuna's Ballad.mp3;
#OFFSET:0.000;
#SAMPLESTART:50.000;
#SAMPLELENGTH:12.000;
#SELECTABLE:YES;
#BPMS:0.000=100.000;
#STOPS:;
#BGCHANGES:;
// cache tags:
#FIRSTBEAT:0.500;
#LASTBEAT:291.500;
#SONGFILENAME:Songs/longs versions/Yuna's Ballad/Yuna's Ballad.sm;
#HASMUSIC:1;
#HASBANNER:1;
#MUSICLENGTH:179.234;
// end cache tags

//---------------dance-single - Blank----------------
#NOTES:
     dance-single:
     Blank:
     Challenge:
     13:
     0.270,0.244,0.017,0.000,0.458,335.000,3.000,0.000,0.000,1.000:

0000
0000
1000
0000
0000
0000
0000
0010
0000
0000
0000
0000
0100
0000
1001
0000
,
0000
0000
0000
0000
0000
0000
0000
0000
0000
0010
0000
0100
0000
0000
0000
0000
,
1000
0000
0000
1001
0000
0000
0000
0000
0000
0000
0000
0010
0000
0000
0000
0000
,
0100
0000
0001
0000
0000
1000
0000
0010
0000
0000
0000
0000
0000
0000
0100
0000
,
0000
1000
0001
0000
0000
0000
0000
0100
,
0000
0000
0000
0000
0000
0000
0000
0000
0010
0000
0000
0100
0000
0001
0000
0000
,
1000
0000
0000
0000
0000
0010
0000
0100
,
0001
0000
0000
1000
0000
0000
0000
0000
0010
0000
0100
0000
1000
0000
0100
0000
,
0000
0000
0001
0000
0100
0000
0010
0000
0000
0000
0100
0000
0000
1000
0000
0100
,
0000
0001
0000
0010
0000
0000
0100
0000
0001
0000
0000
0000
0000
1000
0000
0000
,
0000
0000
0000
0010
0000
0000
0100
0000
1000
0000
0100
0000
0000
0000
0000
0000
,
0000
0000
0001
0000
0000
0000
0000
0010
0000
0100
0000
1000
0000
0100
0000
0000
,
0000
0000
0000
0000
0000
0010
0000
0100
0000
0010
0000
0000
1000
0000
0001
0000
,
0100
0000
0000
0000
0000
0000
0001
0000
0100
0000
0000
0010
0000
1000
0000
0010
,
0000
0000
0100
0000
0001
0000
0000
0000
0000
1000
0000
0010
0000
0100
0000
0000
,
0010
0000
1000
0000
0100
0000
0000
0001
0000
0000
0000
0000
0000
1000
0000
0000
,
0000
0000
0010
0000
0000
0100
0000
0010
0000
1000
0000
0000
0000
0000
0000
0000
,
0000
0100
0000
0001
0000
0000
0100
0000
0010
0000
1000
0000
0000
0010
0000
0100
,
0000
0000
0000
0000
0000
0001
0000
0000
0000
0000
0100
0000
0000
0000
0010
0000
,
0000
0000
1000
0000
0000
0000
0000
0001
0000
0000
0000
0000
0000
0100
0000
0010
,
0000
1000
0000
0001
0000
0000
0000
0000
0000
0100
0000
0001
0000
0000
0000
1000
,
0000
0010
0000
0000
0100
0000
0010
0000
0000
0000
0000
1000
0000
0100
0000
0010
,
0000
0000
0100
0000
0001
0000
0000
0100
0000
0010
0000
0000
0000
0000
1000
0000
,
0100
0000
0000
0001
0000
0010
0000
0000
0100
0000
0010
0000
0100
0000
0000
0000
,
0000
0000
0001
0000
0000
0000
0000
0000
1000
0000
0010
0000
0000
0100
0000
0010
,
0000
0000
0000
1000
0000
0000
0100
0001
,
0010
0000
0000
0100
0000
0000
0000
0000
0000
0000
1000
0000
0010
0000
0000
0100
,
0000
0001
0000
0010
0000
0000
0100
0000
0000
0000
0000
1000
0000
0100
0000
0000
,
0001
0000
0010
0000
0000
0000
0000
0100
0000
0000
0001
0000
0000
0000
0000
1000
,
0000
0010
0000
0000
0100
0000
0010
0000
0100
0000
0000
0001
0000
1000
0000
0000
,
0000
0000
0000
0000
0000
0010
0000
0000
0000
0000
0100
0000
0001
0000
0000
1000
,
0000
0010
0000
0000
0000
0000
0000
0000
0000
0100
0000
0000
0001
0000
0100
0000
,
0010
0000
1000
0000
0000
0100
0000
0001
0000
0000
0000
0000
0010
0000
0000
0000
,
0000
0100
0000
0000
0000
0000
0001
0000
0000
0000
0000
0010
0000
0000
0000
0000
,
0000
1000
0000
0000
0000
0000
0100
0000
0000
0010
0000
0100
0000
0001
0000
0000
,
0000
0000
0000
1000
0000
0010
0000
0000
0000
0100
0000
0010
0000
0000
1000
0000
,
0100
0000
0000
0000
0001
0000
0000
0010
0000
0000
0100
0000
1000
0000
0000
0000
,
0001
0000
0100
0000
0000
0000
0000
0000
0010
0000
0000
0000
0100
0000
0000
0001
,
0000
1000
0000
0010
0000
0000
0100
0000
0000
0000
0000
0000
0000
0000
0000
0000
,
0000
0100
0000
0010
0000
0000
1000
0000
0000
0100
0000
0000
0000
0000
0000
0000
,
0001
0000
0000
0000
0000
0010
0000
0100
0000
1000
0000
0100
0000
0000
0000
0000
,
0000
0000
0000
0001
0000
0010
0000
0100
0000
0010
0000
0000
1000
0000
0100
0000
,
0000
0000
0000
0001
0000
0010
0000
0000
0100
0000
0010
0000
0000
1000
0000
0100
,
0000
0001
0000
0000
0010
0000
0001
0000
0000
0010
0000
0000
0000
0000
0100
0000
,
1000
0100
0010
0000
0000
0000
0100
0000
,
0000
1000
0000
0001
0000
0010
0000
0100
0000
0000
0000
0000
0000
0000
0000
0001
,
0000
0100
0000
0010
0000
0000
1000
0000
0100
0000
0001
0000
0000
0010
0000
0000
,
0000
0000
1000
0000
0000
0000
0000
0000
0000
0000
0000
0100
0000
0000
0000
0000
,
0001
0000
0000
0000
0000
0010
0000
0000
0000
0000
0100
0000
1000
0000
0100
0000
,
0000
0001
0000
0000
0000
0000
0000
0000
0010
0000
0100
0000
0000
1000
0000
0000
,
0100
0000
0001
0000
0010
0000
0000
0000
0000
0100
0000
0010
0000
0000
1000
0000
,
0100
0000
0001
0000
0010
0000
0000
0100
0000
0000
0000
0000
1000
0000
0100
0000
,
0000
1000
0000
0100
0000
0001
0000
0000
0010
0000
0100
0000
0000
0000
0000
0000
,
0000
0000
0000
0000
0000
0000
0100
0000
1000
0000
0000
0001
0000
0010
0000
0000
,
0000
0000
0000
0000
0000
0100
0000
0000
0000
1000
0000
0000
0100
0000
0010
0000
,
0100
0000
0000
0000
0000
0000
0000
0001
0000
0000
0010
0000
0000
1000
0000
0001
,
0000
0000
0100
0000
0010
0000
0000
0000
1000
0000
0000
0100
0000
0000
0001
0000
,
1000
0000
0000
0000
0000
0000
0001
0000
1000
0000
0000
0000
0000
0010
0000
0100
,
0000
1000
0000
0000
0100
0000
0001
0000
0000
1000
0000
0001
0000
0000
0000
0000
,
0000
0000
1000
0000
0000
0000
0000
0000
0010
0000
0100
0000
0010
0000
0000
1000
,
0000
0000
0000
0000
0000
0000
1000
0000
0000
0100
0000
0001
0000
0000
0010
0000
,
0100
0000
0010
0000
0000
1000
0000
0000
0000
0000
0000
0100
0000
0000
0000
0000
,
0001
0000
0000
0000
1000
0000
0000
0000
0000
0000
0010
0000
0000
0000
0000
1000
,
0000
0000
0000
0000
0100
0000
0000
0001
0000
0000
0100
0000
0010
0000
0000
0000
,
0000
0000
0000
0000
0000
0000
0000
0000
0000
1000
0000
0001
0000
0100
0000
0010
,
0000
0000
0000
0000
0000
1000
0000
0100
0000
0001
0000
0010
0000
0000
0000
0000
,
0010
0000
0000
0100
0000
0000
0000
0000
0000
0000
1000
0000
0100
0000
0000
0001
,
0000
1000
0000
0000
0010
0000
0100
0000
0000
0000
0000
0000
0000
0000
0000
0000
,
0000
1000
0000
0100
0000
0000
0001
0000
0000
0010
0000
0000
0000
0000
0000
0000
,
0100
0000
0000
0000
0000
1000
0000
0010
0000
0000
0100
0000
0001
0000
0000
0000
,
0000
0000
0000
1000
0000
0010
0000
0000
0100
0000
1000
0000
0100
0000
0001
0000
,
0000
0000
0000
1000
0000
0000
0010
0000
1000
0000
0000
0001
0000
0000
0000
0100
,
0000
0010
0000
1000
0000
0000
0000
1101
;
