#TITLE:Super Mario Bros Hurry Castle Theme;
#SUBTITLE:Beware! Only 70 Seconds Left!;
#ARTIST:Nintendo;
#TITLETRANSLIT:;
#SUBTITLETRANSLIT:;
#ARTISTTRANSLIT:;
#CREDIT:;
#BANNER:Hurry-BN.jpg;
#BACKGROUND:Hurry-BG.PNG;
#LYRICSPATH:;
#CDTITLE:metzger-cdtitle.png;
#MUSIC:Super_Mario_Bros._Music_-_Hurry_Castle.mp3;
#OFFSET:-0.780;
#SAMPLESTART:27.447;
#SAMPLELENGTH:12.000;
#SELECTABLE:YES;
#BPMS:0.000=225.000;
#STOPS:;
#BGCHANGES:;
// cache tags:
#FIRSTBEAT:0.000;
#LASTBEAT:260.000;
#SONGFILENAME:Songs/Hard Songs Megapack Volume 9/Super Mario Hurry Castle Theme/Super_Mario_Bros._Music_-_Hurry_Castle.sm;
#HASMUSIC:1;
#HASBANNER:1;
#MUSICLENGTH:72.933;
// end cache tags

//---------------dance-single - Blank----------------
#NOTES:
     dance-single:
     Blank:
     Challenge:
     15:
     1.000,1.000,1.000,0.096,1.000,1013.000,502.000,7.000,0.000,0.000:










0002
0000
0013
0000
0010
0000
0010
0000
0000
2000
0000
3100
0000
0100
0000
0100
,
0000
0000
0020
0000
0031
0000
0001
0000
0001
0000
0000
0220
0000
0330
0220
0000
,
0000
0000
0000
0000
0330
0000
0000
0000
0000
0000
1001
0100
0011
1000
0110
0001
,
1100
0010
0101
1000
0110
0001
1010
0100
0011
0100
1001
0010
1100
0010
1001
0100
,
0011
1000
0110
0001
0110
0001
1100
0010
0101
1000
0011
1000
0101
0010
1001
0010
,
1100
0010
0101
1000
0011
1000
0110
0001
0110
0001
1100
0001
1100
0010
0101
1000
,
0110
1000
0011
0100
0011
0100
1001
0010
1100
0010
0101
1000
0011
1000
0110
0001
,
1100
0010
1100
0001
0110
1000
0101
1000
0011
0100
0011
1000
0110
0001
1100
0010
,
1001
0010
1100
0010
0101
1000
0011
0100
1001
0100
0011
1000
0110
0001
1100
0010
,
0101
1000
0110
0001
1010
0100
0011
0100
1001
0010
1100
0010
1001
0100
0011
1000
,
0110
0001
0110
0001
1100
0010
0101
1000
0011
1000
0101
0010
1001
0010
1100
0010
,
0101
1000
0011
1000
0110
0001
0110
0001
1100
0001
1100
0010
0101
1000
0110
1000
,
0011
0100
0011
0100
1001
0010
1100
0010
0101
1000
0011
1000
0110
0001
1100
0010
,
1100
0001
0110
1000
0101
1000
0011
0100
0011
1000
0110
0001
1100
0010
1001
0010
,
1100
0010
0101
1000
0011
0100
1001
0100
1001
0100
0011
1000
0110
0001
1100
0010
,
0101
1000
0110
0001
1010
0100
0011
0100
1001
0010
1100
0010
1001
0100
0011
1000
,
0110
0001
0110
0001
1100
0010
0101
1000
0011
1000
0101
0010
1001
0010
1100
0010
,
0101
1000
0011
1000
0110
0001
0110
0001
1100
0001
1100
0010
0101
1000
0110
1000
,
0011
0100
0011
0100
1001
0010
1100
0010
0101
1000
0011
1000
0110
0001
1100
0010
,
1100
0001
0110
1000
0101
1000
0011
0100
0011
1000
0110
0001
1100
0010
1001
0010
,
1100
0010
0101
1000
0011
0100
1001
0100
0011
0100
1001
0100
0011
1000
0110
0001
,
1100
0010
0101
1000
0110
0001
1010
0100
0011
0100
1001
0010
1100
0010
1001
0100
,
0011
1000
0110
0001
0110
0001
1100
0010
0101
1000
0011
1000
0101
0010
1001
0010
,
1100
0010
0101
1000
0011
1000
0110
0001
0110
0001
1100
0001
1100
0010
0101
1000
,
0110
1000
0011
0100
0011
0100
1001
0010
1100
0010
0101
1000
0011
1000
0110
0001
,
1100
0010
1100
0001
0110
1000
0101
1000
0011
0100
0011
1000
0110
0001
1100
0010
,
1001
0010
1100
0010
0101
1000
0011
0100
1001
0100
1001
0100
0011
1000
0110
0001
,
1100
0010
0101
1000
0110
0001
1010
0100
0011
0100
1001
0010
1100
0010
1001
0100
,
0011
1000
0110
0001
0110
0001
1100
0010
0101
1000
0011
1000
0101
0010
1001
0010
,
1100
0010
0101
1000
0011
1000
0110
0001
0110
0001
1100
0001
1100
0010
0101
1000
,
0110
1000
0011
0100
0011
0100
1001
0010
1100
0010
0101
1000
0011
1000
0110
0001
,
1100
0010
1100
0001
0110
1000
0101
1000
0011
0100
0011
1000
0110
0001
1100
0010
,
1001
0010
1100
0010
0101
1000
0011
0100
1001
0100
1001
0100
0011
1000
0110
0001
,
1100
0010
0101
1000
0110
0001
1010
0100
0011
0100
1001
0010
1100
0010
1001
0100
,
0011
1000
0110
0001
0110
0001
1100
0010
0101
1000
0011
1000
0101
0010
1001
0010
,
1100
0010
0101
1000
0011
1000
0110
0001
0110
0001
1100
0001
1100
0010
0101
1000
,
0110
1000
0011
0100
0011
0100
1001
0010
1100
0010
0101
1000
0011
1000
0110
0001
,
1100
0010
1100
0001
0110
1000
0101
1000
0011
0100
0011
1000
0110
0001
1100
0010
,
1001
0010
1100
0010
0101
1000
0011
0100
1001
0100
1001
0100
0011
1000
0110
0001
,
1100
0010
0101
1000
0110
0001
1010
0100
0011
0100
1001
0010
1100
0010
1001
0100
,
0011
1000
0110
0001
0110
0001
1100
0010
0101
1000
0011
1000
0101
0010
1001
0010
,
1100
0010
0101
1000
0011
1000
0110
0001
0110
0001
1100
0001
1100
0010
0101
1000
,
0110
1000
0011
0100
0011
0100
1001
0010
1100
0010
0101
1000
0011
1000
0110
0001
,
1100
0010
1100
0001
0110
1000
0101
1000
0011
0100
0011
1000
0110
0001
1100
0010
,
1001
0010
1100
0010
0101
1000
0011
0100
1001
0100
1001
0100
0011
1000
0110
0001
,
1100
0010
0101
1000
0110
0001
1010
0100
0011
0100
1001
0010
1100
0010
1001
0100
,
0011
1000
0110
0001
0110
0001
1100
0010
0101
1000
0011
1000
0101
0010
1001
0010
,
1100
0010
0101
1000
0011
1000
0110
0001
0110
0001
1100
0001
1100
0010
0101
1000
,
0110
1000
0011
0100
0011
0100
1001
0010
1100
0010
0101
1000
0011
1000
0110
0001
,
1100
0010
1100
0001
0110
1000
0101
1000
0011
0100
0011
1000
0110
0001
1100
0010
,
1001
0010
1100
0010
0101
1000
0011
0100
1001
0100
1001
0100
0011
1000
0110
0001
,
1100
0010
0101
1000
0110
0001
1010
0100
0011
0100
1001
0010
1100
0010
1001
0100
,
0011
1000
0110
0001
0110
0001
1100
0010
0101
1000
0011
1000
0101
0010
1001
0010
,
1100
0010
0101
1000
0011
1000
0110
0001
0110
0001
1100
0001
1100
0010
0101
1000
,
0110
1000
0011
0100
0011
0100
1001
0010
1100
0010
0101
1000
0011
1000
0110
0001
,
1100
0010
1100
0001
0110
1000
0101
1000
0011
0100
0011
1000
0110
0001
1100
0010
,
1001
0010
1100
0010
0101
1000
0011
0100
1001
0100
1001
0100
0011
1000
0110
0001
,
1100
0010
0101
1000
0110
0001
1010
0100
0011
0100
1001
0010
1100
0010
1001
0100
,
0011
1000
0110
0001
0110
0001
1100
0010
0101
1000
0011
1000
0101
0010
1001
0010
,
1100
0010
0101
1000
0011
1000
0110
0001
0110
0001
1100
0001
1100
0010
0101
1000
,
0110
1000
0011
0100
0011
0100
1001
0010
1100
0010
0101
1000
0011
1000
0110
0001
,
1100
0010
1100
0001
0110
1000
0101
1000
0011
0100
0011
1000
0110
0001
1100
0010
,
1001
0010
1100
0010
0101
1000
0011
0100
1001
0100
1001
0100
0011
1000
0110
0001
,
1100
0010
0101
1000
0110
0001
1010
0100
0011
0100
1001
0010
1100
0010
1001
0100
,
0011
1000
0110
0001
0110
0001
1100
0010
0101
1000
0011
1000
0101
0010
1001
0010
,
1001
0000
0000
0000
;

//---------------dance-single - Blank----------------
#NOTES:
     dance-single:
     Blank:
     Hard:
     12:
     1.000,1.000,1.000,0.096,0.034,514.000,502.000,7.000,0.000,0.000:



0002
0000
0013
0000
0010
0000
0010
0000
0000
2000
0000
3100
0000
0100
0000
0100
,
0000
0000
0020
0000
1030
0000
1000
0000
1000
0000
0000
0220
0000
0330
0220
0000
,
0000
0000
0000
0000
0000
0330
0000
0000
0000
0000
1001
0000
1100
0000
0101
0000
,
0110
0011
0110
1100
0101
0011
0101
1001
,
1010
0110
0011
0110
1100
1100
0011
0110
,
1010
0101
0011
0110
1100
0011
0110
0011
,
0101
1010
0101
0110
0101
1100
1100
0110
,
0011
0101
1001
0101
0011
0110
0011
1100
,
0110
0110
0011
0101
1001
1001
1100
0101
,
0110
0011
0110
1100
0101
0011
0101
1001
,
1010
0110
0011
0110
1100
1100
0011
0110
,
1010
0101
0011
0110
1100
0011
0110
0011
,
0101
1010
0101
0110
0101
1100
1100
0110
,
0011
0101
1001
0101
0011
0110
0011
1100
,
0110
0110
0011
0101
1001
1001
1100
0101
,
0110
0011
0110
1100
0101
0011
0101
1001
,
1010
0110
0011
0110
1100
1100
0011
0110
,
1010
0101
0011
0110
1100
0011
0110
0011
,
0101
1010
0101
0110
0101
1100
1100
0110
,
0011
0101
1001
0101
0011
0110
0011
1100
,
0110
0110
0011
0101
1001
1001
1100
0101
,
0110
0011
0110
1100
0101
0011
0101
1001
,
1010
0110
0011
0110
1100
1100
0011
0110
,
1010
0101
0011
0110
1100
0011
0110
0011
,
0101
1010
0101
0110
0101
1100
1100
0110
,
0011
0101
1001
0101
0011
0110
0011
1100
,
0110
0110
0011
0101
1001
1001
1100
0101
,
0110
0011
0110
1100
0101
0011
0101
1001
,
1010
0110
0011
0110
1100
1100
0011
0110
,
1010
0101
0011
0110
1100
0011
0110
0011
,
0101
1010
0101
0110
0101
1100
1100
0110
,
0011
0101
1001
0101
0011
0110
0011
1100
,
0110
0110
0011
0101
1001
1001
1100
0101
,
0110
0011
0110
1100
0101
0011
0101
1001
,
1010
0110
0011
0110
1100
1100
0011
0110
,
1010
0101
0011
0110
1100
0011
0110
0011
,
0101
1010
0101
0110
0101
1100
1100
0110
,
0011
0101
1001
0101
0011
0110
0011
1100
,
0110
0110
0011
0101
1001
1001
1100
0101
,
0110
0011
0110
1100
0101
0011
0101
1001
,
1010
0110
0011
0110
1100
1100
0011
0110
,
1010
0101
0011
0110
1100
0011
0110
0011
,
0101
1010
0101
0110
0101
1100
1100
0110
,
0011
0101
1001
0101
0011
0110
0011
1100
,
0110
0110
0011
0101
1001
1001
1100
0101
,
0110
0011
0110
1100
0101
0011
0101
1001
,
1010
0110
0011
0110
1100
1100
0011
0110
,
1010
0101
0011
0110
1100
0011
0110
0011
,
0101
1010
0101
0110
0101
1100
1100
0110
,
0011
0101
1001
0101
0011
0110
0011
1100
,
0110
0110
0011
0101
1001
1001
1100
0101
,
0110
0011
0110
1100
0101
0011
0101
1001
,
1010
0110
0011
0110
1100
1100
0011
0110
,
1010
0101
0011
0110
1100
0011
0110
0011
,
0101
1010
0101
0110
0101
1100
1100
0110
,
0011
0101
1001
0101
0011
0110
0011
1100
,
0110
0110
0011
0101
1001
1001
1100
0101
,
0110
0011
0110
1100
0101
0011
0101
1001
,
1010
0110
0011
0110
1100
1100
0011
0110
,
1010
0101
0011
0110
1100
0011
0110
0011
,
0101
1010
0101
0110
0101
1100
1100
0110
,
0011
0101
1001
0101
0011
0110
0011
1100
,
0110
0110
0011
0101
1001
0110
1100
0011
,
0101
0110
0110
0011
1001
0110
1001
1100
,
0110
0011
0110
1100
0101
0011
0101
0110
,
1001
0000
0000
0000
;

//---------------dance-single - Blank----------------
#NOTES:
     dance-single:
     Blank:
     Medium:
     10:
     1.000,0.802,0.165,0.069,0.034,514.000,12.000,5.000,0.000,0.000:





2000
0000
3100
0000
0010
0000
0001
0000
0000
0200
0000
0310
0000
0001
0000
1000
,
0000
0000
0020
0000
0130
0000
1000
0000
0100
0000
0000
0002
0000
0000
0023
0000
,
0000
0000
0000
0000
0000
0030
0000
0000
0000
0000
1001
0000
0100
0000
0010
0000
,
0001
0010
0100
0010
0001
1000
0100
0010
,
0100
0001
0010
0100
0010
0100
1000
0100
,
0010
0001
0010
0001
0010
0100
1000
0100
,
0010
0100
0010
0001
0010
0100
1000
0100
,
0010
0100
1000
0100
0010
0001
0010
0100
,
0010
1000
0100
0010
0001
0100
1001
0100
,
0010
0001
0010
0100
0010
0001
1000
0100
,
0010
0100
0001
0010
0100
0010
0100
1000
,
0100
0010
0001
0010
0001
0010
0100
1000
,
0100
0010
0100
0010
0001
0010
0100
1000
,
0100
0010
0100
1000
0100
0010
0001
0010
,
0100
0010
1000
0100
0010
0001
0110
1000
,
0100
0010
0001
0010
0100
0010
0001
1000
,
0100
0010
0100
0001
0010
0100
0010
0100
,
1000
0100
0010
0001
0010
0001
0010
0100
,
1000
0100
0010
0100
0010
0001
0010
0100
,
1000
0100
0010
0100
1000
0100
0010
0001
,
0010
0100
0010
1000
0100
1001
0100
0010
,
0001
0010
0100
0010
0001
1000
0100
0010
,
0100
0001
0010
0100
0010
0100
1000
0100
,
0010
0001
0010
0001
0010
0100
1000
0100
,
0010
0100
0010
0001
0010
0100
1000
0100
,
0010
0100
1000
0100
0010
0001
0010
0100
,
0010
1000
0100
0010
0100
1001
0100
0010
,
0001
0010
0100
0010
0001
1000
0100
0010
,
0100
0001
0010
0100
0010
0100
1000
0100
,
0010
0001
0010
0001
0010
0100
1000
0100
,
0010
0100
0010
0001
0010
0100
1000
0100
,
0010
0100
1000
0100
0010
0001
0010
0100
,
0010
1000
0100
0010
0001
1010
0100
0010
,
0001
0010
0100
0010
0001
1000
0100
0010
,
0100
0001
0010
0100
0010
0100
1000
0100
,
0010
0001
0010
0001
0010
0100
1000
0100
,
0010
0100
0010
0001
0010
0100
1000
0100
,
0010
0100
1000
0100
0010
0001
0010
0100
,
0010
1000
0100
0010
0100
1001
0100
0010
,
0001
0010
0100
0010
0001
1000
0100
0010
,
0100
0001
0010
0100
0010
0100
1000
0100
,
0010
0001
0010
0001
0010
0100
1000
0100
,
0010
0100
0010
0001
0010
0100
1000
0100
,
0010
0100
1000
0100
0010
0001
0010
0100
,
0010
1000
0100
0001
0010
1001
0100
0010
,
0001
0010
0100
0010
0001
1000
0100
0010
,
0100
0001
0010
0100
0010
0100
1000
0100
,
0010
0001
0010
0001
0010
0100
1000
0100
,
0010
0100
0010
0001
0010
0100
1000
0100
,
0010
0100
1000
0100
0010
0001
0010
0100
,
0010
1000
0100
0010
0100
1001
0100
0010
,
0001
0010
0100
0010
0001
1000
0100
0010
,
0100
0001
0010
0100
0010
0100
1000
0100
,
0010
0001
0010
0001
0010
0100
1000
0100
,
0010
0100
0010
0001
0010
0100
1000
0100
,
0010
0100
1000
0100
0010
0001
0010
0100
,
0010
1000
0100
0010
0100
1001
0100
0010
,
0001
0010
0100
0010
0001
1000
0100
0010
,
0100
0001
0010
0100
0010
0100
1000
0100
,
0010
0001
0010
0001
0010
0100
1000
0100
,
0010
0100
0010
0001
0010
0100
1000
0100
,
0010
0100
1000
0100
0010
0001
0010
0100
,
0010
1000
0100
0010
0100
1001
0100
0010
,
0001
0010
0100
0010
0001
1000
0100
0010
,
0100
0001
0010
0100
0010
0100
1000
0100
,
0011
0000
0000
0000
;

//---------------dance-single - Copied from Blank----------------
#NOTES:
     dance-single:
     Copied from Blank:
     Beginner:
     15:
     1.000,1.000,1.000,1.000,1.000,989.000,530.000,107.000,0.000,460.000:

0002
0000
0013
0000
0010
0000
0010
0000
0000
2000
0000
3100
0000
0100
0000
0100
,
0000
0000
0020
0000
0031
0000
0001
0000
0001
0000
0000
0220
0000
0330
0220
0000
,
0000
0000
0000
0000
0000
0000
0330
0000
0000
0000
2011
0100
0011
0100
0011
0100
,
0011
0100
0011
0100
0011
0100
0011
0100
3011
1002
0110
1000
0110
1000
0110
1000
,
0113
0020
1100
0001
1100
0001
1100
0001
1130
0201
1010
0001
1010
0001
1010
0001
,
1010
0001
1010
0001
1010
0001
1010
0301
1010
0120
1001
0100
1001
0100
1001
0100
,
2031
0100
0011
0100
0011
0100
0011
0100
3011
0200
1001
0010
1001
0010
1001
0010
,
1301
0012
1100
0010
1100
0010
1100
0013
2001
0100
0011
0100
0011
0100
0011
0100
,
3012
0100
1010
0100
1010
0100
1010
0100
1013
0100
2011
0100
0011
0100
0011
0100
,
0011
0100
0011
0100
0011
0100
0011
0100
3011
1002
0110
1000
0110
1000
0110
1000
,
0113
0020
1100
0001
1100
0001
1100
0001
1130
0201
1010
0001
1010
0001
1010
0001
,
1010
0001
1010
0001
1010
0001
1010
0301
1010
0120
1001
0100
1001
0100
1001
0100
,
2031
0100
0011
0100
0011
0100
0011
0100
3011
0200
1001
0010
1001
0010
1001
0010
,
1301
0012
1100
0010
1100
0010
1100
0013
2001
0100
0011
0100
0011
0100
0011
0100
,
3012
0100
1010
0100
1010
0100
1010
0100
1013
0100
2011
0100
0011
0100
0011
0100
,
0011
0100
0011
0100
0011
0100
0011
0100
3011
1002
0110
1000
0110
1000
0110
1000
,
0113
0020
1100
0001
1100
0001
1100
0001
1130
0201
1010
0001
1010
0001
1010
0001
,
1010
0001
1010
0001
1010
0001
1010
0301
1010
0120
1001
0100
1001
0100
1001
0100
,
2031
0100
0011
0100
0011
0100
0011
0100
3011
0200
1001
0010
1001
0010
1001
0010
,
1301
0012
1100
0010
1100
0010
1100
0013
2001
0100
0011
0100
0011
0100
0011
0100
,
3012
0100
1010
0100
1010
0100
1010
0100
1013
0100
2011
0100
0011
0100
0011
0100
,
0011
0100
0011
0100
0011
0100
0011
0100
3011
1002
0110
1000
0110
1000
0110
1000
,
0113
0020
1100
0001
1100
0001
1100
0001
1130
0201
1010
0001
1010
0001
1010
0001
,
1010
0001
1010
0001
1010
0001
1010
0301
1010
0120
1001
0100
1001
0100
1001
0100
,
2031
0100
0011
0100
0011
0100
0011
0100
3011
0200
1001
0010
1001
0010
1001
0010
,
1301
0012
1100
0010
1100
0010
1100
0013
2001
0100
0011
0100
0011
0100
0011
0100
,
3012
0100
1010
0100
1010
0100
1010
0100
1013
0100
2011
0100
0011
0100
0011
0100
,
0011
0100
0011
0100
0011
0100
0011
0100
3011
1002
0110
1000
0110
1000
0110
1000
,
0113
0020
1100
0001
1100
0001
1100
0001
1130
0201
1010
0001
1010
0001
1010
0001
,
1010
0001
1010
0001
1010
0001
1010
0301
1010
0120
1001
0100
1001
0100
1001
0100
,
2031
0100
0011
0100
0011
0100
0011
0100
3011
0200
1001
0010
1001
0010
1001
0010
,
1301
0012
1100
0010
1100
0010
1100
0013
2001
0100
0011
0100
0011
0100
0011
0100
,
3012
0100
1010
0100
1010
0100
1010
0100
1013
0100
2011
0100
0011
0100
0011
0100
,
0011
0100
0011
0100
0011
0100
0011
0100
3011
1002
0110
1000
0110
1000
0110
1000
,
0113
0020
1100
0001
1100
0001
1100
0001
1130
0201
1010
0001
1010
0001
1010
0001
,
1010
0001
1010
0001
1010
0001
1010
0301
1010
0120
1001
0100
1001
0100
1001
0100
,
2031
0100
0011
0100
0011
0100
0011
0100
3011
0200
1001
0010
1001
0010
1001
0010
,
1301
0012
1100
0010
1100
0010
1100
0013
2001
0100
0011
0100
0011
0100
0011
0100
,
3012
0100
1010
0100
1010
0100
1010
0100
1013
0100
2011
0100
0011
0100
0011
0100
,
0011
0100
0011
0100
0011
0100
0011
0100
3011
1002
0110
1000
0110
1000
0110
1000
,
0113
0020
1100
0001
1100
0001
1100
0001
1130
0201
1010
0001
1010
0001
1010
0001
,
1010
0001
1010
0001
1010
0001
1010
0301
1010
0120
1001
0100
1001
0100
1001
0100
,
2031
0100
0011
0100
0011
0100
0011
0100
3011
0200
1001
0010
1001
0010
1001
0010
,
1301
0012
1100
0010
1100
0010
1100
0013
2001
0100
0011
0100
0011
0100
0011
0100
,
3012
0100
1010
0100
1010
0100
1010
0100
1013
0100
2011
0100
0011
0100
0011
0100
,
0011
0100
0011
0100
0011
0100
0011
0100
3011
1002
0110
1000
0110
1000
0110
1000
,
0113
0020
1100
0001
1100
0001
1100
0001
1130
0201
1010
0001
1010
0001
1010
0001
,
1010
0001
1010
0001
1010
0001
1010
0301
1010
0120
1001
0100
1001
0100
1001
0100
,
2031
0100
0011
0100
0011
0100
0011
0100
3011
0200
1001
0010
1001
0010
1001
0010
,
1301
0012
1100
0010
1100
0010
1100
0013
2001
0100
0011
0100
0011
0100
0011
0100
,
3012
0100
1010
0100
1010
0100
1010
0100
1013
0100
2011
0100
0011
0100
0011
0100
,
0011
0100
0011
0100
0011
0100
0011
0100
3011
1002
0110
1000
0110
1000
0110
1000
,
0113
0020
1100
0001
1100
0001
1100
0001
1130
0201
1010
0001
1010
0001
1010
0001
,
1010
0001
1010
0001
1010
0001
1010
0301
1010
0120
1001
0100
1001
0100
1001
0100
,
2031
0100
0011
0100
0011
0100
0011
0100
3011
0200
1001
0010
1001
0010
1001
0010
,
1301
0012
1100
0010
1100
0010
1100
0013
2001
0100
0011
0100
0011
0100
0011
0100
,
3012
0100
1010
0100
1010
0100
1010
0100
1013
0100
2011
0100
0011
0100
0011
0100
,
0011
0100
0011
0100
0011
0100
0011
0100
3011
1002
0110
1000
0110
1000
0110
1000
,
0113
0020
1100
0001
1100
0001
1100
0001
1130
0201
1010
0001
1010
0001
1010
0001
,
1010
0001
1010
0001
1010
0001
1010
0301
1010
0120
1001
0100
1001
0100
1001
0100
,
2031
0100
0011
0100
0011
0100
0011
0100
3011
0200
1001
0010
1001
0010
1001
0010
,
1301
0012
1100
0010
1100
0010
1100
0013
2001
0100
0011
0100
0011
0100
0011
0100
,
3012
0100
1010
0100
1010
0100
1010
0100
1013
0100
1001
0010
1100
0001
0110
1000
,
0011
0100
1001
0100
0011
0100
1001
0010
1001
0000
0000
0000
0000
0000
0000
0000
;
