#TITLE:Anime Madness Vol. 1;
#SUBTITLE:DJ Sharpnel Tribute Mix;
#ARTIST:Hanzo;
#TITLETRANSLIT:;
#SUBTITLETRANSLIT:;
#ARTISTTRANSLIT:;
#CREDIT:;
#BANNER:anime madness bn.png;
#BACKGROUND:anime madness bg.png;
#LYRICSPATH:;
#CDTITLE:;
#MUSIC:anime madness vol 1.ogg;
#OFFSET:0.548;
#SAMPLESTART:55.459;
#SAMPLELENGTH:18.283;
#SELECTABLE:YES;
#DISPLAYBPM:210.000;
#BPMS:0.000=210.000,68.000=210.014;
#STOPS:;
#BGCHANGES:;
// cache tags:
#FIRSTBEAT:68.000;
#LASTBEAT:3647.750;
#SONGFILENAME:Songs/SHARPNELSTREAMZ v2/Anime Madness vol 1/Anime Madness vol1.sm;
#HASMUSIC:1;
#HASBANNER:1;
#MUSICLENGTH:1043.408;
// end cache tags

//---------------dance-single - 20 (TYLR)----------------
#NOTES:
     dance-single:
     20 (TYLR):
     Challenge:
     20:
     1.000,1.000,0.203,0.316,1.000,11469.000,212.000,330.000,42.000,0.000:
0000
0000
0000
0000
,
0000
0000
0000
0000
,
0000
0000
0000
0000
,
0000
0000
0000
0000
,
0000
0000
0000
0000
,
0000
0000
0000
0000
,
0000
0000
0000
0000
,
0000
0000
0000
0000
,
0000
0000
0000
0000
,
0000
0000
0000
0000
,
0000
0000
0000
0000
,
0000
0000
0000
0000
,
0000
0000
0000
0000
,
0000
0000
0000
0000
,
0000
0000
0000
0000
,
0000
0000
0000
0000
,
0000
0000
0000
0000
,
0001
0000
0000
1000
0100
1000
0100
0000
0000
0010
0000
0000
0001
0000
0000
0400
0000
0000
0310
0000
0000
1000
0000
0000
,
0001
0000
0000
1000
0001
1000
0001
0000
0000
0010
0000
0000
0100
0000
0000
4000
0000
0000
3100
0000
0000
0100
0000
0000
,
0010
0000
0000
0001
1000
0001
1000
0000
0000
0010
0000
0000
0100
0000
0000
0004
0000
0000
1003
0000
0000
0100
0000
0000
,
1000
0000
0000
0001
0100
0001
0100
0000
0000
0010
0000
0000
1000
0000
0000
0004
0000
0000
0013
0000
0000
0100
0000
0000
,
1000
0000
0000
0001
0010
0001
0010
0000
0000
0001
0000
0000
0100
0000
0000
0040
0000
0000
1030
0000
0000
0100
0000
0000
,
1000
0000
0000
0001
1000
0001
1000
0000
0000
0001
0000
0000
0010
0000
0000
0400
0000
0000
1300
0000
0000
1000
0000
0000
,
0100
0000
0000
1000
0001
1000
0001
0000
0000
0100
0000
0000
0001
0000
0000
0040
0000
0000
0130
0000
0000
1000
0000
0000
,
0001
0000
0000
1000
0010
1000
0010
0000
0000
0100
0000
0000
0001
0000
0000
0040
0000
0000
0031
0000
0000
1000
0000
0000
,
0200
0000
2300
0000
3020
0230
0302
0000
,
0023
0230
0320
0230
0000
2300
3002
0023
,
0000
0230
2300
3200
0320
0032
0023
0032
,
0203
0000
0302
2003
0000
3200
0000
2300
,
3004
0000
0000
0000
,
0000
0000
0000
0000
,
0003
0000
0000
0000
,
0000
0000
0000
MMMM
,
1000
0010
0100
0000
0001
0010
0100
0000
1000
0010
0100
0000
0010
0100
0001
1000
,
0000
0001
0100
0000
0001
0010
0100
0000
1000
0100
1000
0000
0001
0100
0010
0100
,
0000
0001
1000
0000
0100
1000
0010
0000
0100
0001
1000
0100
0010
0001
1000
0100
,
0000
1000
0010
0100
0001
1000
0100
0000
1000
0001
0100
0010
0100
0001
1000
0000
,
0MM1
1000
0100
0000
0010
0100
1000
0000
0010
0100
0001
0000
1000
0010
0100
0001
,
0000
0100
0001
0000
0010
0100
1000
0000
0001
0100
0010
0000
1000
0100
1000
0001
,
0000
0100
0010
0000
1000
0100
0010
0000
0100
1000
0001
0100
0010
1000
0001
0100
,
0000
0001
0010
0100
1000
0001
1000
0000
0001
0100
0010
1000
0100
0010
0001
0000
,
1001
1000
0010
0010
0100
0001
0010
0010
,
0100
0000
1000
0000
0010
0000
0010
0000
1000
0000
0001
0010
0100
0000
1000
0000
,
1001
0001
0100
0100
0001
0010
0100
0100
,
1000
0000
0000
0001
0100
0001
0100
0000
0000
0010
0000
0000
1000
0000
0000
0100
0000
0000
1000
0000
0000
0010
0000
0000
,
0110
0100
0001
0001
0010
0100
1000
1000
,
0010
0000
0000
0100
0000
0000
0001
0000
0000
1000
0001
1000
0001
0000
0000
0040
0000
0000
0130
0000
0000
0000
0000
0000
,
1100
0000
0000
0000
0110
0000
0000
0000
0011
0000
0000
0000
1001
0000
0000
1000
,
0010
0000
0110
0400
0301
0000
0001
0000
,
1001
0001
0010
0001
0100
0010
0100
0010
,
0000
1000
0010
0100
0010
1000
0100
0100
,
0000
0010
0001
1000
0010
0100
0010
0100
,
0000
0000
0000
0001
0000
0000
0010
0000
0000
0001
0000
0000
1000
0000
0000
0100
0000
0000
0010
0001
0010
0001
0000
0000
,
0000
0000
1000
0000
0001
0000
0100
0000
0010
0000
1000
0000
0010
1000
0001
0010
,
0100
1000
0010
0100
0010
1000
0004
0000
,
0003
0000
1000
0000
0010
1000
0100
0000
0010
0000
0001
0000
0010
0000
0001
0000
,
1001
0000
1000
0100
1000
0000
0000
0000
1001
0000
0001
0100
0001
0000
0000
0000
,
1001
1000
0100
1000
0010
0100
0010
0100
,
0000
0001
0100
0010
0100
0001
0010
0010
,
0000
0100
1000
0001
0100
0010
0100
0010
,
0000
0000
0000
1000
0000
0000
0100
0000
0000
1000
0000
0000
0001
0000
0000
0010
0000
0000
0100
1000
0100
1000
0000
0000
,
0000
0000
0001
0000
1000
0000
0010
0000
0100
0000
0001
0000
0100
0001
1000
0100
,
0010
0000
0001
0000
0100
0000
0010
0000
0100
0000
0001
0000
4000
0000
0000
3000
,
1001
0101
0110
1010
,
1000
0100
1000
0001
0010
0100
1000
0001
0100
0000
0010
0000
0100
0000
0010
0000
,
1010
1000
0100
0010
0001
1000
0001
1000
,
0010
0100
0001
0010
0100
1000
0100
1000
,
0001
0010
0001
0100
0010
1000
0010
1000
,
0100
0010
0002
0103
0010
1000
0400
0310
,
0001
0000
0100
0000
0001
0000
0010
0000
0100
0000
1000
0000
0001
0100
0001
1000
,
0100
0010
0100
1000
0010
0100
0004
0000
,
0013
0000
0100
0000
0010
0001
0100
0000
0010
0000
1000
0000
0100
0000
1000
0000
,
1001
0000
0001
0100
0001
0000
0000
0000
1001
0000
1000
0100
1000
0000
0000
0000
,
1001
0001
0010
0100
1000
0001
1000
0001
,
0100
0010
1000
0100
0010
0001
0010
0001
,
1000
0100
1000
0010
0100
0001
0100
0001
,
0010
0100
2000
3010
0100
0001
0040
0130
,
0000
0000
1000
0000
0100
0000
1000
0000
0001
0000
0100
0000
0001
0100
0001
1000
,
0100
0010
0100
1000
0010
0100
0004
0003
,
1000
0000
1000
0000
0010
0000
0100
0100
,
0001
0100
0001
1000
0100
0000
0010
0000
0100
0000
1000
0000
0001
0000
1000
0000
,
1MM2
0000
0000
0000
0003
1000
0100
1000
,
0010
0000
0000
0000
0000
0100
0001
0010
,
0100
0000
0000
0000
0000
0000
0000
1000
,
0000
0000
0100
0000
0000
1000
0001
0100
,
01M2
0000
0000
0000
0003
0100
0001
1000
,
0100
0000
0000
0000
0000
1000
0100
0010
,
0001
0000
0000
0000
,
1000
0100
1000
0001
0010
0100
1000
0001
0100
0000
0010
0000
0100
0000
0001
0000
,
1000
0100
0000
1000
0000
0100
0000
1000
,
0001
1000
0000
0010
0000
0100
0000
0001
,
0010
0100
0000
1000
0000
0010
0000
0100
,
0001
0010
0000
0001
0000
1000
0000
0010
,
0100
0001
0000
1000
0000
0100
0000
1000
,
0010
0100
0000
0001
0000
0010
0000
0100
,
1000
0001
0000
0100
0000
0010
0000
0100
,
0001
1000
0000
0100
0000
1000
0000
0010
,
M100
0001
0000
0010
0000
0100
0000
1000
,
0001
0100
0000
0010
0000
0100
0000
0001
,
0010
0100
0000
1000
0000
0010
0000
0100
,
0001
0010
0000
0100
0000
1000
0000
0010
,
0100
0001
0000
1000
0000
0100
0000
1000
,
0010
0100
0000
0001
0000
0010
0000
0100
,
1000
0100
1000
0001
0100
0001
1000
0010
0100
0010
1000
0001
1000
0100
0010
0001
,
1000
0100
1000
0001
0100
0010
0100
0001
1000
0001
0010
0100
1000
0001
0100
0010
,
1000
0000
0000
0001
0000
0000
0100
0000
0001
0000
0000
0000
0000
0000
0000
0000
,
4000
0000
3400
0000
0340
0000
0034
0000
1003
0010
0100
0000
0101
0000
0000
0000
,
0001
0100
0001
1000
0010
0100
0010
1000
0001
0010
0100
1000
0001
0100
0010
0100
,
0001
1000
0100
0010
0001
1000
0001
0100
0001
1000
0010
0100
0010
1000
0001
0100
,
0001
1000
0100
0010
0001
1000
0001
0010
0100
1000
0001
0100
0001
1000
0010
0100
,
0010
1000
0001
1000
0100
1000
0001
0010
0100
1000
0001
0100
0001
1000
0010
1000
,
0001
0100
0001
1000
0010
0100
0010
1000
0001
0010
0001
1000
0100
0010
0001
1000
,
0001
0100
0010
0100
0001
1000
0100
0010
0001
1000
0100
1000
0001
0100
0010
0100
,
0001
1000
0100
0010
0001
1000
0001
0100
0010
0100
0001
1000
0001
0100
0001
1000
,
0100
0000
0000
1000
0000
0000
0001
0000
0000
0010
0000
0000
0100
0000
0000
1000
0000
0000
0001
0000
0000
0100
0000
0000
0010
0000
0000
0000
0000
0000
1000
0000
0001
0000
1000
0000
0001
0000
0000
0000
0000
0000
0100
0000
0000
0000
0000
0000
,
0001
0010
0001
1000
0100
0010
0100
1000
0001
0100
0010
0100
0001
1000
0001
0100
,
0010
0100
0001
1000
0100
0010
0001
1000
0100
1000
0001
0100
0010
0100
0001
1000
,
0001
0010
0100
1000
0001
0100
0001
1000
0010
0100
0010
1000
0001
0100
0001
1000
,
0100
0010
0001
1000
0001
0100
0010
0100
0001
1000
0001
0010
0100
1000
0001
0100
,
0010
0100
0001
1000
0100
1000
0001
0010
0100
1000
0001
1000
0001
0100
0010
0100
,
0001
1000
0001
0100
0001
1000
0100
0010
0100
1000
0001
0100
0010
0100
0001
1000
,
0100
0010
0001
1000
0010
0100
0001
1000
0100
0010
0001
1000
0010
0100
0001
1000
,
0001
0000
0000
0100
0001
0100
0001
0000
0000
1000
0000
0000
0010
0000
0000
0100
0001
0100
0001
0000
0000
1000
0000
0000
,
0001
0100
0010
0100
0001
1000
0100
0010
0001
1000
0001
0100
0010
0100
0001
1000
,
0001
0010
0100
1000
0001
0100
0010
0100
0001
1000
0001
1000
0100
0010
0001
1000
,
0001
0100
0010
0100
0001
1000
0001
0010
0100
1000
0001
0100
0010
0100
0001
1000
,
0100
0010
0100
1000
0001
0100
0010
0100
0001
1000
0100
1000
0001
0010
0001
1000
,
0100
1000
0001
0100
0010
0100
0001
1000
0100
0010
0001
1000
0100
1000
0001
0100
,
0010
0100
0001
1000
0100
0010
0100
1000
0001
0100
0010
0100
0001
1000
0100
0010
,
0001
1000
0001
0100
0010
0100
0001
1000
0100
1000
0001
0100
0010
0100
0001
1000
,
0001
0000
0000
0010
0000
0000
0100
0000
0000
1000
0000
0000
0001
0000
0000
0100
0000
0000
0010
0000
0000
1000
0000
0000
0001
0000
0000
0000
0000
0000
1000
0000
0001
0000
1000
0000
0001
0000
0000
0000
0000
0000
0100
0000
0000
0000
0000
0000
,
0010
1000
0010
0100
0001
1000
0100
0010
0100
1000
0001
0100
0010
0100
0001
1000
,
0001
0100
0010
0100
0001
1000
0100
0010
0100
1000
0001
0100
0010
0100
0001
1000
,
0001
0010
0100
1000
0001
0010
0001
1000
0010
0100
0010
1000
0001
0010
0100
1000
,
0001
0100
0010
1000
0100
1000
0001
0100
0001
0010
0100
1000
0001
0100
0010
0100
,
0001
1000
0100
0010
0001
1000
0100
1000
0001
0100
0010
0100
0001
1000
0001
0010
,
0100
0010
0001
1000
0001
1000
0100
1000
0001
0100
0010
0100
0001
1000
0100
0010
,
0100
1000
0001
0100
0010
0100
0001
1000
0100
0010
0001
1000
0100
1000
0001
0100
,
0001
0000
0000
0000
0000
0000
0001
0000
0000
0000
0000
0000
0040
0000
0000
0130
1000
0100
1000
0000
0000
0001
0000
0000
,
0100
0101
1001
1010
,
0110
0000
0000
0000
0101
0000
0000
0000
1001
0000
0000
0000
1100
0000
0100
1000
,
0001
0101
0110
1001
,
1100
0000
0000
0000
0110
0000
0000
0000
0010
0001
1000
0000
0001
0100
0010
0000
,
0110
0101
1001
1100
,
0011
0000
0000
0000
1001
0000
0000
0000
1100
0000
0100
1000
0001
0000
0000
0000
,
0101
0110
1010
0101
,
1010
0000
0011
0000
2200
3300
0202
0303
,
2000
0000
3000
0000
0000
0000
0000
0000
0000
0000
0000
0000
0002
0000
0003
0000
0000
0000
0000
0000
0000
0000
0000
0000
2000
0000
3000
0000
0000
0000
0000
0000
0000
0000
0000
0000
0002
0000
0003
0000
0000
0000
0000
0000
0000
0000
0000
0000
2000
0000
0000
3000
0000
0000
0000
0000
0000
0000
0000
0000
0200
0000
0000
0300
0000
0000
0000
0000
0000
0000
0000
0000
2000
0000
0000
3000
0000
0000
0000
0000
0000
0000
0000
0000
0002
0000
0000
0003
0000
0000
0000
0000
0000
0000
0000
0000
0020
0000
0000
0030
0000
0000
0000
0000
0000
0000
0000
0000
0200
0000
0000
0300
0000
0000
0000
0000
0000
0000
0000
0000
0020
0000
0000
0030
0000
0000
0000
0000
0000
0000
0000
0000
0002
0000
0000
0003
0000
0000
0000
0000
0000
0000
0000
0000
2000
0000
0000
0000
3000
0000
0000
0000
0000
0000
0000
0000
0002
0000
0000
0000
0003
0000
0000
0000
0000
0000
0000
0000
0020
0000
0000
0000
0030
0000
0000
0000
0000
0000
0000
0000
0200
0000
0000
0000
0300
0000
0000
0000
0000
0000
0000
0000
,
2000
0000
0000
0000
3000
0000
0000
0000
0000
0000
0000
0000
0002
0000
0000
0000
0003
0000
0000
0000
0000
0000
0000
0000
2000
0000
0000
0000
3000
0000
0000
0000
0000
0000
0000
0000
0020
0000
0000
0000
0030
0000
0000
0000
0000
0000
0000
0000
0200
0000
0000
0000
0000
0000
0300
0000
0000
0000
0000
0000
0002
0000
0000
0000
0000
0000
0003
0000
0000
0000
0000
0000
0200
0000
0000
0000
0000
0000
0300
0000
0000
0000
0000
0000
0020
0000
0000
0000
0000
0000
0030
0000
0000
0000
0000
0000
2000
0000
0000
0000
0000
0000
3000
0000
0000
0000
0000
0000
0002
0000
0000
0000
0000
0000
0003
0000
0000
0000
0000
0000
2000
0000
0000
0000
0000
0000
3000
0000
0000
0000
0000
0000
0200
0000
0000
0000
0000
0000
0300
0000
0000
0000
0000
0000
0020
0000
0000
0000
0000
0000
0030
0000
0000
0000
0000
0000
0002
0000
0000
0000
0000
0000
0003
0000
0000
0000
0000
0000
2000
0000
0000
0000
0000
0000
3000
0000
0000
0000
0000
0000
0002
0000
0000
0000
0000
0000
0003
0000
0000
0000
0000
0000
,
2000
0000
3000
0020
0000
0030
0200
0000
0300
0002
0000
0003
2000
0000
3000
0002
0000
0003
2000
0000
3000
0200
0000
0300
0020
0000
0030
0002
0000
0003
0200
0000
0300
0020
0000
0030
2000
0000
3000
0002
0000
0003
2000
0000
3000
0200
0000
0300
,
0020
0032
0203
0320
2030
3200
0320
0032
1003
0001
1000
0000
0001
1000
0001
0000
,
1001
0011
0110
1100
,
1001
0000
0000
0000
0101
0000
0000
0000
0110
0000
0010
1000
0001
0000
0000
0000
,
0011
0110
1100
1001
,
0401
0000
0000
0000
,
0301
1000
0001
0010
0100
1000
0001
0100
0001
1000
0010
0100
0010
1000
0001
1000
,
0010
1000
0001
0100
0001
1000
0100
0010
0001
1000
0100
0010
0001
1000
0010
0100
,
0001
1000
0001
0100
0010
1000
0001
0010
0001
1000
0100
0010
0100
1000
0001
1000
,
0100
1000
0001
0010
0001
1000
0010
0100
0001
1000
0010
0100
0001
1000
0100
0010
,
0001
1000
0001
0010
0100
1000
0001
0100
0001
1000
0010
0100
0010
1000
0001
1000
,
0010
1000
0001
0100
0001
1000
0100
0010
0001
1000
0100
0010
0001
1000
0010
0100
,
0001
1000
0001
0100
0010
1000
0001
0010
0001
1000
0100
0010
0100
1000
0001
1000
,
0001
0000
0000
0000
0000
0000
1000
0000
0010
0000
1000
0000
0010
0000
0000
0000
0000
0000
0100
0000
0000
0001
0000
0000
1000
0000
0000
0001
0000
0000
0000
0000
0000
1000
0000
0000
0100
0000
0000
1000
0000
0000
0000
0000
0000
0001
0000
0000
,
1000
0010
0100
0010
1000
0010
0100
0001
1000
0010
1000
0100
0010
0001
1000
0100
,
1000
0001
0010
0100
0010
0001
0010
0100
0010
0100
1000
0001
0100
0010
0100
0001
,
1000
0100
1000
0001
1000
0010
1000
0001
1000
0100
0010
0100
1000
0001
0010
0100
,
1000
0001
0100
0001
1000
0010
0100
0010
0100
0001
0100
0010
1000
0010
0100
0001
,
1000
0100
1000
0100
0010
0001
0010
0100
0010
0001
0010
0100
1000
0001
0100
0001
,
1000
0010
0100
0001
1000
0010
0100
0010
1000
0001
0100
0001
1000
0100
0010
0001
,
1000
0010
1000
0100
0010
0001
0010
0001
1000
0010
1000
0100
0010
0001
0010
0001
,
1000
0010
1000
0001
0100
0010
0100
0010
1000
0001
0100
0001
0100
0010
1000
0010
,
1000
0001
0100
0010
0100
0001
1000
0010
1000
0001
0010
0100
1000
0001
0100
0010
,
1000
0001
0100
0010
0100
0001
1000
0100
1000
0001
0010
0100
1000
0001
0100
0010
,
1000
0100
1000
0001
0100
0010
0100
0001
1000
0100
0010
0001
1000
0010
0100
0001
,
1000
0010
0100
0010
1000
0010
1000
0001
1000
0010
0100
0001
1000
0100
0010
0001
,
1000
0010
1000
0100
0010
0100
0010
0001
1000
0010
0100
0001
1000
0100
0010
0001
,
1000
0100
1000
0001
0100
0001
1000
0010
1000
0001
0010
0100
1000
0001
0100
0010
,
1000
0100
1000
0001
1000
0010
1000
0001
1000
0100
0010
0001
1000
0010
0100
0001
,
1000
0000
0040
0000
1030
0000
0004
0000
0103
0000
0004
0000
1003
0001
1000
0001
,
1000
0100
0010
0100
0010
0001
1000
0100
1000
0001
0100
0010
1000
0001
0010
0100
,
1000
0001
0010
0100
0010
0001
1000
0010
1000
0001
0100
0010
1000
0001
0010
0100
,
1000
0010
1000
0001
0010
0100
0010
0001
1000
0010
0100
0001
1000
0100
0010
0001
,
1000
0100
0010
0100
1000
0100
1000
0001
1000
0100
0010
0001
1000
0010
0100
0001
,
1000
0100
1000
0010
0100
0010
0100
0001
1000
0100
0010
0001
1000
0010
0100
0001
,
1000
0010
1000
0001
0010
0001
1000
0100
1000
0001
0100
0010
1000
0001
0010
0100
,
1000
0001
0100
0010
1000
0001
0100
0001
1000
0010
0100
0001
1000
0010
1000
0001
,
0010
0100
1000
0010
0100
0010
1000
0100
0010
0001
0100
0010
1000
0010
0100
0001
,
1000
0000
0000
00M0
0000
0000
M000
0000
,
0000
000M
0000
0000
00M0
0000
0000
M000
,
0000
0000
00M0
0000
0000
000M
0000
M000
,
0101
0000
1001
0000
1010
1001
0000
0011
,
0000
0010
0100
1000
0000
0001
0100
0010
,
1000
0100
0010
0002
0000
1003
0010
0200
,
0000
0301
1000
0100
0020
0000
0032
0000
,
1003
0010
1000
0100
0010
0001
1000
0010
1000
0001
0010
0100
0010
0001
1000
0100
,
0010
0001
1000
0010
1000
0001
0100
0010
1000
0010
0100
0001
1000
0010
1000
0001
,
1000
0100
1000
0010
0100
0001
1000
0100
1000
0001
0100
0010
0100
0001
1000
0010
,
0100
0001
1000
0100
1000
0001
0010
0100
1000
0100
0010
0001
1000
0100
1000
0001
,
1000
0010
0100
0001
1000
0100
0010
0001
1000
0010
0100
0010
1000
0010
0100
0001
,
1000
0100
0010
0100
1000
0001
0100
0010
0100
0001
1000
0010
1000
0001
0100
0001
,
0100
0010
1000
0010
0100
0001
1000
0100
0010
0001
1000
0001
0010
0100
1000
0001
,
0100
0010
1000
0010
0100
0001
0100
0010
1000
0001
1000
0001
0010
0100
0010
0100
,
1000
0010
1000
0100
0010
0001
1000
0010
1000
0001
0010
0100
0010
0001
1000
0100
,
0010
0001
1000
0010
1000
0001
0100
0010
1000
0010
0100
0001
1000
0010
1000
0001
,
1000
0100
1000
0010
0100
0001
1000
0100
1000
0001
0100
0010
0100
0001
1000
0010
,
0100
0001
1000
0100
1000
0001
0010
0100
1000
0100
0010
0001
1000
0100
1000
0001
,
1000
0010
0100
0001
1000
0100
0010
0001
1000
0010
0100
0010
1000
0010
0100
0001
,
1000
0100
0010
0100
1000
0001
0100
0010
0100
0001
1000
0010
1000
0001
0100
0001
,
0100
0010
1000
0010
0100
0001
1000
0100
0010
0001
1000
0001
0010
0100
1000
0001
,
0100
0010
1000
0010
0100
0001
0100
0010
0100
0001
1000
0010
0100
0010
0100
0001
,
1000
0100
0010
0001
1000
0010
1000
0001
0100
0010
0100
0001
1000
0010
0100
0001
,
1000
0100
1000
0001
0010
0100
1000
0100
0010
0001
1000
0010
0100
0001
0100
0010
,
1000
0001
0100
0010
0100
0001
1000
0010
0100
0001
1000
0100
0010
0001
1000
0001
,
0100
0001
0100
0001
1000
0001
1000
0001
0010
0100
1000
0001
1000
0100
0010
0001
,
1000
0010
0100
0010
1000
0001
0100
0010
0100
0001
1000
0010
0100
0001
1000
0010
,
1000
0100
0010
0100
1000
0001
0010
0100
0010
0100
1000
0001
0100
0010
0100
0001
,
1000
0100
0010
0001
1000
0010
1000
0001
0100
0001
1000
0010
1000
0010
0100
0001
,
1000
0010
1000
0100
0010
0001
1000
0001
0100
0010
0100
0001
1000
0100
1000
0100
,
0010
0100
0010
0001
1000
0010
0100
0001
1000
0100
1000
0001
0010
0100
0010
0001
,
1000
0100
0010
0001
1000
0010
1000
0001
0100
0010
1000
0010
0100
0001
1000
0100
,
0010
0001
0010
0100
1000
0001
0010
0100
0010
0001
1000
0100
0010
0001
1000
0010
,
0100
0001
1000
0001
0010
0001
0010
0001
1000
0001
1000
0001
0100
0010
1000
0001
,
1000
0010
0100
0001
1000
0100
0010
0100
1000
0001
0010
0100
0010
0001
1000
0100
,
0010
0001
1000
0100
1000
0010
0100
0010
1000
0001
0100
0010
0100
0010
1000
0001
,
0010
0100
0010
0001
1000
0010
0100
0001
1000
0100
1000
0001
0010
0001
1000
0100
,
1000
0001
1000
0100
1000
0001
1000
0100
1000
0100
0010
0000
0001
0000
1000
0000
,
0010
0100
0000
0100
0000
0100
0001
1000
,
0100
0010
0000
0010
0000
0010
0001
1000
,
0010
1000
0000
1000
0000
1000
0010
0100
,
0001
0000
1000
0100
1000
0100
0000
0010
,
0001
1000
0000
1000
0000
1000
0010
0100
,
0001
0010
0000
0010
0000
0010
0100
1000
,
0001
0010
0100
1000
0001
0010
0001
1000
0100
0010
0100
1000
0001
0010
0100
1000
,
0010
0100
0010
1000
0100
0010
0100
1000
0010
0100
0001
0010
0100
1000
0001
0100
,
0010
0000
1001
0000
0010
0001
0000
0101
,
0000
0100
0010
1000
0000
0001
0010
0100
,
1000
0010
0000
0100
0000
0001
0000
1000
,
1100
0000
0000
0000
,
0000
0000
0000
0000
,
0000
0000
0000
0000
0000
0000
00M0
M000
000M
0M00
00M0
M000
000M
0M00
00M0
M000
000M
0M00
00M0
M000
000M
0M00
00M0
M000
,
0001
0010
0100
1000
0001
1000
0100
0010
0001
1000
0010
0100
0001
1000
0010
1000
,
0001
0100
0010
0100
0001
1000
0100
0010
0001
1000
0010
1000
0010
0100
0001
1000
,
0001
0100
0001
0100
0010
1000
0010
1000
0001
0010
0001
1000
0010
1000
0001
0100
,
0001
1000
0100
0010
0001
1000
0100
1000
0001
0010
0100
0010
0001
1000
0100
1000
,
0001
0100
0010
1000
0001
1000
0010
0100
0001
1000
0100
0010
0001
1000
0100
1000
,
0001
0010
0100
0010
0001
1000
0010
0100
0001
1000
0100
1000
0100
0010
0001
1000
,
0001
0010
0001
0010
0100
1000
0100
1000
0001
0100
0001
1000
0100
1000
0001
0010
,
0001
1000
0010
0100
0001
1000
0010
1000
0001
0100
0010
0100
0001
1000
0010
1000
,
0001
0010
0100
1000
0001
1000
0100
0010
0001
1000
0010
0100
0001
1000
0010
1000
,
0001
0100
0010
0100
0001
1000
0100
0010
0001
1000
0010
1000
0010
0100
0001
1000
,
0001
0100
0001
0100
0010
1000
0010
1000
0001
0010
0001
1000
0010
1000
0001
0100
,
0001
1000
0100
0010
0001
1000
0100
1000
0001
0010
0100
0010
0001
1000
0100
1000
,
0001
0010
0100
0010
0001
1000
0010
1000
0010
0100
0001
0100
0001
0010
0100
0010
,
0001
1000
0010
1000
0010
0100
0001
0100
0001
1000
0100
0010
0001
1000
0010
1000
,
0001
0100
0010
1000
0001
0100
0010
0100
0001
1000
0010
0100
0001
1000
0010
1000
,
0100
0010
0001
0100
0010
0100
0001
0010
0100
1000
0010
1000
0100
0010
0001
0100
,
0010
1000
0010
0100
0001
1000
0001
0100
0001
1000
0100
0010
0001
1000
0010
0100
,
0001
1000
0010
0100
0010
1000
0001
0010
0001
1000
0100
0010
0001
1000
0010
0100
,
0001
0010
0001
1000
0010
0100
0010
1000
0001
0010
0100
1000
0001
0100
0010
1000
,
0001
0100
0010
0100
0001
0100
0001
1000
0001
0100
0010
1000
0001
0010
0100
1000
,
0001
0100
0001
0010
0100
0010
0100
1000
0001
0100
0010
1000
0001
0010
0100
1000
,
0001
0010
0001
1000
0010
1000
0001
0100
0001
1000
0100
0010
0001
1000
0010
0100
,
0001
0010
0001
1000
0001
0100
0001
1000
0001
0010
0100
1000
0001
0100
0010
1000
,
0001
0000
0400
0000
0301
0000
0040
0000
0130
0000
4000
0000
3001
0100
0001
0100
,
0001
1000
0100
0010
0100
1000
0001
0010
0001
1000
0010
0100
0001
1000
0100
0010
,
0001
1000
0100
0010
0100
1000
0001
0100
0001
1000
0010
0100
0001
1000
0100
0010
,
0001
0100
0001
1000
0100
0010
0100
1000
0001
0100
0010
1000
0001
0010
0100
1000
,
0001
0010
0100
0010
0001
0010
0001
1000
0001
0010
0100
1000
0001
0100
0010
1000
,
0001
0010
0001
0100
0010
0100
0010
1000
0001
0010
0100
1000
0001
0100
0010
1000
,
0001
0100
0001
1000
0100
1000
0001
0010
0001
1000
0010
0100
0001
1000
0100
0010
,
0001
1000
0010
0100
0001
1000
0010
1000
0001
0100
0010
1000
0001
0100
0001
1000
,
0001
0100
0001
0100
0001
0100
0001
0100
0040
0000
4030
0000
3001
0010
0001
0010
,
0001
1000
0010
0100
0010
1000
0001
0100
0001
1000
0100
0010
0001
1000
0010
0100
,
0001
1000
0010
0100
0010
1000
0001
0010
0001
1000
0100
0010
0001
1000
0010
0100
,
0001
0010
0001
1000
0010
0100
0010
1000
0001
0010
0100
1000
0001
0100
0010
1000
,
0001
0100
0010
0100
0001
0100
0001
1000
0001
0100
0010
1000
0001
0010
0100
1000
,
0001
0100
0001
0010
0100
0010
0100
1000
0001
0100
0010
1000
0001
0010
0100
1000
,
0001
0010
0001
1000
0010
1000
0001
0100
0001
1000
0100
0010
0001
1000
0010
0100
,
0001
0010
0001
1000
0001
0100
0001
1000
0001
0010
0100
1000
0001
0100
0010
1000
,
0001
0000
0040
0000
0031
0000
4000
0000
3010
0000
4000
0000
3001
0100
0001
0100
,
0001
1000
0100
0010
0100
1000
0001
0010
0001
1000
0010
0100
0001
1000
0100
0010
,
0001
1000
0100
0010
0100
1000
0001
0100
0001
1000
0010
0100
0001
1000
0100
0010
,
0001
0100
0001
1000
0100
0010
0100
1000
0001
0100
0010
1000
0001
0010
0100
1000
,
0001
0010
0100
0010
0001
0010
0001
1000
0001
0010
0100
1000
0001
0100
0010
1000
,
0001
0010
0001
0100
0010
0100
0010
1000
0001
0010
0100
1000
0001
0100
0010
1000
,
0001
0100
0001
1000
0100
1000
0001
0010
0001
1000
0010
0100
0001
1000
0100
0010
,
0001
1000
0010
0100
0001
1000
0010
1000
0001
0100
0010
1000
0001
0100
0001
1000
,
0100
0010
0001
0100
0001
0010
0100
1000
0010
1000
0100
0010
0001
1000
0001
1000
,
0001
0010
0100
0010
0100
1000
0001
0100
0001
1000
0100
0010
0001
1000
0010
0100
,
0001
1000
0010
0100
0010
1000
0001
0010
0001
1000
0100
0010
0001
1000
0010
0100
,
0001
0010
0001
1000
0010
0100
0010
1000
0001
0010
0100
1000
0001
0100
0010
1000
,
0001
0100
0010
0100
0001
0100
0001
1000
0001
0100
0010
1000
0001
0010
0100
1000
,
0001
0100
0001
0010
0100
0010
0200
1300
0020
0130
0001
1000
0001
0010
0100
1000
,
0001
0010
0001
1000
0010
1000
0001
0100
0001
1000
0100
0010
0001
1000
0010
0100
,
0001
0010
0001
1000
0001
0100
0001
1000
0001
0010
0100
1000
0001
0100
0010
1000
,
0001
0000
0040
0000
0031
0000
0400
0000
0301
0000
4000
0000
3001
0100
0001
0100
,
0001
1000
0100
0010
0100
1000
0001
0010
0001
1000
0010
0100
0001
1000
0100
0010
,
0002
0003
0000
0000
0200
0300
0000
0000
0020
0030
0000
0000
2000
3000
0000
0000
0020
0030
0000
0000
0200
0300
0000
0000
0002
0003
0000
0000
2000
3000
0000
0000
0200
0300
0000
0000
0020
0030
0000
0000
0002
0003
0000
0000
0020
0030
0000
0000
0200
0300
0000
0000
2000
3000
0000
0000
0002
0003
0000
0000
2000
3000
0000
0000
,
0002
0003
0000
0000
0100
0000
0000
0000
0001
0000
0000
0000
1000
0000
0000
0000
0100
0000
0000
0000
0010
0000
0000
0000
0100
0000
0000
0000
1000
0000
0000
0000
0001
0000
0000
0000
0100
0000
0000
0000
0010
0000
0000
0000
1000
0000
0000
0000
0001
0000
0000
0000
0010
0000
0000
0000
0100
0000
0000
0000
1000
0000
0000
0000
,
0001
0010
0100
0010
0001
0010
0001
1000
0001
0010
0100
1000
0001
0100
0010
1000
,
0001
0010
0001
0100
0010
0100
0010
1000
0001
0010
0100
1000
0001
0100
0010
1000
,
0001
0100
0001
1000
0100
1000
0001
0010
0001
1000
0010
0100
0001
1000
0100
0010
,
0001
1000
0010
0100
0001
1000
0010
1000
0001
0100
0010
1000
0001
0100
0001
1000
,
0400
0300
0040
0030
0400
0300
4000
3000
0040
0030
0400
0300
0004
0003
0040
0030
0004
0003
0400
0300
0040
0030
4000
3000
0400
0300
0040
0030
0004
0003
4000
3000
,
0001
0100
0010
1000
0001
1000
0010
0100
0001
1000
0001
0010
0001
1000
0010
0100
,
0001
1000
0100
0010
0001
1000
0010
1000
0001
0010
0100
1000
0001
1000
0100
0010
,
0001
1000
0010
0100
0001
0100
0010
1000
0001
0010
0001
1000
0100
1000
0001
0100
,
0010
1000
0010
1000
0001
1000
0010
0100
0001
1000
0100
0010
0001
1000
0010
1000
,
0001
0010
0100
1000
0001
1000
0100
0010
0001
1000
0001
0100
0001
1000
0100
0010
,
0001
1000
0010
0100
0001
1000
0100
1000
0001
0100
0010
1000
0001
1000
0010
0100
,
0001
1000
0100
0010
0001
0010
0100
1000
0001
0100
0001
1000
0010
1000
0001
0010
,
0100
1000
0100
1000
0001
1000
0100
0010
0001
1000
0010
0100
0001
1000
0100
1000
,
0001
0010
0100
1000
0001
1000
0010
0100
0001
1000
0001
0010
0001
1000
0010
0100
,
0001
1000
0100
0010
0001
1000
0010
1000
0001
0010
0100
1000
0001
1000
0100
0010
,
0001
1000
0010
0100
0001
0100
0010
1000
0001
0010
0001
1000
0100
1000
0001
0100
,
0010
1000
0010
1000
0001
1000
0010
0100
0001
1000
0100
0010
0001
1000
0010
1000
,
0001
0100
0010
1000
0001
1000
0100
0010
0001
1000
0001
0100
0001
1000
0100
0010
,
0001
1000
0010
0100
0001
1000
0100
1000
0001
0100
0010
1000
0001
1000
0010
0100
,
0001
1000
0100
0010
0001
0010
0100
1000
0001
0100
0001
1000
0010
1000
0001
0010
,
0100
1000
0100
1000
0001
1000
0100
0010
0001
1000
0010
0100
0001
1000
0100
1000
,
0010
0100
0001
1000
0100
1000
0001
0100
0010
1000
0010
0100
0001
1000
0100
0010
,
0001
1000
0010
1000
0001
0010
0100
1000
0001
0010
0001
1000
0010
0100
0001
1000
,
0100
1000
0001
0100
0010
1000
0001
0010
0001
1000
0010
0100
0001
1000
0001
0100
,
0010
1000
0001
1000
0100
0010
0001
1000
0010
0100
0001
1000
0100
1000
0001
0100
,
0010
0100
0001
1000
0100
1000
0001
0100
0010
1000
0010
0100
0001
1000
0100
0010
,
0001
1000
0010
1000
0001
0010
0100
1000
0001
0100
0001
1000
0100
0010
0001
1000
,
0010
1000
0001
0010
0100
1000
0001
0100
0001
1000
0100
0010
0001
1000
0001
0010
,
0100
1000
0001
1000
0010
0100
0001
1000
0100
0010
0001
1000
0010
0100
0010
1000
,
0100
0010
0001
1000
0010
1000
0001
0010
0100
1000
0100
0010
0001
1000
0010
0100
,
0001
1000
0100
1000
0001
0100
0010
1000
0001
0100
0001
1000
0100
0010
0001
1000
,
0010
1000
0001
0010
0100
1000
0001
0100
0001
1000
0100
0010
0001
1000
0001
0010
,
0100
1000
0001
1000
0010
0100
0001
1000
0100
0010
0001
1000
0010
1000
0001
0010
,
0100
1000
0100
0010
0001
1000
0010
0100
0001
0100
0010
1000
0001
0010
0100
1000
,
0001
0100
0010
1000
0001
1000
0010
0100
0001
0100
0010
1000
0001
0010
0100
1000
,
0001
0100
0001
0100
0010
1000
0010
1000
0001
0010
0001
0010
0100
1000
0100
1000
,
0040
0030
0000
0000
0400
0300
0000
0000
0004
0003
0000
0000
0040
0030
0000
0000
0004
0003
0000
0000
0400
0300
0000
0000
0040
0030
0000
0000
4000
3000
0000
0000
0400
0300
0000
0000
0040
0030
0000
0000
0400
0300
0000
0000
4000
3000
0000
0000
0040
0030
0000
0000
0400
0300
0000
0000
0004
0003
0000
0000
0040
0030
0000
0000
,
0001
0100
0010
1000
0001
1000
0010
0100
0001
0010
0100
1000
0010
1000
0100
0010
,
0001
1000
0010
0100
0001
0100
0010
1000
0001
1000
0010
0100
0001
0100
0010
1000
,
0001
1000
0010
0100
0001
0100
0010
1000
0001
0010
0100
1000
0010
1000
0100
0010
,
0001
0100
0010
1000
0100
1000
0010
0100
0001
0010
0100
1000
0010
1000
0100
0010
,
0001
0010
0100
1000
0001
1000
0100
0010
0001
0100
0010
1000
0100
1000
0010
0100
,
0001
1000
0100
0010
0001
0010
0100
1000
0001
1000
0100
0010
0001
0010
0100
1000
,
0001
1000
0100
0010
0001
0010
0100
1000
0001
0100
0010
1000
0100
1000
0010
0100
,
0001
0010
0100
1000
0010
1000
0100
0010
0001
0100
0010
1000
0100
1000
0010
0100
,
0001
0100
0010
1000
0001
1000
0010
0100
0001
0010
0100
1000
0010
1000
0100
0010
,
0001
1000
0010
0100
0001
0100
0010
1000
0001
1000
0010
0100
0001
0100
0010
1000
,
0001
1000
0010
0100
0001
0100
0010
1000
0001
0010
0100
1000
0010
1000
0100
0010
,
0001
0100
0010
1000
0100
1000
0010
0100
0001
0010
0100
1000
0010
1000
0100
0010
,
0001
0010
0100
1000
0001
1000
0100
0010
0001
0100
0010
1000
0100
1000
0010
0100
,
0001
1000
0100
0010
0001
0010
0100
1000
0001
1000
0100
0010
0001
0010
0100
1000
,
0001
0010
0001
0010
0100
1000
0100
1000
0001
0100
0001
0100
0010
1000
0010
1000
,
0400
0300
0000
0000
4000
3000
0000
0000
0040
0030
0000
0000
0400
0300
0000
0000
0004
0003
0000
0000
4000
3000
0000
0000
0400
0300
0000
0000
0040
0030
0000
0000
0004
0003
0000
0000
0400
0300
0000
0000
0004
0003
0000
0000
0040
0030
0000
0000
0400
0300
0000
0000
4000
3000
0000
0000
0040
0030
0000
0000
0400
0300
0000
0000
,
0001
0010
0100
1000
0001
1000
0100
0010
0001
0100
0010
1000
0100
1000
0010
0100
,
0001
1000
0100
0010
0001
0010
0100
1000
0001
1000
0100
0010
0001
0010
0100
1000
,
0001
1000
0100
0010
0001
0010
0100
1000
0001
0100
0010
1000
0100
1000
0010
0100
,
0001
0010
0100
1000
0010
1000
0100
0010
0001
0100
0010
1000
0100
1000
0010
0100
,
0001
0100
0010
1000
0001
1000
0010
0100
0001
0010
0100
1000
0010
1000
0100
0010
,
0001
1000
0010
0100
0001
0100
0010
1000
0001
1000
0010
0100
0001
0100
0010
1000
,
0001
1000
0010
0100
0001
0100
0010
1000
0001
0010
0100
1000
0010
1000
0100
0010
,
0001
0100
0010
1000
0100
1000
0010
0100
0001
0010
0100
1000
0010
1000
0100
0010
,
0001
0010
0100
1000
0001
1000
0100
0010
0001
0100
0010
1000
0100
1000
0010
0100
,
0001
1000
0100
0010
0001
0010
0100
1000
0001
1000
0100
0010
0001
0010
0100
1000
,
0001
1000
0100
0010
0001
0010
0100
1000
0001
0100
0010
1000
0100
1000
0010
0100
,
0001
0010
0100
1000
0010
1000
0100
0010
0001
0100
0010
1000
0100
1000
0010
0100
,
0001
0100
0010
1000
0001
1000
0010
0100
0001
0010
0100
1000
0010
1000
0100
0010
,
0001
1000
0010
0100
0001
0100
0010
1000
0001
1000
0010
0100
0001
0100
0010
1000
,
0001
0100
0001
0100
0010
1000
0010
1000
0001
0010
0001
0010
0100
1000
0100
1000
,
0040
0030
0000
0000
4000
3000
0000
0000
0400
0300
0000
0000
0040
0030
0000
0000
0004
0003
0000
0000
4000
3000
0000
0000
0400
0300
0000
0000
0040
0030
0000
0000
0004
0003
0000
0000
0400
0300
0000
0000
0004
0003
0000
0000
0040
0030
0000
0000
0400
0300
0000
0000
4000
3000
0000
0000
0040
0030
0000
0000
0400
0300
0000
0000
,
0002
0000
0000
0000
0000
0000
0000
0000
0203
0000
0000
0000
0000
0000
0000
0000
0320
0000
0000
0000
0000
0000
0000
0000
2030
0000
0000
0000
0000
0000
0000
3000
,
0102
0000
0000
0000
0000
0000
0000
0000
0203
0000
0000
0000
0000
0000
0000
0000
0320
0000
0000
0000
0000
0000
0000
0000
2030
0000
0000
0000
0000
0000
0000
3000
,
0021
0000
0000
0000
0000
0000
0000
0000
0230
0000
0000
0000
0000
0000
0000
0000
2300
0000
0000
0000
0000
0000
0000
0000
3002
0000
0000
0000
0000
0000
0000
0003
,
0120
0000
0000
0000
0000
0000
0000
0000
2030
0000
0000
0000
3001
0000
0000
0000
0020
0000
0000
0000
0000
0000
0000
0000
0230
0000
0000
0000
0000
0000
0000
0300
,
2001
0000
0000
0000
0000
0000
0000
0000
3020
0000
0000
0000
0000
0000
0000
0000
0230
0000
0000
0000
0000
0000
0000
0000
0302
0000
0000
0000
0000
0000
0000
0003
,
1200
0000
0000
0000
0000
0000
0000
0000
0320
0000
0000
0000
0000
0000
0000
0000
0032
0000
0000
0000
0000
0000
0000
0000
2003
0000
0000
0000
0000
0000
0000
3000
,
0210
0000
0000
0000
0000
0000
0000
0000
0302
0000
0000
0000
0000
0000
0000
0000
0023
0000
0000
0000
0000
0000
0000
0000
0230
0000
0000
0000
0000
0000
0000
0300
,
2001
0000
0000
0000
0000
0000
0000
0000
3020
0000
0000
0000
0130
0000
0000
0000
0002
0000
0000
0000
0000
0000
0000
0000
2003
0000
0000
0000
0000
0000
0000
3000
,
0120
0000
0000
0000
0000
0000
0000
0000
0032
0000
0000
0000
0000
0000
0000
0000
2003
0000
0000
0000
0000
0000
0000
0000
3020
0000
0000
0000
0000
0000
0000
0030
,
0102
0000
0000
0000
0000
0000
0000
0000
2003
0000
0000
0000
0000
0000
0000
0000
3200
0000
0000
0000
0000
0000
0000
0000
0320
0000
0000
0000
0000
0000
0000
0030
,
2001
0000
0000
0000
0000
0000
0000
0000
3020
0000
0000
0000
0000
0000
0000
0000
0230
0000
0000
0000
0000
0000
0000
0000
0302
0000
0000
0000
0000
0000
0000
0003
,
1200
0000
0000
0000
0000
0000
0000
0000
0320
0000
0000
0000
0031
0000
0000
0000
2000
0000
0000
0000
0000
0000
0000
0000
3020
0000
0000
0000
0000
0000
0000
0030
,
0102
0000
0000
0000
0000
0000
0000
0000
0023
0000
0000
0000
0000
0000
0000
0000
0230
0000
0000
0000
0000
0000
0000
0000
2300
0000
0000
0000
0000
0000
0000
3000
,
0201
0000
0000
0000
0000
0000
0000
0000
0302
0000
0000
0000
0000
0000
0000
0000
2003
0000
0000
0000
0000
0000
0000
0000
3200
0000
0000
0000
0000
0000
0000
0300
,
0012
2003
3020
0230
,
0300
0000
0000
0000
0001
0010
0100
1000
,
1010
0000
0000
0001
0010
0100
0000
0001
,
0010
0100
0000
1001
0000
1010
0000
0101
,
0000
0000
0000
0001
0010
0100
0000
0001
,
0100
0010
1000
0001
0000
1000
0010
0100
,
0001
0001
0010
0010
0100
0100
1000
1000
,
0001
0001
0100
0100
0010
0010
1000
1000
,
0001
0010
0001
0010
0100
1000
0100
1000
0001
1000
0010
0100
0001
1000
0100
0010
,
0004
0003
0000
0000
0400
0300
0000
0000
0040
0030
0000
0000
4000
3000
0000
0000
0400
0300
0000
0000
0040
0030
0000
0000
0400
0300
0000
0000
4000
3000
0000
0000
0004
0003
0000
0000
0000
0000
0000
0000
0000
0000
0000
0000
0000
0000
0000
0000
0000
0000
0000
0000
0000
0000
0000
0000
0000
0000
0000
0000
0000
0000
0000
0000
,
1001
0000
0000
0000
1000
0000
0000
0000
1000
0000
0000
1000
0000
0000
1000
0000
,
0001
0000
0000
0000
0001
0000
0000
0000
0001
0000
0000
0001
0000
0000
0001
0000
,
0100
0000
0000
0000
0100
0000
0000
0000
0100
0000
0000
0100
0000
0000
0100
0000
,
0010
0000
0000
1000
0000
0000
0010
0000
0100
0000
0000
0001
0000
0000
1000
0000
,
0100
0000
0000
0000
0100
0000
0000
0000
0100
0000
0000
0100
0000
0000
0100
0000
,
0010
0000
0000
0000
0010
0000
0000
0000
0010
0000
0000
0010
0000
0000
0010
0000
,
0001
0000
0000
0000
0001
0000
0000
0000
0001
0000
0000
0001
0000
0000
0001
0000
,
1000
0000
0000
0010
0000
0000
1000
0000
0001
0000
0000
0010
0000
0000
0100
0000
,
1100
0000
1000
0000
0001
0010
0000
0100
1000
0000
0001
0010
0000
0100
1000
0000
,
0001
0000
0100
0000
0010
1000
0000
0001
0100
0000
0010
1000
0000
0001
0100
0000
,
0010
0000
0100
0000
0001
1000
0000
0100
0010
0000
0001
1000
0000
0100
0010
0000
,
0001
0000
0100
0000
0010
0100
0000
0001
1000
0000
0100
0010
0000
0001
1000
0000
,
1010
0000
0000
0000
0011
0000
0000
0000
1100
0000
0000
0101
0000
0000
0110
0000
,
1001
0000
1000
0000
0001
0010
0000
0100
1000
0000
0001
0010
0000
0100
1000
0000
,
1001
0000
0000
0000
0110
0000
0000
0000
0101
0000
0000
0011
0000
0000
1100
0000
,
1001
0000
0000
0000
0000
0000
0000
0000
1000
0000
0000
0000
0000
0000
0000
0000
0110
0000
0000
0000
0000
0000
0000
0000
0000
0000
0000
0000
0000
0000
0000
0000
0004
0003
0000
0000
0400
0300
0000
0000
0040
0030
0000
0000
4000
3000
0000
0000
0400
0300
0000
0000
0040
0030
0000
0000
0004
0003
0000
0000
0400
0300
0000
0000
,
0020
0000
0000
0000
,
0000
0000
0000
0000
,
0030
0000
0000
0000
,
0100
0001
1000
0000
0100
0010
0000
0001
1000
0000
0010
0100
0000
0100
0001
0000
,
1000
0100
0010
0001
1000
0001
0010
0100
1000
0010
0100
0001
0010
0001
0100
0010
,
1000
0001
0010
0100
1000
0100
0010
0001
1000
0001
0010
0100
1000
0100
0010
0001
,
1000
0001
0010
0100
1000
0100
0010
0001
1000
0010
0100
0001
0010
0001
0100
0010
,
1000
0100
0010
0001
0100
0001
0010
0100
1000
0010
0100
0001
0010
0001
0100
0010
,
1000
0010
0100
0001
1000
0001
0100
0010
1000
0100
0010
0001
0100
0001
0010
0100
,
1000
0001
0100
0010
1000
0010
0100
0001
1000
0001
0100
0010
1000
0010
0100
0001
,
1000
0001
0100
0010
1000
0010
0100
0001
1000
0100
0010
0001
0100
0001
0010
0100
,
1000
0010
0100
0001
0010
0001
0100
0010
1000
0100
0010
0001
0100
0001
0010
0100
,
1000
0100
0010
0001
1000
0001
0010
0100
1000
0010
0100
0001
0010
0001
0100
0010
,
1000
0001
0010
0100
1000
0100
0010
0001
1000
0001
0010
0100
1000
0100
0010
0001
,
1000
0001
0010
0100
1000
0100
0010
0001
1000
0010
0100
0001
0010
0001
0100
0010
,
1000
0100
0010
0001
0100
0001
0010
0100
1000
0010
0100
0001
0010
0001
0100
0010
,
1000
0010
0100
0001
1000
0001
0100
0010
1000
0100
0010
0001
0100
0001
0010
0100
,
1000
0001
0100
0010
1000
0010
0100
0001
1000
0001
0100
0010
1000
0010
0100
0001
,
1000
0010
1000
0010
0100
0001
0100
0001
1000
0100
1000
0100
0010
0001
0010
0001
,
0400
0300
0000
0000
0004
0003
0000
0000
0040
0030
0000
0000
0400
0300
0000
0000
4000
3000
0000
0000
0004
0003
0000
0000
0040
0030
0000
0000
0400
0300
0000
0000
4000
3000
0000
0000
0040
0030
0000
0000
4000
3000
0000
0000
0400
0300
0000
0000
0040
0030
0000
0000
0004
0003
0000
0000
0400
0300
0000
0000
0040
0030
0000
0000
,
1000
0010
0100
0001
1000
0001
0100
0010
1000
0100
0010
0001
0100
0001
0010
0100
,
1000
0001
0100
0010
1000
0010
0100
0001
1000
0001
0100
0010
1000
0010
0100
0001
,
1000
0001
0100
0010
1000
0010
0100
0001
1000
0100
0010
0001
0100
0001
0010
0100
,
1000
0010
0100
0001
0010
0001
0100
0010
1000
0100
0010
0001
0100
0001
0010
0100
,
1000
0100
0010
0001
1000
0001
0010
0100
1000
0010
0100
0001
0010
0001
0100
0010
,
1000
0001
0010
0100
1000
0100
0010
0001
1000
0001
0010
0100
1000
0100
0010
0001
,
1000
0001
0010
0100
1000
0100
0010
0001
1000
0010
0100
0001
0010
0001
0100
0010
,
1000
0100
0010
0001
0100
0001
0010
0100
1000
0010
0100
0001
0010
0001
0100
0010
,
1000
0010
0100
0001
1000
0001
0100
0010
1000
0100
0010
0001
0100
0001
0010
0100
,
1000
0001
0100
0010
1000
0010
0100
0001
1000
0001
0100
0010
1000
0010
0100
0001
,
1000
0001
0100
0010
1000
0010
0100
0001
1000
0100
0010
0001
0100
0001
0010
0100
,
1000
0010
0100
0001
0010
0001
0100
0010
1000
0100
0010
0001
0100
0001
0010
0100
,
1000
0100
0010
0001
1000
0001
0010
0100
1000
0010
0100
0001
0010
0001
0100
0010
,
1000
0001
0010
0100
1000
0100
0010
0001
1000
0001
0010
0100
1000
0100
0010
0001
,
1000
0100
1000
0100
0010
0001
0010
0001
1000
0010
1000
0010
0100
0001
0100
0001
,
0040
0030
0000
0000
0004
0003
0000
0000
0400
0300
0000
0000
0040
0030
0000
0000
4000
3000
0000
0000
0400
0300
0000
0000
0040
0030
0000
0000
0004
0003
0000
0000
0100
0000
0000
0000
0001
0000
0000
0000
0010
0000
0000
0000
0001
0000
0000
0000
0100
0000
0000
0000
0010
0000
0000
0000
1000
0000
0000
0000
0100
0000
0000
0000
,
0010
0001
0010
0100
1000
0001
1000
0100
0010
0100
1000
0001
1000
0100
0010
0001
,
1000
0010
0100
0010
1000
0001
1000
0010
0100
0010
1000
0001
1000
0010
0100
0001
,
1000
0100
0010
0001
0010
0100
1000
0100
0010
0001
0010
0100
1000
0100
0010
0001
,
1000
0010
0100
0001
0100
0010
1000
0010
0100
0001
0100
0010
1000
0010
0100
0001
,
1000
0100
0010
0001
0100
0010
1000
0100
0010
0001
0100
0010
1000
0100
1000
0001
,
0010
0001
0100
0010
1000
0100
0010
0001
0100
0010
1000
0100
0010
0001
1000
0010
,
0100
0001
0010
0100
1000
0010
0100
0001
0010
0100
1000
0010
0100
0001
1000
0100
,
0010
0001
0100
0010
1000
0100
0010
0001
0100
0010
1000
0100
0010
0001
1000
0010
,
0100
0010
1000
0010
0100
0001
0100
0010
1000
0010
0100
0001
0100
0010
1000
0001
,
0010
0100
1000
0100
0010
0001
0010
0100
1000
0100
0010
0001
0010
0100
1000
0001
,
0100
0010
1000
0010
0100
0001
0100
0010
1000
0010
0100
0001
0100
0010
1000
0001
,
0010
0100
1000
0100
0010
0001
0010
0100
1000
0100
0010
0001
0010
0100
1000
0001
,
0100
0001
0010
0100
1000
0010
0100
0001
0010
0100
1000
0010
0100
0001
1000
0100
,
0010
0001
0100
0010
1000
0100
0010
0001
0100
0010
1000
0100
0010
0001
1000
0010
,
0100
0001
0010
0100
1000
0010
0100
0001
0010
0100
1000
0010
0100
0001
1000
0100
,
0010
0001
0100
0010
1000
0100
0010
0001
0100
0010
1000
0100
0010
0001
1000
0010
,
1000
0100
0010
0001
1000
0010
1000
0001
0010
0001
1000
0010
1000
0001
0010
0100
,
1000
0001
0100
0001
1000
0100
1000
0001
0100
0001
1000
0100
1000
0001
0100
0010
,
1000
0001
0010
0001
1000
0010
1000
0001
0010
0001
1000
0010
1000
0001
0010
0100
,
1000
0001
0100
0001
1000
0100
1000
0001
0100
0001
1000
0100
1000
0001
0100
0010
,
1000
0100
0010
0001
0100
0010
1000
0100
0010
0001
0100
0010
1000
0001
0010
0100
,
1000
0010
0100
0001
0010
0100
1000
0010
0100
0001
0010
0100
1000
0001
0100
0010
,
1000
0100
0010
0001
0100
0010
1000
0100
0010
0001
0100
0010
1000
0001
0010
0100
,
1000
0010
0100
0001
0010
0100
1000
0010
0100
0001
0010
0100
1000
0001
0100
0010
,
1000
0100
0010
0001
1000
0010
1000
0001
0010
0001
1000
0010
1000
0001
0010
0100
,
1000
0001
0100
0001
1000
0100
1000
0001
0100
0001
1000
0100
1000
0001
0100
0010
,
1000
0001
0010
0001
1000
0010
1000
0001
0010
0001
1000
0010
1000
0001
0010
0100
,
1000
0001
0100
0001
1000
0100
1000
0001
0100
0001
1000
0100
1000
0001
0100
0010
,
2000
3000
0020
0030
0200
0300
0002
0003
,
0002
0003
0020
0030
0200
0300
2000
3000
,
0001
0010
0001
0010
0100
1000
0100
1000
0001
1000
0001
1000
0010
0100
0010
0100
,
0004
0003
0000
0000
4000
3000
0000
0000
0400
0300
0000
0000
0040
0030
0000
0000
0004
0003
0000
0000
0400
0300
0000
0000
0040
0030
0000
0000
4000
3000
0000
0000
0200
0000
0000
0000
0000
0000
0000
0000
2300
0000
0000
0000
0000
0000
0000
0000
3002
0000
0000
0000
0000
0000
0000
0000
0023
0000
0000
0000
0000
0000
0030
0000
,
1100
0000
0000
0001
0010
0100
0000
0001
,
0010
0100
0000
1001
0000
1010
0000
0101
,
0000
0000
0000
0001
1000
0100
0000
0001
,
0010
0100
1000
0001
0000
0001
0010
0100
,
1000
0000
0000
0001
1000
0100
0000
0001
,
1000
0100
0000
0011
0000
1001
0000
2001
,
0000
0000
0000
0000
0000
3001
0100
0020
,
0000
0000
0030
0000
,
1001
0000
1000
0000
0001
0010
0000
0001
1000
0000
0001
0010
0000
0001
1000
0000
,
0010
0000
0100
0000
0001
1000
0000
0001
0100
0000
0001
1000
0000
0001
0100
0000
,
0010
0000
1000
0000
0100
0010
0000
0100
1000
0000
0100
0010
0000
0100
1000
0000
,
0010
0000
0100
0000
0001
1000
0000
0001
0100
0000
0010
1000
0000
0010
0100
0000
,
0001
0000
0010
0000
0100
1000
0000
0100
0010
0000
0100
1000
0000
0100
0010
0000
,
0001
0000
1000
0000
0010
0100
0000
0010
1000
0000
0010
0100
0000
0010
1000
0000
,
0001
0000
0010
0000
0100
1000
0000
0100
0010
0000
0100
1000
0000
0100
0010
0000
,
0001
0000
0100
0000
0010
1000
0000
0001
0010
0000
0001
1000
0000
0010
0100
0000
,
0101
0000
0000
0000
0011
0000
0000
0000
1100
0000
0000
1001
0000
0000
1010
0000
,
0110
0000
0100
0000
0001
0100
0000
0010
1000
0000
0001
1000
0000
0010
0100
0000
,
0001
0000
0010
0000
0100
1000
0000
0001
0010
0000
0001
1000
0000
0100
0010
0000
,
0001
0000
0100
0000
0010
0100
0000
0001
0010
0000
0100
1000
0000
0001
1000
0000
,
1100
0000
0000
0000
0110
0000
0000
0000
1001
0000
0000
1010
0000
0000
0101
0000
,
1001
0000
0001
0000
0010
0100
0000
1000
0001
0000
1000
0100
0000
0010
0001
0000
,
1010
0000
0000
0000
0101
0000
0000
0000
1001
0000
0000
0011
0000
0000
1100
0000
,
0004
0003
0000
0000
0400
0300
0000
0000
0040
0030
0000
0000
4000
3000
0000
0000
0400
0300
0000
0000
0040
0030
0000
0000
0400
0300
0000
0000
4000
3000
0000
0000
0040
0030
0000
0000
0400
0300
0000
0000
0004
0003
0000
0000
0040
0030
0000
0000
0400
0300
0000
0000
4000
3000
0000
0000
0040
0030
0000
0000
0400
0300
0000
0000
,
0001
0000
0000
0000
,
1000
0010
0100
0001
1000
0001
0100
0010
1000
0100
0010
0001
0100
0001
0010
0100
,
1000
0001
0100
0010
1000
0010
0100
0001
1000
0001
0100
0010
1000
0010
0100
0001
,
1000
0001
0100
0010
1000
0010
0100
0001
1000
0100
0010
0001
0100
0001
0010
0100
,
1000
0010
0100
0001
0010
0001
0100
0010
1000
0100
0010
0001
0100
0001
0010
0100
,
1000
0100
0010
0001
1000
0001
0010
0100
1000
0010
0100
0001
0010
0001
0100
0010
,
1000
0001
0010
0100
1000
0100
0010
0001
1000
0001
0010
0100
1000
0100
0010
0001
,
1000
0001
0010
0100
1000
0100
0010
0001
1000
0010
0100
0001
0010
0001
0100
0010
,
1000
0100
0010
0001
0100
0001
0010
0100
1000
0010
0100
0001
0010
0001
0100
0010
,
1000
0010
0100
0001
1000
0001
0100
0010
1000
0100
0010
0001
0100
0001
0010
0100
,
1000
0001
0100
0010
1000
0010
0100
0001
1000
0001
0100
0010
1000
0010
0100
0001
,
1000
0001
0100
0010
1000
0010
0100
0001
1000
0100
0010
0001
0100
0001
0010
0100
,
1000
0010
0100
0001
0010
0001
0100
0010
1000
0100
0010
0001
0100
0001
0010
0100
,
1000
0100
0010
0001
1000
0001
0010
0100
1000
0010
0100
0001
0010
0001
0100
0010
,
1000
0001
0010
0100
1000
0100
0010
0001
1000
0001
0010
0100
1000
0100
0010
0001
,
1000
0100
1000
0100
0010
0001
0010
0001
1000
0010
1000
0010
0100
0001
0100
0001
,
0040
0030
0000
0000
0004
0003
0000
0000
0400
0300
0000
0000
0040
0030
0000
0000
4000
3000
0000
0000
0004
0003
0000
0000
0040
0030
0000
0000
0400
0300
0000
0000
4000
3000
0000
0000
0010
0000
0000
0000
1000
0000
0000
0000
0100
0000
0000
0000
0010
0000
0000
0000
0001
0000
0000
0000
0100
0000
0000
0000
0001
0000
0000
0000
,
1000
0010
0100
0010
1000
0100
1000
0010
0100
0010
1000
0100
1000
0010
0100
0001
,
0010
0100
1000
0100
0010
0001
0010
0100
1000
0100
0010
0001
0010
0100
1000
0100
,
0010
0001
0100
0010
1000
0100
1000
0010
0100
0010
1000
0100
1000
0010
0100
0001
,
0010
0100
1000
0010
0100
0001
0100
0010
1000
0100
0010
0001
0100
0010
1000
0010
,
0100
0001
0010
0001
0100
0010
0100
0001
0010
0001
0100
0010
0100
0001
0010
0001
,
0100
0010
1000
0010
0100
0001
0100
0010
1000
0010
0100
0001
0100
0010
1000
0010
,
0100
0001
0010
0100
1000
0010
1000
0100
0010
0001
0100
0010
0100
0001
0010
0100
,
1000
0010
0100
0001
0010
0100
0010
0001
0100
0010
1000
0100
0010
0001
0100
0010
,
1000
0010
1000
0010
0100
0001
0010
0100
1000
0001
1000
0001
0100
0010
1000
0100
,
0010
0001
0010
0100
1000
0010
0100
0010
1000
0100
0010
0001
0010
0100
0010
0001
,
1000
0010
0100
0001
1000
0001
0100
0010
1000
0100
0010
0100
1000
0010
0100
0001
,
0010
0001
0100
0001
1000
0001
0100
0001
0010
0100
1000
0010
0100
0001
0100
0010
,
1000
0100
0010
0001
0100
0001
0010
0100
1000
0010
0100
0001
0010
0001
0100
0010
,
1000
0100
0010
0001
0100
0010
1000
0010
0100
0001
0010
0001
0100
0001
0010
0100
,
1000
0100
1000
0100
0010
0001
0010
0001
1000
0010
0100
0001
1000
0001
0100
0010
,
1000
0010
0100
0010
1000
0100
0010
0001
0100
0001
0010
0100
0010
0001
0100
0010
,
1000
0000
0000
0000
0001
0000
1000
0000
0001
0000
0000
0000
1000
0100
1000
0100
,
0010
0001
0100
0010
1000
0001
0010
0001
0100
0010
1000
0100
0010
0001
1000
0001
,
0100
0010
1000
0001
0010
0001
1000
0010
0100
0001
0010
0100
1000
0001
1000
0010
,
1000
0100
0010
0001
1000
0010
0100
0001
0010
0100
1000
0100
0010
0001
0100
0010
,
1000
0001
0010
0001
0100
0001
0010
0001
0100
0010
1000
0100
0010
0001
1000
0001
,
0010
0100
1000
0001
0100
0010
1000
0010
0100
0001
1000
0001
0010
0100
1000
0100
,
0010
0001
0100
0010
1000
0100
0010
0001
1000
0001
0010
0100
1000
0001
0100
0001
,
0010
0100
0010
0100
1000
0100
0010
0001
0100
0010
1000
0001
0010
0001
1000
0010
,
0100
0010
1000
0100
0010
0001
1000
0010
0100
0001
0100
0001
1000
0000
0001
0000
,
1000
0001
0100
0010
1000
0100
0010
0001
1000
0001
0010
0100
1000
0001
1000
0010
,
0100
0010
1000
0001
0010
0001
1000
0010
0100
0001
1000
0100
0010
0001
1000
0001
,
0010
0100
1000
0001
1000
0010
0100
0001
1000
0100
1000
0001
0100
0001
0010
0100
,
1000
0010
0100
0001
1000
0001
0100
0010
1000
0100
0010
0001
1000
0001
1000
0001
,
1000
0010
0100
0001
0010
0001
1000
0100
1000
0010
0100
0001
0010
0100
0010
0001
,
0100
0010
1000
0001
0010
0001
1000
0100
1000
0001
0100
0010
1000
0100
0010
0001
,
0100
0010
0100
0010
1000
0010
0100
0001
1000
0100
0010
0001
0100
0010
0100
0001
,
1000
0100
0010
0001
1000
0010
0100
0001
1000
0001
1000
0001
1000
0000
0000
0000
,
1001
0000
0000
0000
0011
0000
0000
0000
1100
0000
1000
0000
0001
0000
0100
0001
,
1000
0000
0100
1000
0001
0000
0100
0001
1000
0000
0100
1000
0001
0000
0100
0001
,
0010
0000
0000
0000
1100
0000
0000
0000
0011
0000
0001
0000
1000
0000
0010
1000
,
0001
0000
0010
0001
1000
0000
0010
1000
0100
0010
0001
0000
1000
0000
0001
0100
,
0010
0000
0000
0000
1010
0000
0000
0000
0101
0000
0001
0000
1000
0000
0100
1000
,
0001
0000
0100
0001
1000
0000
0100
1000
0001
0000
0100
0001
1000
0000
0100
1000
,
0010
0000
0000
0000
0101
0000
0000
0000
1010
0000
1000
0000
0001
0000
0010
0001
,
1000
0000
0010
1000
0001
0000
0010
0001
0100
0001
0100
0000
0010
0000
0100
0000
,
0101
0000
0001
0000
1000
0000
0100
0000
1000
0000
0010
0000
0100
0000
0010
1000
,
0001
0000
0010
0000
0100
0000
0010
0000
0001
0100
0000
0010
1000
0000
0100
0000
,
0010
0000
0100
0000
1000
0000
0010
0000
0100
0000
0001
0000
1000
0000
0001
0010
,
0100
1000
0001
0000
0100
0000
0001
0000
1000
0010
1000
0010
0100
0000
0001
0000
,
1000
0100
1000
0100
0010
0001
0010
0001
1000
0010
1000
0010
0100
0001
0100
0001
,
1000
0100
0010
0100
1000
0001
0010
0001
1000
0100
1000
0001
1000
0010
0100
0001
,
1000
0001
0100
0010
1000
0010
0100
0001
1000
0100
0010
0001
1000
0001
0010
0100
,
1000
0010
0100
0001
0010
0001
0100
0010
1000
0001
1000
0001
1000
0000
0000
0000
,
1001
0000
1000
0100
1000
0100
0010
0000
0001
0000
1000
0100
1000
0100
0010
0000
,
0001
0000
1000
0100
1000
0100
0010
0000
0001
0000
1000
0000
0100
0000
1000
0000
,
0010
0000
0100
0001
0100
0001
1000
0000
0010
0000
0100
0001
0100
0001
1000
0000
,
0010
0000
0100
0001
0100
0001
1000
0000
0010
0000
0100
0000
0010
0000
1000
0000
,
0001
0000
0010
0100
0010
0100
1000
0000
0001
0000
0010
0100
0010
0100
1000
0000
,
0001
0000
0010
0100
0010
0100
1000
0000
0001
0000
1000
0000
0010
0000
0100
0000
,
0001
0000
1000
0100
1000
0100
0010
0000
0001
0000
1000
0100
1000
0100
0010
0000
,
0001
0000
0000
0000
1000
0001
1000
0001
1000
0001
1000
0001
0020
0000
0030
0000
,
1100
0100
1000
0100
2000
0000
3010
0200
,
0000
0310
1000
0010
2000
0000
3100
0020
,
0000
0130
1000
0001
1000
0010
1000
0020
,
0000
0230
0000
0300
0000
0002
0000
0023
,
0000
0000
0130
0200
0000
0000
1300
2000
,
0000
3020
0000
0230
0000
0000
0302
0103
,
0001
0100
0010
1000
0100
0010
0100
1000
0001
1000
0100
0010
0001
1000
0100
1000
,
0001
0100
0010
1000
0100
1000
0010
0100
0001
1000
0001
1000
0002
0000
0003
0000
,
1000
0100
0010
0001
0010
0001
1000
0001
0010
0100
1000
0001
0010
0001
0100
0001
,
0100
0010
1000
0001
1000
0001
0100
0001
1000
0100
0010
0001
0010
0001
0100
0010
,
1000
0001
0100
0001
0100
0010
1000
0001
0100
0001
0100
0010
1000
0001
1000
0100
,
0010
0001
0100
0001
0100
0010
1000
0010
0100
0001
1000
0100
1000
0001
0010
0001
,
1000
0010
0100
0001
1000
0100
1000
0100
0010
0001
1000
0010
0100
0001
0100
0010
,
1000
0001
1000
0010
0100
0001
0010
0100
1000
0001
0010
0001
1000
0010
0100
0001
,
1000
0001
0100
0010
1000
0100
1000
0001
0010
0001
1000
0100
0010
0001
1000
0001
,
0010
0100
0010
0100
1000
0100
1000
0100
1000
0001
1000
0001
0200
0000
0301
0000
,
1000
0100
0010
0001
0010
0001
1000
0001
0010
0100
1000
0001
0010
0001
0100
0001
,
0100
0010
1000
0001
1000
0001
0100
0001
1000
0100
0010
0001
0010
0001
0100
0010
,
1000
0001
0100
0001
0100
0010
1000
0001
0100
0001
0100
0010
1000
0001
1000
0100
,
0010
0001
0100
0001
0100
0010
1000
0010
0100
0001
1000
0100
1000
0001
0010
0001
,
1000
0010
0100
0001
1000
0100
1000
0100
0010
0001
1000
0010
0100
0001
0100
0010
,
1000
0001
1000
0010
0100
0001
0010
0100
1000
0001
0010
0001
1000
0010
0100
0001
,
1000
0001
0100
0010
1000
0100
1000
0001
0010
0001
1000
0100
0010
0001
0100
0010
,
1000
0001
1000
0001
0010
0100
0010
0100
1000
0001
0100
0010
2000
0000
3000
0000
,
0001
1000
0100
0010
0001
0010
0100
1000
0001
0100
0010
1000
0001
1000
0010
0100
,
0001
0010
0100
1000
0001
0010
0001
1000
0001
0100
0010
0100
0001
1000
0100
1000
,
0001
0100
0010
1000
0001
1000
0010
0100
0001
1000
0100
0010
0001
0100
0001
1000
,
0010
1000
0001
0010
0100
1000
0001
0010
0001
1000
0010
1000
0100
0010
0100
0010
,
0001
1000
0100
1000
0001
0010
0001
1000
0010
0100
0001
0100
0010
1000
0001
0010
,
0100
1000
0010
0100
0001
1000
0001
0010
0100
1000
0001
1000
0001
0100
0010
1000
,
0001
0010
0001
0010
0100
1000
0010
0100
0001
0010
0001
0010
0100
1000
0010
0100
,
0001
1000
0001
1000
0100
1000
0010
0100
0001
0010
0100
1000
0010
0100
0010
0100
,
0001
1000
0100
1000
0001
0100
0001
1000
0100
0010
0001
0010
0100
1000
0001
1000
,
0010
0100
0001
1000
0100
0010
0100
1000
0010
0100
0001
1000
0100
1000
0001
0010
,
0001
1000
0100
1000
0001
0100
0001
1000
0100
0010
0001
0010
0100
1000
0001
1000
,
0001
0100
0010
1000
0100
0010
0001
1000
0001
0100
0010
1000
0001
1000
0001
1000
,
0001
1000
0010
1000
0001
0010
0001
1000
0010
0100
0001
0100
0010
1000
0001
0010
,
0100
1000
0001
0100
0001
1000
0100
1000
0001
0100
0010
1000
0001
1000
0010
0100
,
0001
0010
0100
1000
0001
1000
0100
0010
0001
1000
0001
0100
0010
1000
0010
1000
,
0001
0000
0001
0000
0001
0000
0001
0000
1000
0001
1000
0000
0200
0000
0300
0000
,
0011
0000
0001
1000
0100
1000
0001
0010
0001
1000
0100
1000
0001
0100
0010
1000
,
0001
1000
0100
1000
0001
0010
0100
1000
0001
0100
0001
0010
0100
1000
0001
0100
,
0010
1000
0010
0100
0001
1000
0001
1000
0100
0010
0100
1000
0001
0010
0001
1000
,
0001
0100
0010
0100
0001
1000
0001
0100
0010
1000
0100
0010
0001
0000
0001
0000
,
0100
0001
1000
0001
1000
0010
0100
0001
1000
0100
0010
0001
0100
0001
1000
0001
,
0010
0100
1000
0001
0010
0001
1000
0010
0100
0001
0010
0100
1000
0001
0010
0001
,
1000
0010
0100
0001
1000
0001
0010
0100
1000
0010
0100
0001
1000
0100
0010
0001
,
1000
0001
0010
0001
1000
0100
0010
0001
0100
0001
0100
0001
0100
0000
0001
0000
,
1000
0010
1000
0001
1000
0100
0010
0001
0100
0001
1000
0100
0010
0001
1000
0010
,
0100
0001
1000
0001
0010
0100
0010
0001
0100
0010
1000
0001
1000
0100
1000
0001
,
0100
0010
1000
0001
0010
0100
0010
0001
0100
0010
1000
0001
0010
0001
0010
0100
,
1000
0001
1000
0010
0100
0010
0100
0001
0010
0100
1000
0001
0010
0100
0010
0001
,
0100
0010
1000
0001
1000
0100
0010
0001
0100
0001
1000
0100
0010
0001
1000
0010
,
0100
0001
1000
0001
0010
0100
0010
0001
0100
0010
1000
0001
1000
0100
1000
0001
,
0100
0010
1000
0001
0010
0100
0010
0001
0100
0010
1000
0001
0010
0001
0010
0100
,
1000
0001
1000
0010
0100
0010
0100
0001
0010
0100
1000
0001
0010
0100
0010
0001
,
0100
0010
1000
0001
1000
0100
0010
0001
0100
0001
1000
0100
0010
0001
1000
0010
,
0100
0001
1000
0001
0010
0100
0010
0001
0100
0010
1000
0001
1000
0100
1000
0001
,
0100
0010
1000
0001
0010
0100
0010
0001
0100
0010
1000
0001
0010
0001
0010
0100
,
1000
0001
1000
0010
0100
0010
0100
0001
0010
0100
1000
0001
0010
0100
0010
0001
,
0100
0010
1000
0001
1000
0100
0010
0001
0100
0001
1000
0100
0010
0001
1000
0010
,
0100
0001
1000
0001
0010
0100
0010
0001
0100
0010
1000
0001
1000
0100
1000
0001
,
0100
0010
1000
0001
0010
0100
0010
0001
0100
0010
1000
0001
0010
0001
0010
0100
,
1000
0001
1000
0010
0100
0010
0100
0001
0010
0100
1000
0010
0100
0010
1000
0001
,
0010
0100
1000
0001
1000
0010
0100
0001
0010
0001
1000
0010
0100
0001
1000
0100
,
0010
0001
1000
0001
0100
0010
0100
0001
0010
0100
1000
0001
1000
0010
1000
0001
,
0010
0100
1000
0001
0100
0010
0100
0001
0010
0100
1000
0001
0100
0001
0100
0010
,
1000
0001
1000
0100
0010
0100
0010
0001
0100
0010
1000
0001
0100
0010
0100
0001
,
1000
0001
0010
0100
1000
0001
0100
0001
0010
0100
1000
0100
0010
0001
0010
0001
,
1000
0010
0100
0001
1000
0001
0010
0001
0100
0010
1000
0001
0010
0100
0010
0001
,
1000
0001
0100
0001
1000
0100
0010
0100
1000
0010
0100
0001
1000
0010
0100
0010
,
1000
0001
0100
0001
1000
0010
0100
0010
1000
0100
0010
0001
0100
0010
1000
0001
,
0020
0030
0001
2000
3000
0200
0300
2000
,
3000
0002
0003
0200
0300
0000
0010
0000
,
0200
0300
0001
2000
3000
0020
0030
2000
,
3200
0310
0100
2000
3000
0000
0000
0000
,
0010
0000
0100
0000
0010
0010
0100
0000
,
0010
0000
0100
0000
0010
0010
0100
0000
,
1001
0000
0010
0101
0000
1000
1010
1010
,
0000
0000
0000
0000
0000
0000
0001
1000
0001
1000
0100
1000
0001
0010
0100
1000
,
0001
0000
1000
0000
0010
0000
1010
0000
1000
0000
0001
0100
0001
0000
1000
0000
,
0100
0000
1000
0000
0001
0000
0011
0000
0010
0000
0001
1000
0001
0000
0100
0000
,
0001
0000
1000
0000
0100
0000
1100
0000
1000
0000
0001
0100
0001
0000
1000
0000
,
0100
0000
1000
0000
0001
0000
0101
0000
0100
0000
0010
1000
0010
0000
0100
0000
,
0001
0000
1000
0000
0001
0000
0011
0000
0010
0000
0100
1000
0100
0000
0010
0000
,
0001
0000
1000
0000
0001
0000
0101
0000
0100
0000
0010
1000
0010
0000
0100
0000
,
0001
0000
1000
0000
0100
0000
0110
0000
0010
0000
0001
1000
0001
0000
0010
0000
,
0100
0000
1000
0000
0001
0000
0101
0000
0100
0000
0010
1000
0010
0000
0100
0000
,
0101
0000
0001
0000
1000
0000
1100
0000
0100
0000
1000
0001
1000
0000
0001
0000
,
0101
0000
0100
0000
0001
0000
1001
0000
1000
0000
0100
0010
0100
0000
1000
0000
,
1001
0000
0001
0000
0100
0000
0110
0000
0010
0000
1000
0010
1000
0000
0001
0000
,
0011
0000
0010
0000
0100
0000
1100
0000
1000
0000
0001
0100
0001
0000
1000
0000
,
1100
0000
0100
0000
0010
0000
0011
0000
0001
0000
1000
0010
1000
0000
0001
0000
,
1001
0000
1000
0000
0100
0000
0110
0000
0010
0000
0001
1000
0001
0000
1000
0000
,
1010
0000
0010
0000
0100
0000
0101
0000
0001
0000
1000
0001
1000
0000
0100
0000
,
0110
0000
0010
0000
0100
0000
1100
0000
1000
0000
0001
1000
0001
0000
0100
0000
,
0002
0003
0020
0030
0200
0300
2000
3000
0002
0003
0200
0300
0020
0030
2000
3000
0002
0003
0020
0030
0200
0300
2000
3000
0002
0003
0200
0300
0020
0030
2000
3000
,
0001
1000
0100
1000
0001
1000
0010
1000
0001
1000
0100
1000
0001
0100
0010
1000
,
0100
1000
0001
1000
0100
1000
0010
1000
0100
1000
0001
1000
0100
0010
0001
1000
,
0001
1000
0010
0100
0010
1000
0001
1000
0100
0010
0100
1000
0001
0100
0010
0100
,
0001
1000
0100
0010
0100
1000
0001
1000
0010
1000
0001
1000
0010
0100
0010
1000
,
0001
0010
0001
1000
0010
0100
0010
1000
0001
0010
0001
1000
0010
0100
0001
1000
,
0001
0100
0001
1000
0100
0010
0100
1000
0001
0100
0001
1000
0100
0010
0001
1000
,
0010
0100
0001
1000
0100
0010
0001
0100
0010
0100
0001
1000
0100
0010
0001
1000
,
0002
0003
0200
0300
0020
0030
2000
3000
0002
0003
0020
0030
0200
0300
2000
3000
0002
0003
0200
0300
0020
0030
2000
3000
0002
0003
0020
0030
0200
0300
2000
3000
,
0001
1000
0010
1000
0001
1000
0100
1000
0001
1000
0010
1000
0001
1000
0100
0010
,
0001
1000
0100
1000
0001
1000
0010
1000
0001
1000
0100
1000
0001
1000
0010
0100
,
0001
1000
0100
0010
0100
1000
0001
1000
0010
0100
0001
0100
0010
1000
0100
0010
,
0001
0010
0100
1000
0001
1000
0001
0100
0010
1000
0001
1000
0010
0100
0001
1000
,
0001
0010
0100
1000
0010
0100
0001
0100
0010
1000
0001
1000
0100
0010
0001
1000
,
0001
0010
0001
1000
0010
0100
0010
1000
0100
0010
0100
1000
0010
0100
0001
1000
,
0100
0010
0100
1000
0010
0100
0001
0010
0100
0010
0001
1000
0010
0100
0001
1000
,
0100
0010
0100
1000
0010
0100
0001
0010
0100
0010
0001
1000
0010
0100
0010
0100
,
0001
1000
0100
1000
0001
1000
0010
1000
0001
1000
0100
1000
0001
0100
0010
1000
,
0100
1000
0001
1000
0100
1000
0010
1000
0100
1000
0001
1000
0100
0010
0001
1000
,
0001
1000
0010
0100
0010
1000
0001
1000
0100
0010
0100
1000
0001
0100
0010
0100
,
0001
1000
0100
0010
0100
1000
0001
1000
0010
1000
0001
1000
0010
0100
0010
1000
,
0001
0010
0001
1000
0010
0100
0010
1000
0001
0010
0001
1000
0010
0100
0001
1000
,
0001
0100
0001
1000
0100
0010
0100
1000
0001
0100
0001
1000
0100
0010
0001
1000
,
0010
0100
0001
1000
0100
0010
0001
0100
0010
0100
0001
1000
0100
0010
0001
1000
,
0002
0003
0200
0300
0020
0030
2000
3000
0002
0003
0020
0030
0200
0300
2000
3000
0002
0003
0200
0300
0020
0030
2000
3000
0002
0003
0020
0030
0200
0300
2000
3000
,
0001
1000
0010
1000
0001
1000
0100
1000
0001
1000
0010
1000
0001
1000
0100
0010
,
0001
1000
0100
1000
0001
1000
0010
1000
0001
1000
0100
1000
0001
1000
0010
0100
,
0001
1000
0100
0010
0100
1000
0001
1000
0010
0100
0001
0100
0010
1000
0100
0010
,
0001
0010
0100
1000
0001
1000
0001
0100
0010
1000
0001
1000
0010
0100
0001
1000
,
0001
0010
0100
1000
0010
0100
0001
0100
0010
1000
0001
1000
0100
0010
0001
1000
,
0001
0010
0001
1000
0010
0100
0010
1000
0100
0010
0100
1000
0010
0100
0001
1000
,
0100
0010
0100
1000
0010
0100
0001
0010
0100
0010
0001
1000
0010
0100
0001
1000
,
0100
0010
0100
1000
0010
0100
0001
0010
0100
0010
0001
1000
0010
0100
0010
0100
,
0001
0100
0010
1000
0100
0010
0001
1000
0001
0100
0010
1000
0100
0010
0001
1000
,
0001
0010
0100
1000
0010
0100
0001
1000
0001
0010
0100
1000
0010
0100
0010
1000
,
0100
0010
0001
0010
0100
1000
0010
0100
0010
1000
0001
0010
0100
1000
0001
1000
,
0001
0100
0010
1000
0100
0010
0001
1000
0010
0100
0010
1000
0100
0010
0001
1000
,
0001
0100
0001
1000
0100
0010
0001
1000
0001
0010
0001
1000
0010
0100
0001
1000
,
0001
0010
0001
1000
0010
0100
0001
1000
0001
0010
0001
0100
0010
1000
0001
1000
,
0001
0010
0001
0100
0010
1000
0001
1000
0001
0010
0001
0100
0010
1000
0010
0100
,
0001
0010
0001
0100
0010
1000
0010
0100
0001
0010
0100
1000
0010
0100
0001
0010
,
0200
0000
0000
0000
,
0000
0000
0000
M000
0000
0000
0000
0000
,
0000
00M0
0000
0000
0000
000M
0000
0300
,
1000
0000
0100
0000
0000
0000
0100
0000
0010
0000
0000
0000
0001
0000
1000
0000
0002
0003
0020
0030
0200
0300
2000
3000
0020
0030
0200
0300
0002
0003
2000
3000
,
0100
0010
0001
1000
0001
0100
0010
1000
0100
1000
0001
0100
0010
1000
0001
0010
,
0100
1000
0001
1000
0010
0100
0010
1000
0100
0010
0001
1000
0001
0100
0001
1000
,
0100
0010
0001
1000
0010
0100
0010
1000
0100
0010
0001
1000
0010
1000
0010
0100
,
0001
1000
0001
0010
0100
0010
0100
1000
0010
0100
0001
1000
0010
0100
0010
1000
,
0100
0010
0001
1000
0001
0100
0010
1000
0100
1000
0001
0100
0010
1000
0001
0010
,
0100
1000
0001
1000
0010
0100
0010
1000
0100
0010
0001
1000
0001
0100
0001
1000
,
0100
0010
0001
1000
0010
0100
0010
1000
0100
0010
0001
1000
0010
1000
0010
0100
,
0001
1000
0001
0010
0100
0010
0100
1000
0010
0100
0001
1000
0010
0100
0010
1000
,
0100
0010
0001
1000
0001
0100
0010
1000
0100
1000
0001
0100
0010
1000
0001
0010
,
0100
1000
0001
1000
0010
0100
0010
1000
0100
0010
0001
1000
0001
0100
0001
1000
,
0100
0010
0001
1000
0010
0100
0010
1000
0100
0010
0001
1000
0010
1000
0010
0100
,
0001
1000
0001
0010
0100
0010
0100
1000
0010
0100
0001
1000
0010
0100
0010
1000
,
0100
0010
0001
1000
0001
0100
0010
1000
0100
1000
0001
0100
0010
1000
0001
0010
,
0100
1000
0001
1000
0010
0100
0010
1000
0100
0010
0001
1000
0001
0100
0001
1000
,
0100
0010
0001
1000
0010
0100
0010
1000
0100
0010
0001
1000
0010
1000
0010
0100
,
0001
1000
0001
0010
0100
0010
0100
1000
0010
0100
0001
0010
0100
0010
0001
1000
,
0010
0100
0001
1000
0001
0010
0100
1000
0010
1000
0001
0010
0100
1000
0001
0100
,
0010
1000
0001
1000
0100
0010
0100
1000
0010
0100
0001
1000
0001
0010
0001
1000
,
0010
0100
0001
1000
0100
0010
0100
1000
0010
0100
0001
1000
0100
1000
0100
0010
,
0001
1000
0001
0100
0010
0100
0010
1000
0100
0010
0001
1000
0100
0010
0100
1000
,
0010
0100
0001
1000
0001
0010
0100
1000
0010
1000
0001
0010
0100
1000
0001
0100
,
0010
1000
0001
1000
0100
0010
0100
1000
0010
0100
0001
1000
0001
0010
0001
1000
,
0010
0100
0001
1000
0100
0010
0100
1000
0010
0100
0001
1000
0100
1000
0100
0010
,
0001
1000
0001
0100
0010
0100
0010
1000
0100
0010
0001
1000
0100
0010
0100
1000
,
0010
0100
0001
1000
0001
0010
0100
1000
0010
1000
0001
0010
0100
1000
0001
0100
,
0010
1000
0001
1000
0100
0010
0100
1000
0010
0100
0001
1000
0001
0010
0001
1000
,
0010
0100
0001
1000
0100
0010
0100
1000
0010
0100
0001
1000
0100
1000
0100
0010
,
0001
1000
0001
0100
0010
0100
0010
1000
0100
0010
0001
1000
0100
0010
0100
1000
,
0010
0100
0001
1000
0001
0010
0100
1000
0010
1000
0001
0010
0100
1000
0001
0100
,
0010
1000
0001
1000
0100
0010
0100
1000
0010
0100
0001
1000
0001
0010
0001
1000
,
0010
0100
0001
1000
0100
0010
0100
1000
0010
0100
0001
1000
0100
0010
0100
1000
,
0010
0100
0001
1000
0100
0010
0100
1000
0010
0100
0001
0010
0100
1000
0010
0100
,
0002
0000
0000
0000
0000
0013
0100
1000
,
0001
0000
0010
0100
0000
0000
1000
0000
0001
0000
0010
0100
0000
0000
1000
0000
,
0001
0000
0010
0100
0000
0000
1000
0000
0001
0000
0100
0000
0010
0000
1000
0000
,
0200
0320
0032
2003
,
3010
0000
0000
0010
0000
0000
0100
0000
0000
0000
0001
0000
0010
0000
0100
0000
,
1000
0000
0010
0100
0000
0000
0001
0000
1000
0000
0010
0100
0000
0000
0001
0000
,
1000
0000
0010
0100
0000
0000
0001
0000
0010
0000
0100
0000
1000
0000
0010
0000
,
0100
0000
0000
0100
0000
0000
0001
0000
1000
0000
0010
0000
0100
0000
0001
0000
,
2000
3000
1000
0000
0200
0300
0100
0000
0020
0030
0010
0000
0002
0003
0001
0000
,
1000
0001
1000
0001
1000
0000
0100
0000
0010
0001
0010
0001
0010
0000
0100
0000
,
1000
0001
0100
0010
1000
0001
0100
0010
1000
0001
0100
0010
1000
0001
0100
0010
,
1000
0000
0000
0000
0000
0000
0000
0000
0001
1000
0010
1000
0001
1000
0100
1000
,
0001
0000
0000
0000
0000
1000
0001
0010
,
0100
1000
0100
1000
0001
0100
0010
1000
0001
1000
0001
1000
0100
0010
0001
1000
,
0010
0100
0010
0100
0001
1000
0100
0010
0001
1000
0010
1000
0001
1000
0100
1000
,
0001
0100
0001
0100
0010
1000
0010
1000
0100
0010
0100
0010
0001
0010
0001
0010
,
0100
1000
0010
0100
0001
0010
0100
1000
0010
1000
0100
1000
0001
1000
0010
1000
,
0001
0100
0001
0100
0010
1000
0001
0010
0100
1000
0100
1000
0001
0100
0010
1000
,
0001
1000
0001
1000
0100
0010
0001
1000
0010
1000
0001
1000
0100
1000
0010
1000
,
0001
0100
0001
0100
0010
1000
0001
1000
0010
0100
0001
1000
0100
0010
0001
1000
,
0020
0030
2000
3000
0020
0030
0200
0300
0002
0003
2000
3000
0002
0003
0200
0300
0040
0030
4000
3000
0400
0300
0040
0030
0004
0003
0400
0300
0040
0030
4000
3000
,
0100
0010
0100
0010
0001
1000
0010
0100
0001
1000
0001
1000
0100
0010
0001
0100
,
0010
1000
0010
1000
0001
1000
0100
0010
0001
1000
0001
1000
0100
1000
0010
1000
,
0001
0100
0001
0100
0010
1000
0010
1000
0100
0010
0100
0010
0001
1000
0001
1000
,
0010
0100
0001
0010
0100
1000
0010
1000
0100
0010
0001
1000
0010
1000
0010
0100
,
0001
1000
0001
1000
0100
0010
0001
1000
0010
0100
0010
0100
0001
1000
0100
0010
,
0001
1000
0001
1000
0010
1000
0001
0010
0100
1000
0001
1000
0010
1000
0100
1000
,
0001
0100
0001
0100
0010
1000
0001
0010
0100
1000
0001
1000
0010
1000
0100
1000
,
0001
0100
0001
0100
0010
0100
0010
0100
0010
1000
0010
1000
0001
1000
0001
1000
,
0100
1000
0100
1000
0100
0000
0010
0000
0001
1000
0001
1000
0001
0000
0100
0000
,
0001
0010
0100
0000
1000
0010
0100
0000
0001
0010
0100
1000
0010
1000
0100
0010
,
0001
0000
0000
0000
0000
0000
0000
0000
1000
0001
0010
0001
1000
0001
0100
0001
,
1000
0000
0000
0M00
0000
0M00
0000
0M00
,
1000
0001
1000
0010
1000
0001
1000
0010
0100
0001
1000
0001
0100
0010
1000
0001
,
0010
0100
1000
0100
0010
0100
1000
0100
0010
0001
1000
0001
0100
0010
1000
0010
,
0100
0001
1000
0001
0100
0001
1000
0001
0100
0010
1000
0001
0010
0001
1000
0010
,
0100
0001
1000
0100
1000
0010
0100
0001
2000
0000
0000
0000
3002
0000
1003
0100
,
0010
0001
1000
0001
0010
0001
1000
0001
1000
0010
0100
0010
1000
0001
0010
0100
,
1000
0001
0010
0001
1000
0001
0010
0001
1000
0010
0100
0010
1000
0100
0010
0001
,
1000
0010
0100
0001
1000
0001
0100
0010
1000
0001
0010
0001
1000
0100
0010
0100
,
1000
0001
1000
0010
0100
0001
1000
0001
1000
0100
1000
0001
0100
0001
1000
0100
,
0010
0001
0010
0001
1000
0100
0010
0100
1000
0001
0010
0100
1000
0001
1000
0010
,
0100
0001
0100
0010
0100
0001
0010
0100
1000
0001
0010
0001
1000
0010
0100
0001
,
0100
0010
1000
0001
1000
0100
0010
0001
1000
0100
1000
0001
1000
0010
0100
0001
,
1000
0100
1000
0001
0100
0001
0010
0100
0010
0001
1000
0010
0100
0001
1000
0001
,
0100
0010
1000
0100
0010
0001
1000
0010
0100
0001
1000
0100
1000
0001
0100
0010
,
1000
0001
1000
0010
1000
0001
0010
0100
1000
0001
1000
0100
0010
0001
1000
0010
,
1000
0001
1000
0010
0100
0001
0100
0010
1000
0001
0010
0100
0010
0001
1000
0010
,
0100
0001
0100
0001
1000
0001
0100
0010
1000
0001
1000
0001
1000
0001
1000
0001
,
0010
0000
0000
0100
0000
0000
0010
0000
0001
0000
0100
0000
0010
0000
1000
0000
,
0001
0010
0001
0010
0100
1000
0010
1000
0001
1000
0001
1000
0100
0010
0001
1000
,
0010
0100
0010
0100
0001
1000
0100
0010
0001
1000
0010
1000
0001
1000
0100
1000
,
0001
0100
0001
0100
0010
1000
0010
1000
0100
0010
0100
0010
0001
0010
0001
0010
,
0100
1000
0010
0100
0001
0010
0100
1000
0001
1000
0010
1000
0001
1000
0100
1000
,
0001
0100
0001
0100
0010
1000
0001
0010
0100
1000
0100
1000
0001
0100
0010
1000
,
0001
1000
0001
1000
0100
0010
0001
1000
0010
1000
0001
1000
0100
1000
0010
1000
,
0001
0100
0001
0100
0010
1000
0001
1000
0010
0100
0001
1000
0100
0010
0001
1000
,
0020
0030
2000
3000
0020
0030
0200
0300
0002
0003
2000
3000
0002
0003
0200
0300
0040
0030
4000
3000
0400
0300
0040
0030
0004
0000
0403
0000
0340
0030
4000
3000
,
0100
0010
0100
0010
0001
1000
0010
0100
0001
1000
0001
1000
0100
0010
0001
0100
,
0010
1000
0010
1000
0001
1000
0100
0010
0001
1000
0001
1000
0100
1000
0010
1000
,
0001
0100
0001
0100
0010
1000
0010
1000
0100
0010
0100
0010
0001
1000
0001
1000
,
0010
0100
0001
0010
0100
1000
0010
1000
0100
0010
0001
1000
0010
1000
0010
0100
,
0001
1000
0001
1000
0100
0010
0001
1000
0010
0100
0010
0100
0001
1000
0100
0010
,
0001
1000
0001
1000
0010
1000
0001
0010
0100
1000
0001
1000
0010
1000
0100
1000
,
0001
0100
0001
0100
0010
1000
0001
0010
0100
1000
0001
1000
0010
1000
0100
1000
,
0001
0100
0001
0100
0010
0100
0010
0100
0010
1000
0010
1000
0001
1000
0001
1000
,
0100
1000
0100
1000
0100
0000
0010
0000
0001
1000
0001
1000
0001
0000
0010
0000
,
0001
1000
0010
0000
1000
0100
0010
0000
0001
0100
0010
1000
0100
1000
0010
0100
,
0001
0000
0000
0000
0000
0000
0000
0000
1000
0001
0010
0001
1000
0001
0100
0001
,
1000
0010
1000
0010
0100
0001
1000
0010
1000
0001
1000
0010
0100
0010
1000
0001
,
0010
0001
1000
0001
0010
0001
1000
0001
0010
0001
1000
0001
0100
0010
1000
0001
,
1000
0100
1000
0100
0010
0001
1000
0100
1000
0001
1000
0100
0010
0001
1000
0001
,
0100
0010
1000
0010
0100
0001
0100
0001
1000
0100
1000
0100
0010
0001
0010
0001
,
1000
0010
1000
0010
0100
0001
1000
0010
1000
0001
1000
0010
0100
0010
1000
0001
,
0010
0001
1000
0001
0010
0001
1000
0001
0010
0001
1000
0001
0100
0010
1000
0001
,
1000
0100
1000
0100
0010
0001
1000
0100
1000
0001
1000
0100
0010
0001
1000
0001
,
0100
0010
1000
0010
0100
0001
0100
0001
1000
0100
1000
0100
0010
0001
0010
0001
,
0100
0001
1000
0001
0100
0001
1000
0001
0100
0001
1000
0001
1000
0100
0010
0001
,
0100
0001
1000
0001
0100
0001
1000
0001
0100
0001
1000
0001
1000
0100
1000
0001
,
1000
0100
1000
0001
0010
0001
0100
0001
1000
0010
1000
0001
0100
0001
1000
0001
,
1000
0100
0010
0001
0100
0001
1000
0100
1000
0001
0010
0001
1000
0001
0100
0001
,
0010
0001
1000
0001
0010
0001
1000
0001
0010
0001
1000
0001
1000
0010
0100
0001
,
0010
0001
1000
0001
0010
0001
1000
0001
0010
0001
1000
0001
0010
0001
1000
0001
,
0100
0000
0010
0000
0100
0000
0001
0000
0010
0000
0001
0000
0010
0000
0100
0000
1000
0000
0001
0000
1000
0000
0001
0000
2000
3000
0200
0300
0020
0030
0002
0003
,
1000
0200
2300
3020
0230
0302
0023
0230
,
1300
0001
1000
0001
0100
0010
0100
0001
1000
0100
1000
0001
0010
0001
1000
0001
,
0100
0010
1000
0010
0100
0001
1000
0100
1000
0001
0010
0001
0100
0010
1000
0001
,
0010
0100
1000
0001
1000
0001
0100
0001
1000
0100
1000
0001
0010
0001
1000
0010
,
0100
0001
0010
0001
1000
0100
0010
0001
0100
0010
1000
0100
0010
0001
1000
0001
,
1000
0010
0100
0001
1000
0001
0010
0001
1000
0100
1000
0001
0100
0010
1000
0001
,
0010
0100
1000
0100
0010
0001
1000
0010
1000
0001
0100
0001
0010
0100
1000
0001
,
0100
0010
1000
0001
1000
0001
0010
0001
1000
0010
1000
0001
0100
0001
1000
0100
,
0010
0001
0100
0001
1000
0010
0100
0001
0010
0100
1000
0010
0100
0001
0100
0001
,
0010
0100
1000
0100
0010
0001
1000
0001
0100
0010
1000
0010
0100
0001
1000
0001
,
0010
0100
1000
0001
1000
0001
0100
0010
1000
0001
0010
0100
0010
0001
0010
0001
,
0100
0010
0100
0001
1000
0100
1000
0001
0100
0010
0100
0001
1000
0001
0010
0100
,
1000
0001
1000
0001
0100
0010
0100
0001
0010
0100
1000
0001
1000
0100
0010
0001
,
0100
0010
0100
0001
0010
0100
0010
0001
1000
0010
1000
0001
0010
0100
1000
0001
,
1000
0010
0100
0001
0100
0010
1000
0001
1000
0100
0010
0001
1000
0001
1000
0010
,
0100
0001
0100
0001
0010
0100
0010
0100
1000
0001
1000
0001
1000
0010
0100
0001
,
1000
0001
0100
0010
1000
0001
1000
0001
0010
0100
1000
0010
0100
0001
0100
0001
,
1000
0001
0100
0010
1000
0001
1000
0001
0010
0100
1000
0100
0010
0001
1000
0001
,
0010
0100
1000
0100
0010
0001
0010
0001
0100
0001
0100
0001
1000
0001
1000
0001
,
0010
0100
1000
0100
0010
0001
1000
0001
0010
0001
1000
0100
1000
0001
0010
0001
,
1000
0001
1000
0100
0010
0001
1000
0001
0010
0100
0010
0001
1000
0001
1000
0001
,
1000
0010
0100
0001
1000
0001
0100
0010
1000
0001
1000
0001
0100
0001
1000
0010
,
0100
0001
1000
0001
1000
0010
1000
0001
0100
0010
0100
0001
1000
0010
1000
0010
,
1000
0100
0010
0001
1000
0001
0010
0100
1000
0001
0010
0001
1000
0100
0010
0001
,
1000
0100
1000
0001
0010
0001
1000
0001
0100
0010
1000
0001
0010
0100
1000
0010
,
0200
0000
0000
0302
2003
3200
0320
0230
,
2300
3020
2030
0000
3200
0320
0230
2300
,
3002
0000
0000
0000
0003
0000
0000
0001
,
2000
3020
2030
3020
0000
0230
0301
0000
,
1001
1100
0011
0101
,
0110
1010
1001
1100
,
1010
0101
1100
0110
,
1001
0110
0101
0001
,
0001
1000
0001
1000
0010
0100
0010
1000
0001
0010
0001
1000
0100
1000
0001
1000
,
0010
0100
0001
0100
0010
1000
0001
0010
0001
1000
0100
1000
0010
0100
0001
1000
,
0100
0010
0001
1000
0001
1000
0010
1000
0001
0010
0001
1000
0100
1000
0001
0100
,
0010
1000
0100
1000
0001
0010
0100
1000
0010
0100
0001
0010
0100
1000
0001
1000
,
0001
0100
0010
1000
0001
1000
0100
1000
0001
0010
0001
1000
0010
0100
0001
1000
,
0100
0010
0001
0010
0100
1000
0001
0100
0001
1000
0010
1000
0100
0010
0001
1000
,
0010
0100
0001
1000
0001
1000
0100
1000
0001
0100
0001
1000
0010
1000
0001
0010
,
0100
1000
0010
1000
0001
0100
0010
1000
0100
0010
0001
0100
0010
1000
0010
1000
,
0001
1000
0001
1000
0100
0010
0100
1000
0001
0100
0001
1000
0010
1000
0001
1000
,
0100
0010
0001
0010
0100
1000
0001
0100
0001
1000
0010
1000
0100
0010
0001
1000
,
0010
0100
0001
1000
0001
1000
0100
1000
0001
0100
0001
1000
0010
1000
0001
0010
,
0100
1000
0010
1000
0001
0100
0010
1000
0100
0010
0001
0100
0010
1000
0001
1000
,
0001
0010
0100
1000
0001
1000
0010
1000
0001
0100
0001
1000
0100
0010
0001
1000
,
0010
0100
0001
0100
0010
1000
0001
0010
0001
1000
0100
1000
0010
0100
0001
1000
,
0100
0010
0001
1000
0001
1000
0010
1000
0001
0010
0001
1000
0100
1000
0001
0100
,
0010
1000
0100
1000
0001
0010
0100
1000
0010
0100
0001
0010
0100
1000
0010
0100
,
0001
1000
0001
1000
0100
0010
0100
1000
0100
0010
0001
0010
0100
1000
0010
1000
,
0100
0010
0001
1000
0010
0100
0001
0100
0010
1000
0001
1000
0100
1000
0010
0100
,
0001
1000
0001
1000
0010
1000
0001
0100
0010
1000
0100
1000
0001
1000
0100
0010
,
0001
1000
0001
0100
0001
1000
0010
1000
0100
1000
0001
0100
0010
1000
0100
0010
,
0001
1000
0001
1000
0010
0100
0010
1000
0010
0100
0001
0100
0010
1000
0100
1000
,
0010
0100
0001
1000
0100
0010
0001
0010
0100
1000
0001
1000
0010
1000
0100
0010
,
0001
1000
0001
1000
0100
1000
0001
0010
0100
1000
0010
1000
0001
1000
0010
0100
,
0001
1000
0001
0010
0001
1000
0100
1000
0010
1000
0001
0010
0100
1000
0010
0100
,
0001
1000
0001
1000
0100
0010
0100
1000
0100
0010
0001
0010
0100
1000
0010
1000
,
0100
0010
0001
1000
0010
0100
0001
0100
0010
1000
0001
1000
0100
1000
0010
0100
,
0001
1000
0001
1000
0010
1000
0001
0100
0010
1000
0100
1000
0001
1000
0100
0010
,
0001
1000
0001
0100
0001
1000
0010
1000
0100
1000
0001
0100
0010
0100
0001
1000
,
0100
0010
0001
0010
0100
0010
0001
1000
0010
0100
0001
0100
0010
1000
0001
1000
,
0100
0010
0001
0010
0100
1000
0001
1000
0010
0100
0001
0100
0010
0100
0001
1000
,
0100
1000
0010
1000
0100
0010
0001
1000
0010
1000
0100
1000
0010
1000
0100
1000
,
0001
0100
0001
1000
0010
1000
0001
0010
0100
1000
0010
1000
0100
1000
0010
1000
,
0001
0100
0010
0100
0001
0010
0100
0010
0001
1000
0010
1000
0001
0010
0100
0010
,
0001
1000
0010
1000
0001
0100
0010
0100
0001
1000
0100
1000
0001
0010
0100
0010
,
0001
1000
0010
1000
0001
0010
0100
0010
0001
0100
0010
0100
0001
0010
0100
0010
,
0001
1000
0010
1000
0001
0010
0100
0010
0001
1000
0100
1000
0001
0100
0010
0100
,
0001
0010
0100
0010
0001
0100
0010
0100
0001
1000
0100
1000
0001
0100
0010
0100
,
0001
0010
0100
0010
0001
1000
0100
1000
0001
0010
0100
0010
0001
0100
0010
0100
,
0001
1000
0010
1000
0001
0010
0100
0010
0001
1000
0010
1000
0001
0100
0010
0100
,
0001
1000
0010
1000
0001
0010
0100
0010
0001
1000
0010
1000
0001
0010
0100
0010
,
0001
0100
0001
0010
0100
1000
0100
0010
,
0001
0100
0010
1000
0010
0100
0001
0010
,
0100
1000
0001
0100
0001
1000
0100
0010
,
0100
1000
0010
0100
0001
1000
0001
0100
,
0010
1000
0100
0010
0001
0100
0001
0010
,
0100
1000
0001
0100
0001
0010
0100
1000
,
0001
0100
0010
1000
0001
0010
0100
1000
,
0100
0000
0010
0000
0001
0000
0100
0000
0010
0000
1000
0000
0001
0010
0100
1000
;
