#TITLE:Taking Drugs;
#SUBTITLE:;
#ARTIST:Scott Brown;
#TITLETRANSLIT:;
#SUBTITLETRANSLIT:;
#ARTISTTRANSLIT:;
#CREDIT:;
#BANNER:00o00.banner.png.jpg;
#BACKGROUND:0000.bg.png.jpg;
#LYRICSPATH:;
#CDTITLE:CDTITLE.jpg;
#MUSIC:3-07 taking drugs_.mp3;
#OFFSET:-0.060;
#SAMPLESTART:100.000;
#SAMPLELENGTH:12.000;
#SELECTABLE:YES;
#BPMS:0.000=175.500,124.000=165.500,124.500=155.500,125.000=145.500,125.500=135.500,126.000=125.500,126.500=115.500,127.000=87.740,173.250=175.500,238.000=87.760,254.000=175.500,313.500=87.740,315.500=175.500,376.000=165.500,376.500=155.500,377.000=145.500,377.500=135.500,378.000=125.500,378.500=105.500,379.000=87.740,421.500=95.500,421.750=105.500,422.000=115.500,422.250=125.500,422.500=135.499,422.750=145.500,423.000=155.499,423.250=160.499,423.500=165.499,423.750=170.499,424.000=175.499;
#STOPS:173.000=1.020
,412.750=1.120
,415.000=1.120
;
#BGCHANGES:0.125=00000000000generic%20drugs copia.jpg=1.000=0=0=1,
0.250=00000000000generic%20drugs copia.jpg=1.000=0=0=1,
0.375=00000000000generic%20drugs copia 2.jpg=1.000=0=0=1,
0.500=00000000000generic%20drugs copia 2.jpg=1.000=0=0=1,
0.625=00000000000generic%20drugs copia 3.jpg=1.000=0=0=1,
0.750=00000000000generic%20drugs copia 3.jpg=1.000=0=0=1,
0.875=00000000000generic%20drugs copia 3.jpg=1.000=0=0=1,
1.000=00000000000generic%20drugs copia.jpg=1.000=0=0=1,
1.125=00000000000generic%20drugs copia.jpg=1.000=0=0=1,
1.250=00000000000generic%20drugs copia.jpg=1.000=0=0=1,
1.375=00000000000generic%20drugs copia 2.jpg=1.000=0=0=1,
1.500=00000000000generic%20drugs copia 2.jpg=1.000=0=0=1,
1.625=00000000000generic%20drugs copia 2.jpg=1.000=0=0=1,
1.750=00000000000generic%20drugs copia 3.jpg=1.000=0=0=1,
1.875=00000000000generic%20drugs copia 3.jpg=1.000=0=0=1,
2.000=00000000000generic%20drugs copia 3.jpg=1.000=0=0=1,
99999=-nosongbg-=1.000=0=0=0 // don't automatically add -songbackground-
;
// cache tags:
#FIRSTBEAT:16.000;
#LASTBEAT:617.000;
#SONGFILENAME:Songs/Definitive Keyboard Megapack/taking drugs-scott brown(Leone510)/3-07 taking drugs_.sm;
#HASMUSIC:1;
#HASBANNER:1;
#MUSICLENGTH:251.715;
// end cache tags

//---------------dance-single - ----------------
#NOTES:
     dance-single:
     :
     Hard:
     12:
     1.000,1.000,0.727,0.032,1.000,1620.000,183.000,8.000,0.000,0.000:
0000
0000
0000
0000
,
0000
0000
0000
0000
,
0000
0000
0000
0000
,
0000
0000
0000
0000
,
1000
0010
0001
0010
0001
0100
0001
0010
,
0100
1000
0010
0100
1000
0010
0001
0010
,
0100
0001
0010
0100
1000
0100
1000
0010
,
0100
1000
0001
1000
0110
0000
0000
0000
,
1000
0010
0100
0001
0010
0001
0100
0010
,
0001
0010
0001
0100
0010
1000
0001
0100
,
1000
0010
0100
1000
0010
0100
1000
0010
,
0100
0010
1000
0100
0011
0000
0000
0000
,
0100
1000
0010
0100
1000
0100
1000
0010
,
0100
0001
1000
0010
0001
0010
0100
0001
,
0010
0001
0010
0100
0001
1000
0001
1000
,
0100
0001
0100
0010
1100
0000
0000
0000
,
1010
0000
0000
0000
0010
0000
0100
0000
0001
1000
0000
1000
0001
1000
0000
0010
,
0100
0001
0000
0010
0100
1000
0000
0100
1000
0001
0000
0001
0010
1000
0100
0000
,
0101
0000
0000
0000
1000
0000
0001
0000
0001
0010
0000
0010
0100
1000
0000
0100
,
0010
0100
0000
1000
0010
0001
0000
0010
0001
0100
0000
0010
0100
1000
0010
0000
,
0011
0000
0000
0000
0100
0000
0010
0000
0100
0010
0000
0010
0001
0010
0000
0010
,
0100
1000
0000
0100
1000
0001
0000
0001
0010
0100
0000
0100
0010
1000
0001
0000
,
1010
0000
0000
0000
0010
0000
0001
0000
0010
1000
0000
0100
1000
0100
0000
0010
,
1000
0010
0000
0001
1000
0001
0000
0010
0100
0001
0000
0001
0100
0001
1000
0000
,
0011
0000
0000
0000
0010
0000
0100
0000
1000
0010
0000
0010
0100
1000
0000
0100
,
0010
0001
0000
0001
1000
0001
0000
0010
0100
0001
0000
0100
0010
1000
0010
0000
,
0101
0000
0000
0000
0001
0000
1000
0000
0100
1000
0000
0100
1000
0100
0000
0010
,
0100
1000
0000
0010
0001
1000
0000
0100
0010
1000
0000
1000
0001
1000
0001
0000
,
1001
0000
0000
0000
0001
0000
0010
0000
0010
0001
0000
0001
0010
0100
0000
0010
,
0100
1000
0000
0100
1000
0100
0000
1000
0100
0010
0000
0100
0010
0001
0010
0000
,
0110
0000
0000
0000
0010
0000
0100
0000
0100
1000
0000
0010
0100
0001
0000
0001
,
2000
0000
0000
0000
0000
0000
3010
1000
,
0010
0000
0100
1000
0010
0100
0010
0000
0010
0100
0000
0101
0000
0000
1000
0000
,
0001
0000
1000
0010
0001
0100
0001
0000
1000
0010
0000
0110
0000
0000
0100
0000
,
1000
0000
0010
0001
0100
0010
1000
0000
0010
1000
0000
1010
0000
0000
1000
0000
,
0010
0000
0010
0001
0100
0010
0100
0000
0100
1000
0000
1100
1000
0000
0010
0100
,
0000
0101
0000
0001
0010
0000
0010
0000
0100
0000
1000
0000
0010
0000
0010
0100
,
0000
1100
0000
0010
0001
0000
0001
0000
1000
0000
0001
1000
0010
0000
0010
0100
,
0000
0101
0000
0100
1000
0000
1000
0000
0010
0000
1000
0000
0010
0000
0010
0001
,
0000
0110
0000
0100
0010
0000
0001
0000
1000
0000
0010
0100
0010
0000
0100
1000
,
0000
1100
0000
1000
0001
0100
0010
1000
0001
0010
0100
1000
0101
0000
0001
0100
,
0000
0101
0000
1000
0010
0001
0100
0001
1000
0010
0001
0010
1100
0000
0010
0100
,
0000
0011
0000
0010
1100
0000
0010
1000
0000
1010
0000
0100
0011
0000
0010
0100
,
0000
1001
0000
0010
0202
0303
0000
0001
1000
0010
0000
0010
0100
1000
0000
0011
,
0000
0110
0000
1001
0000
0110
0000
0001
1000
0001
0000
0100
1000
0001
0000
0110
,
0000
0101
0000
1010
0000
0110
0000
1000
0001
1000
0000
0001
0010
1000
0000
0101
,
0000
0011
0000
1100
0000
0110
0000
0010
1000
0010
0000
0100
0001
1000
0000
0011
,
0000
0101
0000
1010
0000
0110
0000
0010
1000
0010
0000
0100
0010
0001
0000
1010
,
0000
0011
0000
1010
0000
0110
0000
1000
0001
0100
0000
0010
0001
1000
0000
0011
,
0000
1010
0000
0110
0000
1001
0000
0100
0010
0100
0000
0001
0010
0100
0000
1010
,
0000
0110
0000
0011
0000
1010
0000
0001
1000
0100
0000
0010
0100
1000
0000
0110
,
0000
0101
0000
1001
0000
1010
0000
0100
0010
0100
0000
0001
0100
1000
0000
0011
,
0000
1001
0000
0110
0000
1100
0000
0010
1000
0010
0000
0010
0100
1000
0000
0011
,
0000
0101
0000
1001
0000
1010
0000
1000
0100
0001
0000
0100
0001
1000
0000
0011
,
0000
1100
0000
0101
0000
0110
0000
1000
0010
0100
0000
0001
0100
1000
0000
1010
,
0000
0101
0000
1001
0000
0110
0000
0100
0010
0100
0000
0010
0001
0100
0000
1010
,
0000
1001
0000
0101
0000
0110
0000
0001
1000
0100
0000
0100
0010
0001
0000
1001
,
0000
0101
0000
0011
0000
1010
0000
0001
0100
1000
0000
1000
0010
0001
0000
0011
,
0000
1001
0000
1001
0000
0110
0000
1000
0020
0001
0000
1000
0000
0001
0000
1000
,
0000
0001
0000
1000
0000
0001
0030
1000
0000
0000
0010
0000
1000
0000
0010
0001
,
0010
0100
0010
0000
1000
0010
0000
0101
0000
0000
0010
0000
0100
0000
1000
0001
,
1000
0010
0100
0000
0100
1000
0000
1100
0000
0000
0010
0000
0001
0000
0010
0100
,
0010
1000
0001
0000
0010
0001
0000
0011
0000
0000
0000
0000
0000
0000
0000
0000
,
0000
0000
0000
0000
0000
0000
0000
0000
0100
0010
0001
0010
0001
0100
0010
1000
,
0001
0100
0010
1000
0010
0100
1000
0010
0100
0001
1000
0010
0100
1000
0010
0100
,
1000
0010
0100
0010
0001
1000
0010
1000
0100
1000
0010
0100
0010
0001
0100
0010
,
1000
0010
0100
0001
0010
0100
0010
1000
0010
0001
0100
1000
0010
0001
1000
0010
,
0100
0010
0001
0010
0100
1000
0100
0010
0001
0100
0001
1000
0010
0100
0010
0001
,
0010
0001
0100
0010
1000
0001
0100
0010
1000
0100
0010
0001
0100
0010
1000
0001
,
0010
0100
1000
0010
0100
0001
1000
0010
0100
0001
0010
1000
0010
0100
1000
0010
,
0100
0001
0010
0100
1000
0010
0001
0010
0001
0100
0010
1000
0001
0100
0010
1000
,
0010
0100
1000
0010
0100
0001
1000
0010
0100
1000
0010
0100
1000
0010
0100
0010
,
0001
1000
0010
1000
0100
1000
0010
0100
0010
0001
0100
0010
1000
0010
0100
0001
,
0010
0100
0010
1000
0010
0001
0100
1000
0010
0001
1000
0010
0100
0010
0001
0010
,
0100
1000
0100
0010
0001
0100
0001
1000
0010
0100
0010
0001
0010
0001
0100
0010
,
1000
0001
0100
0010
1000
0100
0010
0001
0100
0010
1000
0001
0010
0100
0001
1000
,
0100
0001
0100
0001
0100
0010
0001
1000
0001
1000
0010
0100
1000
0010
0100
1000
,
0010
0100
0001
1000
0100
0010
0001
0010
0100
0001
1000
0100
0010
0001
0100
0010
,
0100
1000
0010
0001
0100
0001
0010
0010
0000
0100
1000
0011
0000
0000
0000
0000
,
0010
0100
0001
0010
1000
0010
0100
0010
1000
0001
1000
0010
1000
0010
0001
0100
,
0010
0001
1000
0100
0001
1000
0001
0100
0010
0001
0010
0100
1000
0010
1000
0100
,
1000
0100
0010
0100
0001
1000
0010
0001
0100
0010
0001
0010
0001
1000
0100
0010
,
0001
0010
0100
0001
1000
0001
0100
0010
0001
0010
0100
1000
0010
0100
0010
1000
,
0001
1000
0010
0100
1000
0010
0100
0001
0010
0100
0001
0010
1000
0001
0010
0100
,
0001
0010
0100
1000
0010
0100
0010
1000
0001
0010
0001
0100
0010
0001
0100
1000
,
0010
0100
1000
0010
0100
1000
0010
0100
0001
0010
0001
0100
0001
0010
0001
0010
,
0100
1000
0010
0100
0001
1000
0100
0010
0100
1000
0100
0010
0001
0010
0100
1000
,
0010
0100
0010
0100
1000
0001
0010
0001
0100
0010
0001
1000
0100
1000
0010
1000
,
0010
0100
0010
0001
0010
0100
1000
0100
0001
0010
1000
0010
0001
0100
0010
0100
,
0001
1000
0010
1000
0010
0100
1000
0010
0100
0001
1000
0010
0100
1000
0010
0100
,
1000
0010
0100
0010
0001
1000
0010
1000
0100
1000
0010
0100
0010
0001
0100
0010
,
1000
0010
0100
0001
0010
0100
0010
1000
0010
0001
0100
1000
0010
0001
1000
0010
,
0100
0010
0001
0010
0100
1000
0100
0010
0001
0100
0001
1000
0010
0100
0010
0001
,
0010
0001
0100
0010
1000
0001
0100
0010
1000
0100
0010
0001
0100
0010
1000
0001
,
0020
0000
0000
0000
0000
0000
0130
1000
,
0010
0000
0001
1000
0001
0010
0100
0000
0100
0010
0000
0011
0000
0000
0010
0000
,
1000
0000
0010
0100
1000
0010
0001
0000
1000
0001
0000
1001
0000
0000
1000
0000
,
0010
0000
0010
0100
0001
0010
0001
0000
0001
0100
0000
1100
0000
0000
0010
0000
,
0100
0000
1000
0010
0100
1000
0010
0000
0001
0010
0000
1010
1000
0000
0001
0000
,
1000
0000
0010
0100
0001
0010
0100
0000
0010
0100
0000
1100
0000
0000
0001
0000
,
1000
0000
0010
1000
0010
0100
0001
0000
0001
0010
0000
1010
0000
0000
0100
0000
,
1000
0000
0010
0100
1000
0010
0001
0000
0001
1000
0000
1001
0000
0000
0010
0000
,
0100
0000
0010
0100
1000
0010
0100
0000
0001
0100
0000
0101
1010
0000
0010
1000
,
0000
0011
0000
0110
0010
1010
0000
0100
0001
0000
1000
0000
0110
0000
1000
0101
,
0000
0001
0010
0000
0110
0000
0100
1010
0000
0010
1000
0000
0101
0000
0010
1100
,
0000
0010
1000
0000
0101
0000
0220
0000
0000
0000
0000
0000
0000
0000
0000
0000
,
0000
0000
0330
0000
1000
0010
0001
0010
1000
0100
0010
0000
1001
0000
0110
0000
,
1001
0000
0001
0000
0010
0100
0010
1000
0001
0000
0001
0000
0101
0000
1001
0000
,
0110
0000
0100
0000
0010
0100
1000
0010
0100
0000
1000
0000
0101
0000
1010
0000
,
0101
0000
0010
0000
0001
0010
0100
0001
0100
0000
0010
0000
1010
0000
0110
0000
,
1001
0000
0100
0000
0010
0100
1000
0010
0100
0001
0010
0000
0101
0000
1010
0000
,
0110
0000
0100
0000
0010
0100
1000
0010
0100
0000
0010
0000
0110
0000
1100
0000
,
0011
0000
0100
0000
0001
0010
0100
0010
0100
0000
1000
0000
0110
0000
0101
0000
,
0011
0000
1000
0000
0010
0100
1000
0010
0100
0000
0010
0000
1100
0000
0011
0000
,
1010
0000
0100
0000
0010
0001
0010
0001
0100
0000
0010
0000
1100
0000
0110
0000
,
0011
0000
0100
0000
0010
1000
0100
0001
0010
0000
0100
0000
0110
0000
0011
0000
,
1100
0000
0010
0000
1000
0001
0010
0001
0010
0000
0100
0000
1100
0000
0110
0000
,
0011
0000
0010
0000
0100
0001
0010
0100
0001
0000
0001
0000
0110
0000
1100
0000
,
1010
0000
0011
0000
0010
0100
0010
1000
0100
0000
0010
0000
0011
0000
0110
0000
,
0011
0000
0100
0000
0010
0100
0010
1000
0001
0000
0001
0000
0101
0000
1001
0000
,
0110
0000
0100
0000
0010
0100
1000
0010
0100
0000
1000
0000
0101
0000
1010
0000
,
0101
0000
0010
0000
0001
0010
0100
0001
0100
0000
0010
0000
1010
0000
0110
0000
,
1001
0000
0100
0000
0010
0100
1000
0010
0100
0001
0010
0000
0101
0000
1010
0000
,
0110
0000
0100
0000
0010
0100
1000
0010
0100
0000
0010
0000
0110
0000
1100
0000
,
0011
0000
0100
0000
0001
0010
0100
0010
0100
0000
1000
0000
0110
0000
0101
0000
,
0011
0000
1000
0000
0010
0100
1000
0010
0100
0000
0010
0000
1100
0000
0011
0000
,
1010
0000
0100
0000
0010
0001
0010
0001
0100
0000
0010
0000
1100
0000
0110
0000
,
0011
0000
0100
0000
0010
1000
0100
0001
0010
0000
0100
0000
0110
0000
0011
0000
,
1100
0000
0010
0000
0001
0010
0001
0100
0001
0000
0010
0000
1100
0000
0110
0000
,
0101
0000
1000
0000
0001
1000
0010
0001
0100
0001
0010
0001
0100
0010
1000
0001
,
0100
0010
0100
0001
0010
1000
0100
0000
1000
0001
0010
0000
0100
0001
1000
0000
,
0010
1000
0100
0000
0001
1000
0100
0000
0010
0001
1000
0000
0001
0010
0100
0000
,
0010
0100
1000
0000
0001
1000
0100
0000
0010
0100
1000
0000
0010
0001
0100
0000
,
0001
0100
0010
0000
0100
0010
1000
0000
0010
0001
0100
0000
0010
0001
1000
0000
,
0010
0001
0100
0000
0001
0100
0010
0000
0100
0010
0001
0000
1000
0100
0010
0000
,
0100
0010
0100
0000
0001
1000
0001
0000
0010
0100
1000
0000
0010
0100
0001
0000
,
1000
0010
0001
0000
0100
0010
0001
0000
0010
0100
0010
0000
1000
0001
0010
0000
,
0100
0010
1000
0000
0100
0001
0100
1000
0010
0100
1000
0001
0010
0100
0010
0001
,
1000
0100
0001
0000
0010
0000
0100
0000
1000
0000
0010
0000
1000
0000
0010
0000
,
0100
0001
0010
1000
0010
0100
0001
0010
,
1000
0010
0100
0001
0100
0010
1000
0010
,
0001
0010
0001
1000
0010
1000
0010
0100
,
0001
0100
0010
1000
0100
0010
1000
0001
,
0010
0100
0010
0001
0100
0010
0100
1000
,
0010
1000
0100
0001
0100
1000
0010
0100
,
0001
0010
0001
1000
0001
0100
0010
0001
,
0100
1000
0010
0100
0010
0001
0010
0100
,
0010
1000
0100
0010
1000
0001
0100
0010
,
0001
1000
0001
1000
0100
0010
1000
0010
,
0100
0001
0010
0100
0010
0001
0100
0010
,
0100
1000
0010
0100
0010
0001
0010
0100
,
0010
1000
0100
0010
0001
0010
0100
1000
,
0010
0100
0010
1000
0100
0010
0100
0001
,
0010
0100
1000
0000
0010
0100
0020
0000
,
0000
0030
0000
0000
;
