#TITLE:Sick;
#SUBTITLE:;
#ARTIST:B45H;
#TITLETRANSLIT:;
#SUBTITLETRANSLIT:;
#ARTISTTRANSLIT:;
#CREDIT:;
#BANNER:sick bn.png;
#BACKGROUND:sigk bg.png;
#LYRICSPATH:;
#CDTITLE:;
#MUSIC:Sick.ogg;
#OFFSET:0.009;
#SAMPLESTART:65.268;
#SAMPLELENGTH:12.000;
#SELECTABLE:YES;
#BPMS:0.000=250.000;
#STOPS:;
#BGCHANGES:;
// cache tags:
#FIRSTBEAT:0.000;
#LASTBEAT:578.000;
#SONGFILENAME:Songs/SPEEEDCOOOORE 3/Sick - [Aoreo]/Sick.sm;
#HASMUSIC:1;
#HASBANNER:1;
#MUSICLENGTH:139.680;
// end cache tags

//---------------dance-single - J. Nero----------------
#NOTES:
     dance-single:
     J. Nero:
     Challenge:
     14:
     1.000,1.000,0.387,0.830,0.469,1027.000,54.000,116.000,18.000,0.000:
2002
3003
0000
0000
0000
0000
0000
0000
0000
0000
0000
0000
0000
0000
0000
0000
0000
0000
0000
0000
0000
0000
0000
0000
0000
0000
0000
0000
0000
0000
0000
0000
,
2002
3003
0000
0000
0000
0000
0000
0000
0000
0000
0000
0000
0000
0000
0000
0000
0000
0000
0000
0000
0000
0000
0000
0000
0000
0000
0000
0000
0000
0000
0000
0000
,
2002
3003
0000
0000
0000
0000
0000
0000
0000
0000
0000
0000
0000
0000
0000
0000
0000
0000
0000
0000
0000
0000
0000
0000
0000
0000
0000
0000
0000
0000
0000
0000
,
2002
3003
0000
0000
0000
0000
0000
0000
0000
0000
0000
0000
0000
0000
0000
0000
0000
0000
0000
0000
0002
0003
0000
0000
0000
0000
0000
0000
0002
0003
0000
0000
,
2002
3003
0000
0000
2000
3000
0000
0000
0000
0000
0000
0000
0000
0000
0000
0000
0000
0000
0000
0000
0000
0000
0000
0000
0000
0000
0000
0000
0000
0000
0000
0000
,
2002
3003
0000
0000
0000
0000
0000
0000
0000
0000
0000
0000
0000
0000
0000
0000
0000
0000
0000
0000
0000
0000
0000
0000
0000
0000
0000
0000
0000
0000
0000
0000
,
2002
3003
0000
0000
0000
0000
0000
0000
0000
0000
0000
0000
0000
0000
0000
0000
0000
0000
0000
0000
0000
0000
0000
0000
0000
0000
0000
0000
0000
0000
0000
0000
,
2002
3003
0000
0000
0000
0000
0000
0000
0000
0000
0000
0000
0000
0000
0000
0000
2000
0000
3000
0000
0000
0000
0000
0000
0020
0000
0030
0000
2000
0000
3000
0000
,
2200
3300
0000
0000
0000
0000
0000
0000
0000
0000
0000
0000
0100
0000
0000
0000
0000
0000
0000
0000
1100
0000
0000
0000
0000
0000
0000
0000
0000
0000
0000
0000
,
2002
3003
0000
0000
0000
0000
0000
0000
0001
0000
0000
0000
0200
0300
0000
0000
0040
0030
0000
0000
0000
0000
0000
0000
0100
0000
0000
0000
0001
0000
1000
0000
,
0200
0300
0000
0000
0000
0000
0000
0000
0000
0000
0000
0000
1100
0000
0000
0000
0000
0000
0000
0000
1000
0000
0000
0000
1000
0000
0000
0000
0000
0000
0000
0000
,
2002
3003
0000
0000
0000
0000
0000
0000
0000
0000
0000
0000
0002
0003
0000
0000
0400
0300
0000
0000
0010
0000
0000
0000
1000
0000
0001
0000
1000
0000
0010
0000
,
0200
0300
0000
0000
0000
0000
0000
0000
0001
0000
0000
0000
0100
0000
0000
0000
0100
0000
0000
0000
0001
0000
0000
0000
0000
0000
0000
0000
1000
0000
0100
0000
,
0020
0030
0000
0000
0000
0000
0000
0000
0000
0000
0000
0000
0002
0003
0000
0000
4000
3000
0000
0000
0100
0000
0000
0000
0100
0000
0000
0000
0010
0000
0001
0000
,
2000
3000
0000
0000
0000
0000
0000
0000
0000
0000
0000
0000
1001
0000
0000
0000
0000
0000
0000
0000
0001
0000
0000
0000
1000
0000
0000
0000
0000
0000
0000
0000
,
0100
0000
0000
0000
2000
3000
0000
0000
0000
0000
0000
0000
2000
3000
0000
0000
0002
0000
0000
0000
0003
0000
0000
0000
0002
0000
0000
0000
0003
0000
0000
0000
,
2002
3003
0000
0000
0000
0000
0000
0000
1000
0000
0000
0000
0100
0000
0000
0000
0000
0000
0000
0000
1000
0000
0000
0000
0010
0000
0000
0000
0100
0000
0000
0000
,
0202
0303
0000
0000
0000
0000
0000
0000
0001
0000
0000
0000
0002
0003
0000
0000
4000
3000
0000
0000
0100
0000
0000
0000
0010
0000
0000
0000
0000
0000
0000
0000
,
0022
0033
0000
0000
0000
0000
0000
0000
0001
0000
0000
0000
1000
0000
0000
0000
1000
0000
0000
0000
0010
0000
0000
0000
0100
0000
0000
0000
0000
0000
0000
0000
,
0220
0330
0000
0000
0000
0000
0000
0000
0010
0000
0000
0000
0200
0300
0000
0000
0004
0003
0000
0000
1000
0000
0000
0000
0001
0000
0100
0000
0001
0000
1000
0000
,
0200
0300
0000
0000
0000
0000
0000
0000
1000
0000
0000
0000
0000
0000
0000
0000
0001
0000
0000
0000
0100
0000
0000
0000
0010
0000
0000
0000
0100
0000
0000
0000
,
0002
0003
0000
0000
0000
0000
0000
0000
0001
0000
0000
0000
2000
3000
0000
0000
0400
0300
0000
0000
0100
0000
0000
0000
0010
0000
0000
0000
0000
0000
0000
0000
,
0002
0003
0000
0000
1000
0000
0000
0000
0000
0000
0000
0000
1000
0000
0000
0000
0010
0000
0000
0000
0100
0000
0000
0000
0010
0000
0000
0000
0000
0000
0000
0000
,
0110
0000
0000
0000
0100
0000
0001
0000
0000
0000
0100
0000
0040
0030
0000
0000
,
2000
3000
0000
0000
0100
0000
0000
0000
1000
0000
0000
0000
0001
0000
0000
0000
0100
0000
0001
0000
0100
0000
0000
0000
0010
0000
0000
0000
1000
0000
0000
0000
,
0200
0300
0000
0000
0010
0000
0000
0000
0001
0000
0000
0000
1000
0000
0000
0000
0001
0000
0100
0000
0001
0000
1000
0000
0010
0000
0100
0000
0001
0000
1000
0000
,
0002
0003
0000
0000
0100
0000
0000
0000
0001
0000
0000
0000
1000
0000
0000
0000
0200
0000
0000
0000
0300
0000
0000
0000
1000
0000
0000
0000
0020
0000
0030
0000
,
0000
0000
0100
0001
0010
0100
1000
1000
,
0001
0100
0010
0100
0001
1000
0100
0010
,
0001
0100
0001
1000
0010
0100
0001
1000
,
0001
0100
0001
1000
0010
0100
0001
1000
0100
1000
0001
0010
0100
1000
0001
1000
,
0100
0000
0010
0000
0001
0000
1000
0000
0010
0000
0100
0000
0002
0003
0000
0000
,
1001
0000
1000
0010
0100
0100
0001
0010
,
0100
0000
0010
0000
0001
1000
0001
0000
1000
0000
0010
0000
0100
0000
0100
0001
,
1000
0000
0000
0001
0000
0000
0100
0000
0000
0010
0000
0000
4000
0000
0000
0001
3000
0000
0100
0000
0000
0001
0000
0000
,
0010
0000
0100
0000
1000
0100
1000
0100
0010
0000
0001
0000
1000
0001
1000
0010
,
0100
0001
0010
0001
1000
1000
0100
0010
,
0100
0000
1000
0000
0001
0000
0100
0010
0100
0000
0001
0000
0010
0000
0010
0000
,
0100
0000
1000
0000
0001
0000
0100
0000
0001
0000
1000
0000
0040
0030
0400
0300
,
0001
0000
0010
0000
0100
0000
0010
0000
0001
0000
1000
0000
0001
0100
0001
1000
,
0100
0010
0100
1000
0001
0001
0100
0010
,
0100
0000
0001
0000
1000
0100
1000
0000
0001
0000
0100
0000
0001
0000
0001
0010
,
0100
0000
1000
0000
0001
0000
0100
0000
0040
0000
1000
0030
0100
0000
1000
0000
,
0010
0000
0100
0000
0001
0100
0001
1000
0100
0000
0010
0000
0001
1000
0100
1000
,
0001
0100
0010
0100
0001
0001
0010
0100
,
1000
0000
0100
0000
0100
0000
1000
0001
0100
0000
0001
0000
0100
0000
0010
0000
,
1000
0000
0001
0000
0010
0000
0100
0000
1000
0000
0001
0000
1000
0001
0100
0001
,
10M0
0000
00M0
0000
0M00
0M00
00M0
0000
,
0001
0000
0100
0000
0001
0010
0100
0000
1000
0000
1000
0000
0100
0000
0000
0000
,
1100
0000
0000
0000
1000
0000
0001
0000
0000
0000
1000
0000
0010
1000
0010
0100
,
0001
0100
0010
0100
0001
0001
0010
0100
,
1000
0000
0000
0000
0010
0000
0100
0000
0000
0000
0010
0000
0100
0001
0100
0010
,
1000
0000
0001
0000
0100
0000
0001
1000
0001
0000
1000
0000
0100
0000
0010
0000
,
0100
0000
1000
0000
0001
0000
0100
0000
0010
0000
0100
0000
0001
1000
0001
0100
,
0001
1000
0100
0010
0100
1000
0001
0100
,
0010
1000
0400
0300
1000
0000
0001
0000
0100
0000
0000
0010
0100
0000
0001
0000
,
1000
0100
0010
0100
1000
1000
0001
0100
,
0010
0000
0000
0000
0100
0000
0010
0000
0000
0000
0100
0000
0001
1000
0001
0010
,
0100
1000
0100
0010
0100
1000
0100
0010
,
0100
0000
1000
0000
0100
0000
0010
0000
0100
0000
1000
0000
0001
0100
0001
1000
,
0020
0030
0200
0300
0002
0003
2000
3200
,
1300
0000
0000
0000
1000
0000
0000
0000
0010
0000
0000
0000
0000
0000
0000
0000
0220
0330
0000
0000
0000
0000
0000
0000
0200
0300
0000
0000
0000
0000
0000
0000
,
0002
0003
0000
0000
0000
0000
0000
0000
00M0
0000
0000
0000
00M0
0000
0000
0000
00M0
0000
0000
0000
00M0
0000
0000
0000
00M0
0000
0000
0000
00M0
0000
0000
0000
,
00M0
00M0
00M0
00M0
00M0
00M0
00M0
0000
,
2002
3003
0000
0000
0000
0000
0000
0000
1000
0000
0000
0000
0100
0000
0000
0000
0000
0000
0000
0000
1000
0000
0000
0000
0001
0000
0000
0000
0001
0000
0000
0000
,
0200
0300
0000
0000
0010
0000
0000
0000
1000
0000
0000
0000
1000
0000
0000
0000
0001
0000
0010
0000
0100
0000
0000
0000
1000
0000
0000
0000
0001
0000
0000
0000
,
0202
0303
0000
0000
0000
0000
0000
0000
0100
0000
0000
0000
0010
0000
0000
0000
0000
0000
0000
0000
0100
0000
0000
0000
0001
0000
0000
0000
0000
0000
0000
0000
,
2002
3003
0000
0000
0000
0000
0000
0000
1000
0000
0000
0000
0200
0300
0000
0000
0040
0030
0000
0000
0000
0000
0000
0000
0100
0000
1000
0000
0001
0000
0100
0000
,
0002
0003
0000
0000
0000
0000
0000
0000
0100
0000
0000
0000
0010
0000
0000
0000
0000
0000
0000
0000
0100
0000
0000
0000
0001
0000
0000
0000
1000
0000
0000
0000
,
2200
3300
0000
0000
0000
0000
0000
0000
0100
0000
0000
0000
1000
0000
0000
0000
0001
0000
0100
0000
0001
0000
0000
0000
0010
0000
0000
0000
0100
0000
0000
0000
,
0200
0300
0000
0000
0000
0000
0000
0000
1000
0000
0000
0000
0100
0000
0000
0000
0000
0000
0000
0000
1000
0000
0000
0000
0001
0000
0000
0000
0000
0000
0000
0000
,
0101
0000
0100
0010
1000
0000
2200
3300
,
0100
0000
1000
0000
0001
0100
0001
0000
1000
0000
0100
0000
0010
0000
0001
1000
,
0004
0000
0000
0000
1003
0001
0100
0000
,
0001
0000
0100
0010
0000
0100
0001
0001
,
0010
0000
0100
0000
1000
0000
0001
0000
0100
0000
0010
0100
0001
1000
0001
1000
,
0100
0000
1000
0100
0000
1000
0100
0000
,
1000
0000
0001
0100
0000
0001
0100
0000
,
0010
1000
0010
0100
0001
0100
0010
1000
0001
0010
0001
1000
0100
0010
0001
1000
,
0001
0000
0001
0000
0001
1000
0100
1000
,
0001
0100
0010
0100
0001
0010
0100
1000
,
0001
0100
0010
0100
0001
1000
0100
0010
,
0001
1000
0100
1000
0001
0100
0010
0100
,
0001
1000
0100
1000
0001
1000
0100
0100
,
0010
0001
0100
0010
0100
0001
0010
0100
,
1000
0001
0100
0010
0100
0001
1000
0100
,
1000
0001
0010
0100
1000
0001
1000
0010
,
0100
0000
0001
0000
1000
0100
0010
0000
0001
0000
1000
0000
0001
0100
0001
1000
,
0001
1000
0100
1000
0010
0100
0001
0010
,
0100
1000
0001
0100
0010
0100
0001
0010
,
0100
1000
0001
0100
0001
1000
0100
0010
,
0001
1000
0010
0100
0010
1000
0100
0100
,
0010
0001
1000
0001
0100
0010
0100
0001
,
0010
0100
1000
0010
0100
0001
1000
0100
,
1000
0000
0010
0000
2000
3000
0001
0000
0100
0000
0001
0000
2000
3000
0010
0000
0100
0000
0010
0000
2000
3000
0001
0000
0010
0000
0001
0000
2000
3000
0001
0000
,
0010
0000
0100
0000
2000
3000
0001
0000
0010
0000
0001
0000
2000
3000
0000
0000
0000
0000
0000
0000
2000
3000
0000
0000
0000
0000
0000
0000
0000
0000
0000
0000
,
2002
3003
0000
0000
0000
0000
0000
0000
0001
0000
0000
0000
0100
0000
0000
0000
0010
0000
0000
0000
0100
0000
0000
0000
0100
0000
0000
0000
0001
0000
0000
0000
,
0020
0030
0000
0000
0100
0000
0000
0000
1000
0000
0000
0000
0001
0000
0000
0000
0100
0000
0010
0000
0100
0000
0000
0000
0001
0000
0000
0000
0010
0000
0100
0000
,
2000
3000
0000
0000
0001
0000
0000
0000
0100
0000
0000
0000
0100
0000
0000
0000
0010
0000
0000
0000
1000
0000
0000
0000
0001
0000
0000
0000
0100
0000
0000
0000
,
0202
0303
0000
0000
0000
0000
0000
0000
0001
0000
0000
0000
0020
0030
0000
0000
0400
0300
0000
0000
0000
0000
0000
0000
1000
0000
0100
0000
1000
0000
0001
0000
,
0200
0300
0000
0000
0010
0000
0000
0000
1000
0000
0000
0000
0100
0000
0000
0000
0010
0000
0000
0000
0001
0000
0000
0000
0001
0000
0000
0000
1000
0000
0000
0000
,
0020
0030
0000
0000
0100
0000
0000
0000
0010
0000
0000
0000
1000
0000
0000
0000
0001
0000
0100
0000
0010
0000
0000
0000
1000
0000
0000
0000
0100
0000
0010
0000
,
0002
0003
0000
0000
1000
0000
0000
0000
0100
0000
0000
0000
1000
0000
0000
0000
0001
0000
0000
0000
0100
0000
0000
0000
0100
0000
0000
0000
0001
0000
0000
0000
,
1001
0000
1000
0010
0100
0000
0020
0030
,
2002
3003
0000
0000
0000
0000
0000
0000
1000
0000
0000
0000
0100
0000
0000
0000
0010
0000
0000
0000
0100
0000
0000
0000
0100
0000
0000
0000
1000
0000
0000
0000
,
0002
0003
0000
0000
0100
0000
0000
0000
0010
0000
0000
0000
1000
0000
0000
0000
0010
0000
0100
0000
0001
0000
0000
0000
1000
0000
0000
0000
0001
0000
0010
0000
,
0200
0300
0000
0000
1000
0000
0000
0000
0010
0000
0000
0000
0100
0000
0000
0000
0001
0000
0000
0000
0010
0000
0000
0000
0010
0000
0000
0000
0100
0000
0000
0000
,
2200
3300
0000
0000
0000
0000
0000
0000
1000
0000
0000
0000
0002
0003
0000
0000
0400
0300
0000
0000
0000
0000
0000
0000
0010
0000
1000
0000
0001
0000
1000
0000
,
0200
0300
0000
0000
0000
0000
0000
0000
0010
0000
0000
0000
0001
0000
0000
0000
1000
0000
0000
0000
0010
0000
0000
0000
0010
0000
0000
0000
0100
0000
0000
0000
,
0002
0003
0000
0000
0010
0000
0000
0000
0100
0000
0000
0000
1000
0000
0000
0000
0010
0000
1000
0000
0100
0000
0000
0000
1000
0000
0000
0000
0001
0000
0010
0000
,
0200
0300
0000
0000
0000
0000
0000
0000
2000
0000
3000
0000
0100
0000
0000
0000
2000
0000
3000
0000
0010
0000
0000
0000
0200
0000
0300
0000
0002
0000
0003
0000
,
1000
0000
1000
0000
1000
0001
0200
0300
,
0001
0100
0010
0100
0001
0010
0100
1000
,
0001
0100
0010
0100
0001
1000
0100
0010
,
0001
1000
0100
1000
0010
0100
0010
1000
,
0001
0010
0001
0100
0010
1000
0100
0100
,
0010
0001
1000
0010
0100
0010
1000
0001
,
0100
0001
1000
0100
0010
0001
0100
0010
,
0100
0001
1000
0100
0010
0100
1000
0010
,
0100
0000
0010
0100
0000
0001
1000
0000
,
0001
0100
0010
0100
0001
0010
0100
1000
,
0010
0100
0001
1000
0100
0010
0001
0100
,
0010
0100
0001
0010
0100
1000
0001
0100
,
0001
1000
0100
1000
0010
0100
0001
0001
,
0010
0100
1000
0001
0100
0010
0100
0001
,
1000
0100
0010
0001
1000
0100
1000
0001
,
1000
0010
0100
0010
1000
0001
0010
0100
,
1000
0001
0100
0001
1000
0010
0100
0001
1000
0100
1000
0001
0010
0100
1000
0001
,
1000
0000
0000
1001
0000
0000
0001
0100
,
0010
0000
0000
0110
0000
0000
0100
0001
,
1000
0000
0000
1001
0000
0000
1001
0000
,
1100
0000
0100
0010
0001
0100
0010
0000
,
0110
0000
0000
0101
0000
0000
0001
1000
,
0100
0000
0000
1100
0000
0000
1000
0001
,
0100
0000
0000
0101
0000
0000
1001
0000
,
1010
0000
0010
0100
0001
0010
0100
0000
,
1000
0000
0100
1000
0001
0000
0000
0000
0100
0000
0001
1000
0001
0000
0000
0000
,
1000
0000
0100
1000
0100
0000
1000
0001
1000
0000
0010
0100
0010
0000
0000
0000
,
0100
0001
0010
0100
1000
0001
1000
0001
,
0010
0000
0011
0000
0000
1001
0000
0000
,
1100
1001
0101
0110
,
1010
0000
0101
0000
1001
0000
1000
0010
,
0100
0001
0010
0100
1000
0010
0100
0001
,
1000
0001
0100
0001
0010
0100
1000
0001
1000
0010
0100
0001
1000
0001
0010
0100
,
2000
0000
3000
0000
;
