#TITLE:Live and Learn;
#SUBTITLE:;
#ARTIST:Sonic Team;
#TITLETRANSLIT:;
#SUBTITLETRANSLIT:;
#ARTISTTRANSLIT:;
#CREDIT:;
#BANNER:;
#BACKGROUND:;
#LYRICSPATH:;
#CDTITLE:;
#MUSIC:11 - 08_live_and_learn.mp3;
#OFFSET:0.000;
#SAMPLESTART:69.666;
#SAMPLELENGTH:12.000;
#SELECTABLE:YES;
#BPMS:0.000=172.200;
#STOPS:;
#BGCHANGES:;
// cache tags:
#FIRSTBEAT:2.000;
#LASTBEAT:764.000;
#SONGFILENAME:Songs/mongol/live & Learn/Live.sm;
#HASMUSIC:1;
#HASBANNER:0;
#MUSICLENGTH:272.326;
// end cache tags

//---------------dance-single - ----------------
#NOTES:
     dance-single:
     :
     Hard:
     10:
     0.692,0.842,0.510,0.532,0.046,1036.000,139.000,145.000,0.000,90.000:
0000
0000
2002
0000
,
0000
0000
0000
0000
,
0000
0000
3003
1000
0001
0100
0000
0010
,
1000
0000
0001
0000
1000
0100
0000
0001
,
0010
0000
0000
0010
0100
0010
0000
1000
,
0100
0000
0000
0011
0000
1100
0000
1010
,
0000
0101
0000
1000
0100
0010
0000
0001
,
0010
0000
1000
0000
0010
0001
0000
1000
,
0100
0000
0000
1100
0011
1100
0000
0010
,
0001
0000
0000
1001
0000
0110
0000
0011
,
0000
1100
0000
0010
0001
1000
1000
0100
,
0010
0010
0001
1000
1000
0010
0100
0000
,
0000
0100
1000
0002
1000
0100
0010
0100
,
1000
0100
2010
0103
0010
0001
0010
0100
,
3010
0001
0000
0000
1000
0010
0000
0010
,
0000
0001
0000
2000
0000
0000
0000
3001
,
0010
0100
0000
0100
0010
0002
0000
0000
,
0000
0000
0000
0000
1000
1000
0100
0013
,
0100
1000
0002
0000
0000
0000
0000
0003
,
0000
0000
0000
1100
0000
0011
0000
0101
,
0000
1010
0100
0002
1000
0100
0010
0100
,
1000
0010
0100
2013
0100
0001
0010
0100
,
0010
0100
0001
3100
0001
0010
0000
0100
,
0000
1001
0000
0020
1000
0001
1000
0100
,
1000
0001
1000
0130
0010
0001
0100
0020
,
0000
0000
0000
0000
1000
0100
0000
0130
,
0010
0001
0200
0000
0000
0000
0000
0310
,
0001
0100
0010
1000
0100
0001
0200
0000
,
0000
0300
0000
0000
0000
0000
0000
2200
,
0000
0000
0000
3322
0000
0000
0000
2233
,
0000
0000
3300
0220
0000
0000
0000
2332
,
0000
0000
0000
3203
0000
0000
0020
0300
,
0000
1000
0031
1000
0100
0010
0001
0220
,
0000
0000
0000
2332
0000
0000
0000
3023
,
0000
0000
0000
2030
0000
0000
0000
0000
,
0000
0000
3002
0000
1000
0100
0010
0003
,
0010
0100
1000
0100
0001
1000
0010
0200
,
0000
0000
0000
0302
0000
0000
0000
2003
,
0000
0000
0000
3200
0000
0000
0000
0320
,
0000
0000
0000
0232
0000
0000
2020
0303
,
0000
0001
3130
0010
1000
0100
1000
0100
,
0010
0001
0100
0010
0000
1001
0000
0100
,
0110
0000
2002
0100
0010
0100
0010
0100
,
0010
0100
3013
0220
1000
0001
1000
1001
,
0000
1001
0000
0332
0000
0200
0000
0023
,
0000
0300
0000
1030
0100
0010
0000
0100
,
0010
0000
1001
0000
0001
0100
0000
0100
,
0010
0000
0000
1000
0100
0010
0001
0000
,
0001
0100
0010
1000
0100
0010
0001
1000
,
0000
0001
0010
0100
1000
0010
0000
0000
,
1000
0001
0000
2002
0000
0000
0000
0100
,
3003
0100
0000
0010
1000
0100
0010
0000
,
0010
0001
1000
0010
0100
0001
1000
1001
,
0000
0110
0000
0001
1000
0010
0000
0100
,
0001
0000
0100
0000
0010
1000
0000
0001
,
0100
0000
0000
1000
0001
0100
0010
0000
,
0010
1000
0100
0010
0001
0100
0010
0000
,
1000
0100
0010
0001
1000
0100
0000
0010
,
0001
0000
0100
0000
0100
0010
0000
0010
,
0000
1000
0000
0100
0000
0100
0010
0000
,
0010
0000
0000
1002
0000
0100
0000
0010
,
0000
0100
0000
0013
1000
0100
0000
0010
,
0000
0010
1001
0000
0010
0002
0000
0000
,
0000
0000
0000
1010
1010
0003
0000
0000
,
0000
0000
0000
0000
0000
0000
1001
0000
1000
0100
0010
0000
0001
0000
0100
0000
,
0010
1000
0100
0010
0010
0100
1000
0100
,
0100
0010
0001
1000
1000
0100
0010
0001
,
0001
0010
0100
0020
1000
0001
1000
0001
,
1030
0100
0010
0200
0001
0010
0001
0010
,
0001
0310
0000
0100
0010
0001
0100
0000
,
0010
0000
2100
0010
0100
0010
0100
0010
,
3100
0010
0001
0010
0002
0000
0003
0000
,
0100
0010
1000
2000
0000
3100
0001
0000
,
0100
1000
0010
0200
0000
0000
0300
0000
,
0010
1000
0001
0100
0010
1000
0100
0010
,
0002
0000
1000
0100
1000
0100
1000
0100
0013
0000
0100
0000
1000
0000
0100
0000
,
0110
0010
0001
1000
0011
0100
0001
1000
,
0101
0010
1000
0010
0110
0001
1000
0100
,
0110
1000
0010
0100
0202
0000
0000
2323
,
0000
0000
3030
0100
0001
1000
0100
0010
,
0101
0010
0100
1000
0110
0100
0010
1000
,
0011
0010
0100
1000
2020
0100
0001
0100
,
0001
0100
0001
3232
0010
1000
0010
0000
,
0010
1000
0313
1000
0100
0010
0001
0010
,
0110
1000
0010
0100
0011
0100
1000
0100
,
0011
0100
1000
0100
1001
0100
0010
0100
,
1001
0010
0001
0010
0022
0100
1000
2233
,
0010
0001
3310
0001
0010
0100
1000
0010
,
0100
0010
1000
0100
0000
0100
0000
0010
,
0001
2200
0000
0000
,
0000
3322
1100
1100
,
1100
1133
2200
3322
,
2233
0000
3322
0000
0033
1000
0100
0000
,
0010
0001
0000
0100
0000
0100
0010
0000
,
0010
1000
0000
0000
1000
0001
0100
0010
,
0000
1000
0001
0100
0010
1000
0100
0010
,
0000
0010
0001
1000
0010
1000
0100
0000
,
0100
0010
0000
0001
0000
1000
0001
0000
,
1000
0000
0100
0000
0001
1000
0001
0100
,
0000
0100
0010
1000
0100
0010
0110
0000
,
1001
0000
0011
0000
1000
0001
1000
0000
,
0100
0010
0000
0001
0000
1000
0100
0000
,
0100
0010
0000
0000
1000
0001
0100
0010
,
0000
0010
1000
0001
0100
0010
1000
0001
,
0000
0001
0010
0100
1000
0100
0100
0000
,
0010
1000
0000
0001
0000
1000
0100
0000
,
0100
0010
0000
0000
1000
0001
0010
0100
,
0000
0100
1000
0010
0001
0100
0010
0000
,
1001
0000
0011
0000
1100
0001
1000
0000
,
0100
0010
0000
0010
0000
0010
2002
0000
,
0000
0000
0000
0000
0110
0220
3003
0000
,
0000
0000
0000
0000
1330
0100
0000
0100
,
0000
0000
0000
0000
1000
0100
0010
0000
0001
0000
1000
0000
0100
0000
0110
0000
,
0001
0100
2200
0000
0000
0000
0000
0000
,
3300
0000
0010
0000
0000
0000
2002
0000
0000
0000
0000
0000
0000
3003
0200
0000
,
0000
0000
0000
0000
0310
0000
0001
0010
0200
0000
0000
0000
0000
0000
0310
0001
,
1000
0100
0010
0001
0100
0010
1000
0001
,
1000
0001
1000
0010
0100
0010
0100
1000
,
0100
0010
0001
0010
0100
0010
0100
0000
,
0100
0000
0100
2002
0000
0000
0000
3013
,
0220
0000
0000
0000
0331
1000
0100
0010
,
0000
0001
0000
0200
0011
0000
0011
0000
,
1310
0000
1100
0000
0110
0001
1000
0100
,
0000
0100
0010
0001
0100
0010
0000
0000
,
0000
0002
0000
2003
,
0000
0000
0000
3200
0000
0000
0310
2002
,
0000
0000
0000
0000
0000
0000
3003
0000
1000
0100
0010
0001
0100
0010
1000
0001
,
0100
0010
0100
0010
1000
0100
0010
0001
0010
0100
1000
0010
0100
0000
0020
0000
,
0000
0000
0000
0000
1000
0001
1000
0130
,
0010
0001
0100
0010
1000
0001
0001
0010
,
0100
0020
0000
0030
1001
0100
0010
1000
,
0100
0010
0101
1000
1010
0100
0010
0011
,
0100
0010
1001
0000
0220
0000
0000
0000
,
0330
0000
1000
0000
0010
0000
0001
0100
,
0010
1000
0100
0010
0010
1002
0100
0010
,
0100
0010
1103
0100
0011
0010
1000
0220
,
0000
0330
1001
0001
0022
0100
1000
0100
,
1000
0100
1133
0010
0011
0010
1100
0101
,
1000
0100
0010
0001
0220
0000
0000
2332
,
0000
3003
0220
0000
0332
0000
0003
2000
,
0000
0000
3000
0000
0002
0000
0000
0203
,
0000
0000
0320
0000
1002
0130
1000
0203
,
1001
0000
1301
0000
1000
0100
1000
0100
,
0001
0100
0001
0100
0000
0001
1000
0100
,
0000
0100
0010
0000
0010
0000
0010
0001
,
0000
0001
1000
0000
0001
0100
0010
1000
,
0000
1000
0100
0010
0001
0100
0010
1000
,
0000
0001
0100
0010
1000
0000
1000
0000
,
0001
0100
0000
0100
0000
0100
0001
0000
,
0001
1000
0000
0000
0001
0100
0010
1000
,
0000
1000
0100
0010
0001
0100
1001
0000
,
0110
0000
0011
0000
1100
0001
1000
0000
,
1000
0100
0000
0100
0000
0100
0010
0000
,
0010
0001
0000
0000
1000
0001
0100
0010
,
0000
0010
0001
1000
0010
0100
0001
1000
,
0000
1000
0001
0100
0010
1000
0001
0000
,
0001
0100
0000
0100
0000
0000
0001
0000
,
0100
0000
0010
0000
1000
0000
1000
0100
,
0000
0010
0000
0000
1000
0100
1000
0000
,
1000
0000
0100
0000
0001
0000
0000
0000
0001
0000
0001
1000
0001
0000
0000
0000
,
0010
1000
0100
0000
0100
0010
0000
0010
,
0000
0010
0001
0000
0001
0100
0000
0000
,
0000
1000
1000
0000
0100
0000
0001
0000
,
0010
0000
0010
1000
0200
0000
0320
0000
,
0032
0000
0203
0000
0310
1000
0000
0200
,
0000
0300
1100
1010
,
0001
0000
0001
0001
0000
0100
0000
0000
,
0010
0100
0010
0000
1000
0100
0001
0100
,
1000
0001
0100
0000
0100
0010
0000
0010
,
0000
1000
0001
0010
,
0100
0001
1000
0100
0010
0001
0010
0100
,
1000
0010
0100
0010
0100
1000
0100
0010
,
0100
0010
0100
0000
0100
0010
0000
0010
,
1000
0100
0001
0100
,
2020
0000
0000
0000
3232
0000
0000
0303
,
2020
0000
0000
3030
0202
0000
0000
0303
,
2002
0100
0010
0100
0000
0100
0010
0010
,
3003
0010
0200
0000
0000
0000
0000
0000
,
1001
2002
0300
0000
0000
0000
0000
0000
,
0000
0000
3013
0000
0010
0100
0010
1000
0001
1000
0100
0010
0100
0010
0100
0000
,
0000
1000
0100
0001
0000
0001
0100
0000
,
0100
0000
0100
0010
0000
0010
0001
0000
,
0001
1000
0100
0000
0100
0010
0000
0000
,
1010
0101
0011
1100
,
1001
0100
0010
0000
0010
0100
0000
0100
,
0000
0100
1000
0000
1000
0200
0000
0300
,
0100
0010
0001
0000
0001
0100
0000
0000
,
1010
0101
0011
1100
,
1001
0100
0010
0010
1000
0100
0100
0010
,
0001
0000
0001
0000
0100
0000
0020
0000
0000
0000
1000
0001
1030
0001
1000
0000
,
0000
1000
0100
0010
0001
0100
0100
0010
,
1001
0000
0000
0000
;
