#TITLE:URGE;
#SUBTITLE:;
#ARTIST:Aozuna;
#TITLETRANSLIT:;
#SUBTITLETRANSLIT:;
#ARTISTTRANSLIT:;
#CREDIT:;
#BANNER:banner.png;
#BACKGROUND:bg.png;
#LYRICSPATH:;
#CDTITLE:KOMBO.png;
#MUSIC:URGE.mp3;
#OFFSET:-0.102;
#SAMPLESTART:41.049;
#SAMPLELENGTH:12.000;
#SELECTABLE:YES;
#DISPLAYBPM:281.000;
#BPMS:0.000=281.000,176.000=285.001,180.000=291.000,184.000=281.000,256.000=281.000,344.000=283.000,348.000=281.000;
#STOPS:;
#BGCHANGES:;
// cache tags:
#FIRSTBEAT:0.000;
#LASTBEAT:422.000;
#SONGFILENAME:Songs/Definitive Keyboard Megapack/URGE [KOMBO para Leone510]/URGE.sm;
#HASMUSIC:1;
#HASBANNER:1;
#MUSICLENGTH:91.762;
// end cache tags

//---------------dance-single - Kombo Tributo para L----------------
#NOTES:
     dance-single:
     Kombo Tributo para L:
     Hard:
     18:
     1.000,1.000,1.000,1.000,0.970,746.000,259.000,242.000,0.000,90.000:

1111
0000
0000
0000
,
1111
0000
0000
0000
,
1111
0000
1111
1111
0000
1111
1111
1111
,
1111
0000
0000
0000
,
1111
0000
0000
0000
,
1111
0000
1111
1111
0000
1111
1111
1111
,
1111
0000
0000
0000
0000
0000
0000
0000
0000
0000
0000
0000
0000
0000
0000
0000
1110
0000
0000
0000
0000
0000
0000
0000
0001
0010
0100
1000
0001
0010
0100
1000
,
0000
0000
0000
0000
,
2022
3033
0000
0000
0000
0000
0000
0000
0101
0000
0000
0000
0000
0000
0000
0000
1010
0000
0000
0000
0000
0000
0000
0000
2220
3330
0000
0000
0000
0000
0000
0000
,
0222
0333
0000
0000
0000
0000
0000
0000
1100
0000
0000
0000
0000
0000
0000
0000
0011
0000
0000
0000
0000
0000
0000
0000
2022
3033
0000
0000
0000
0000
0000
0000
,
2202
3303
0000
0000
0000
0000
0000
0000
0011
0000
0000
0000
0000
0000
0000
0000
1100
0000
0000
0000
0000
0000
0000
0000
2202
3303
0000
0000
0000
0000
0000
0000
,
2022
3033
0000
0000
0000
0000
0000
0000
0010
0100
0001
1000
0010
1000
0001
0100
0000
0000
0000
0000
0000
0000
0000
0000
2022
3033
0000
0000
0000
0000
0000
0000
,
2202
3303
0000
0000
0000
0000
0000
0000
1010
0000
0000
0000
0000
0000
0000
0000
0101
0000
0000
0000
0000
0000
0000
0000
0222
0333
0000
0000
0000
0000
0000
0000
,
2220
3330
0000
0000
0000
0000
0000
0000
0011
0000
0000
0000
0000
0000
0000
0000
1100
0000
0000
0000
0000
0000
0000
0000
2202
3303
0000
0000
0000
0000
0000
0000
,
2022
3033
0000
0000
0000
0000
0000
0000
0010
1000
0001
0100
1000
0010
1000
0001
0010
0000
0000
0000
0000
0000
0000
0000
2202
3303
0000
0000
0000
0000
0000
0000
,
2022
3033
0000
0000
0000
0000
0000
0000
0000
0000
0000
0000
0000
0000
0000
0000
0000
0000
0000
0000
0000
0000
0000
0000
0000
0000
0000
0000
0000
0000
0000
0000
,
2220
3330
0000
0000
0000
0000
0000
0000
0011
0000
0000
0000
0000
0000
0000
0000
1100
0000
0000
0000
0000
0000
0000
0000
2202
3303
0000
0000
0000
0000
0000
0000
,
2022
3033
0000
0000
0000
0000
0000
0000
0101
0000
0000
0000
0000
0000
0000
0000
1010
0000
0000
0000
0000
0000
0000
0000
2220
3330
0000
0000
0000
0000
0000
0000
,
0222
0333
0000
0000
0000
0000
0000
0000
1010
0000
0000
0000
0000
0000
0000
0000
0101
0000
0000
0000
0000
0000
0000
0000
0222
0333
0000
0000
0000
0000
0000
0000
,
2220
3330
0000
0000
0000
0000
0000
0000
0001
0010
0100
1000
0001
0010
0100
1000
0000
0000
0000
0000
0000
0000
0000
0000
2202
3303
0000
0000
0000
0000
0000
0000
,
2022
3033
0000
0000
0000
0000
0000
0000
0101
0000
0000
0000
0000
0000
0000
0000
1010
0000
0000
0000
0000
0000
0000
0000
2220
3330
0000
0000
0000
0000
0000
0000
,
0222
0333
0000
0000
0000
0000
0000
0000
1100
0000
0000
0000
0000
0000
0000
0000
0011
0000
0000
0000
0000
0000
0000
0000
2022
3033
0000
0000
0000
0000
0000
0000
,
2202
3303
0000
0000
0000
0000
0000
0000
0011
0000
0000
0000
0000
0000
0000
0000
1100
0000
0000
0000
0000
0000
0000
0000
2202
3303
0000
0000
0000
0000
0000
0000
,
2022
3033
0000
0000
0000
0000
0000
0000
1000
0100
0010
0001
1000
0100
0010
0001
0000
0000
0000
0000
0000
0000
0000
0000
2220
3330
0000
0000
0000
0000
0000
0000
,
0222
0333
0000
0000
0000
0000
0000
0000
1100
0000
0000
0000
0000
0000
0000
0000
0011
0000
0000
0000
0000
0000
0000
0000
2022
3033
0000
0000
0000
0000
0000
0000
,
2202
3303
0000
0000
0000
0000
0000
0000
1010
0000
0000
0000
0000
0000
0000
0000
0101
0000
0000
0000
0000
0000
0000
0000
0222
0333
0000
0000
0000
0000
0000
0000
,
2220
3330
0000
0000
0000
0000
0000
0000
0101
0000
0000
0000
0000
0000
0000
0000
1010
0000
0000
0000
0000
0000
0000
0000
2220
3330
0000
0000
0000
0000
0000
0000
,
0222
0333
0000
0000
0000
0000
0000
0000
0001
0010
0100
1000
0001
0010
0100
1000
0000
0000
0000
0000
0000
0000
0000
0000
2022
3033
0000
0000
0000
0000
0000
0000
,
2220
3330
0000
0000
0000
0000
0000
0000
1001
0000
0000
0000
0000
0000
0000
0000
0110
0000
0000
0000
0000
0000
0000
0000
0222
0333
0000
0000
0000
0000
0000
0000
,
2202
3303
0000
0000
0000
0000
0000
0000
0011
0000
0000
0000
0000
0000
0000
0000
1100
0000
0000
0000
0000
0000
0000
0000
2220
3330
0000
0000
0000
0000
0000
0000
,
2022
3033
0000
0000
0000
0000
0000
0000
1100
0000
0000
0000
0000
0000
0000
0000
0011
0000
0000
0000
0000
0000
0000
0000
2022
3033
0000
0000
0000
0000
0000
0000
,
2220
3330
0000
0000
0000
0000
0000
0000
1000
0100
0010
0001
1000
0100
0010
0001
0000
0000
0000
0000
0000
0000
0000
0000
2222
3333
0000
0000
0000
0000
0000
0000
,
0001
0000
0000
0000
2000
3000
0000
0000
0000
0000
0000
0000
2000
3000
0000
0000
0000
0000
0000
0000
2000
3000
0000
0000
0000
0000
0000
0000
2000
3000
0000
0000
,
0000
0000
0000
0000
2000
3000
0000
0000
0000
0000
0000
0000
2000
3000
0000
0000
0002
0000
0000
0000
0000
0000
0000
0000
0000
0000
0000
0000
0000
0000
0000
0000
,
1003
0000
0000
0000
0002
0003
0000
0000
0000
0000
0000
0000
0002
0003
0000
0000
0000
0000
0000
0000
0002
0003
0000
0000
0000
0000
0000
0000
0002
0003
0000
0000
,
0000
0000
0000
0000
0002
0003
0000
0000
0000
0000
0000
0000
0002
0003
0000
0000
2000
0000
0000
0000
0000
0000
0000
0000
0000
0000
0000
0000
0000
0000
0000
0000
,
3001
0000
0000
0000
2000
3000
0000
0000
0000
0000
0000
0000
2000
3000
0000
0000
0000
0000
0000
0000
2000
3000
0000
0000
0000
0000
0000
0000
2000
3000
0000
0000
,
0001
0000
0000
0000
2000
3000
0000
0000
0000
0000
0000
0000
2000
3000
0000
0000
0000
0000
0000
0000
2000
3000
0000
0000
0000
0000
0000
0000
2000
3000
0000
0000
,
0001
0000
0000
0000
2000
3000
0000
0000
0000
0000
0000
0000
2000
3000
0000
0000
0000
0000
0000
0000
2000
3000
0000
0000
0000
0000
0000
0000
2000
3000
0000
0000
,
0100
0010
0100
0010
0100
0000
0000
0000
,
1000
0000
0000
0000
0002
0003
0000
0000
0000
0000
0000
0000
0002
0003
0000
0000
0000
0000
0000
0000
0002
0003
0000
0000
0000
0000
0000
0000
0002
0003
0000
0000
,
0000
0000
0000
0000
0002
0003
0000
0000
0000
0000
0000
0000
0002
0003
0000
0000
2000
0000
0000
0000
0000
0000
0000
0000
0000
0000
0000
0000
0000
0000
0000
0000
,
3001
0000
0000
0000
2000
3000
0000
0000
0000
0000
0000
0000
2000
3000
0000
0000
0000
0000
0000
0000
2000
3000
0000
0000
0000
0000
0000
0000
2000
3000
0000
0000
,
0000
0000
0000
0000
2000
3000
0000
0000
0000
0000
0000
0000
2000
3000
0000
0000
0002
0000
0000
0000
0000
0000
0000
0000
0000
0000
0000
0000
0000
0000
0000
0000
,
1003
0000
0000
0000
0002
0003
0000
0000
0000
0000
0000
0000
0002
0003
0000
0000
0000
0000
0000
0000
0002
0003
0000
0000
0000
0000
0000
0000
0002
0003
0000
0000
,
1000
0000
0000
0000
0002
0003
0000
0000
0000
0000
0000
0000
0002
0003
0000
0000
0000
0000
0000
0000
0002
0003
0000
0000
0000
0000
0000
0000
0002
0003
0000
0000
,
1000
0000
0000
0000
0002
0003
0000
0000
0000
0000
0000
0000
0002
0003
0000
0000
0000
0000
0000
0000
0002
0003
0000
0000
0000
0000
0000
0000
0002
0003
0000
0000
,
0100
0010
0100
0010
0100
0000
0001
0000
1000
0000
0001
0000
1000
0100
0010
0001
,
2010
3002
0113
0200
1320
0030
1100
0000
,
0001
0010
0100
1000
0001
0010
0100
1000
0002
0000
0000
0000
2003
0000
0000
0000
3102
0000
0000
0000
0013
0000
0000
0000
1000
0100
0010
0001
1000
0100
0010
0001
,
2000
0100
3021
0100
1230
0000
0312
0000
,
1003
0100
0010
0001
1000
0100
0010
0001
0000
0000
0000
0000
0100
0000
0000
0000
0011
0000
0000
0000
1000
0000
0000
0000
1100
0000
0000
0000
0001
0010
0100
1000
,
0001
0010
0100
1000
0000
0000
0000
0000
0101
0000
0000
0000
0010
0000
0000
0000
1010
0000
0000
0000
0100
0000
0000
0000
0011
0000
0000
0000
0001
0000
0000
0000
,
1000
0010
0100
0001
1000
0010
0100
0001
0000
0000
0000
0000
1000
0000
0000
0000
0101
0000
0000
0000
0001
0000
0000
0000
1010
0000
0000
0000
0001
0100
0010
1000
,
0001
0100
0010
1000
0000
0000
0000
0000
0101
0000
0000
0000
1000
0000
0000
0000
0110
0000
0000
0000
0001
0000
0000
0000
1001
0000
0000
0000
0110
0000
0000
0000
,
2222
0000
0000
0000
0000
0000
0000
0000
0000
0000
0000
0000
0000
0000
0000
3333
,
0012
2003
3110
0020
0231
1300
0011
0100
,
1000
0100
0010
0001
1000
0100
0010
0001
2000
0000
0000
0000
3002
0000
0000
0000
2013
0000
0000
0000
3100
0000
0000
0000
0001
0010
0100
1000
0001
0010
0100
1000
,
0002
0010
1203
0001
0321
1000
2130
0010
,
3001
0010
0100
1000
0001
0010
0100
1000
0000
0000
0000
0000
0001
0000
0000
0000
1100
0000
0000
0000
0010
0000
0000
0000
0011
0000
0000
0000
1000
0100
0010
0001
,
1000
0100
0010
0001
0000
0000
0000
0000
1010
0000
0000
0000
1000
0000
0000
0000
0101
0000
0000
0000
0001
0000
0000
0000
1010
0000
0000
0000
0010
0000
0000
0000
,
0001
0100
0010
1000
0001
0100
0010
1000
0000
0000
0000
0000
0001
0000
0000
0000
1010
0000
0000
0000
0100
0000
0000
0000
0101
0000
0000
0000
1000
0010
0100
0001
,
1000
0010
0100
0001
0000
0000
0000
0000
1010
0000
0000
0000
0001
0000
0000
0000
0110
0000
0000
0000
1000
0000
0000
0000
1001
0000
0000
0000
0110
0000
0000
0000
,
1000
0100
0010
0001
1000
0100
0010
0001
0000
0000
0000
0000
1000
0000
0000
0000
0100
0000
0000
0000
0001
0000
0000
0000
0100
0000
0000
0000
1000
0000
0000
0000
,
0222
0000
0000
0000
,
0000
0000
0000
0000
,
2333
0001
0010
0100
0010
0001
0010
0100
0010
0001
0010
0100
0010
0001
0010
0100
,
3011
1000
0011
1000
0110
0001
1100
0010
,
0101
1000
0011
0100
1010
0100
0011
1000
,
0101
0010
1001
0100
0011
1000
0110
0001
,
1010
0100
0011
0100
0011
1000
0110
0001
,
1010
0100
0011
1000
0101
0010
1100
0001
,
0110
0000
1000
0000
0101
0000
0010
0000
1100
0000
0001
1000
0001
1000
0001
1000
,
0011
0100
1001
0100
1010
0001
1100
0010
,
1000
0000
0001
0000
1000
0000
0001
0000
1000
0000
0001
0000
1000
0000
0001
0000
1000
0001
0010
0100
1000
0001
0010
0100
1000
0001
0010
0100
1000
0001
0010
0100
,
1000
0001
1010
0001
1100
0010
0101
1000
,
0011
1000
0110
0001
1010
0100
0011
1000
,
0110
0001
1010
0100
0011
0100
1010
0001
,
0110
1000
0101
0010
2001
0100
3011
1000
,
0120
0032
2013
3200
1301
0010
1100
0010
,
2001
0100
3021
0001
1230
0010
2301
0100
,
3011
0100
1001
0100
0011
1000
0101
0010
,
2000
0000
0000
0000
0000
0000
0000
0000
0000
0000
0000
0000
0000
0000
0000
0000
0001
0010
0100
0001
0010
0100
0001
0010
0100
0001
0010
0100
0001
0010
0100
0000
,
3000
0000
0000
0000
,
2220
0000
0000
0000
0000
0000
0000
0000
0000
0000
0000
0000
0000
0000
0000
3330
,
1002
0100
0010
0100
1000
0100
0010
0100
1000
0100
0010
0100
1000
0100
0010
0100
,
1003
0000
0000
0000
,
1010
0001
0110
1000
0011
0100
1010
0100
,
1001
0010
1100
0001
1010
0100
1001
0110
,
1001
0100
1010
0001
0110
1000
0101
0010
,
1100
0010
0101
0010
1100
0001
0110
1001
,
0110
1000
0101
1000
0110
0001
1100
0010
,
0101
0010
1100
0001
1010
0100
1001
0110
,
1001
0100
0011
1000
0110
0001
1010
0100
,
1001
0000
0100
0000
0001
1000
0001
1000
0001
0000
0110
0000
0001
1000
0001
1000
,
0001
0100
1010
0100
0011
1000
0101
0010
,
1100
0001
1010
0100
0011
1000
0110
1001
,
0110
1000
0011
0100
1010
0001
0110
1000
,
0101
0000
0010
0000
1000
0001
1000
0001
1000
0000
0110
0000
1000
0001
1000
0001
,
1000
0100
0011
1000
0101
0010
1100
0010
,
1001
0010
0101
1000
0011
0100
1001
0110
,
1001
0100
1010
0001
1100
0001
1010
0100
,
1001
0010
1100
0010
1001
0110
2222
0000
,
0000
0000
0000
0000
,
0000
0000
0000
0000
,
0000
0000
3333
0000
;
