#TITLE:Damage, Inc.;
#SUBTITLE:Master of Puppets (1986);
#ARTIST:Metallica;
#TITLETRANSLIT:;
#SUBTITLETRANSLIT:;
#ARTISTTRANSLIT:;
#CREDIT:Kevin (Sloqx);
#BANNER:Damage inc-banner.png;
#BACKGROUND:Damage inc-bg.png;
#LYRICSPATH:;
#CDTITLE:!cdtitle.png;
#MUSIC:Metallica - Damage, Inc.mp3;
#OFFSET:-0.025;
#SAMPLESTART:51.816;
#SAMPLELENGTH:29.920;
#SELECTABLE:YES;
#BPMS:0.000=51.680,1.000=51.615,2.000=51.809,3.000=51.700,4.000=167.861,5.000=167.861,6.000=167.861,7.000=167.861,8.000=171.395,9.000=171.395,10.000=171.395,11.000=171.395,12.000=174.838,13.000=174.838,14.000=174.838,15.000=174.827,16.000=176.636,17.000=176.636,18.000=176.636,19.000=176.600,20.000=184.622,21.000=184.622,22.000=184.622,23.000=184.583,24.000=189.718,25.000=189.718,26.000=189.718,27.000=189.718,28.000=195.797,29.000=195.797,30.000=195.797,31.000=195.753,32.000=188.744,33.000=188.744,34.000=188.744,35.000=188.744,36.000=192.352,37.000=192.352,38.000=192.352,39.000=192.310,40.000=184.249,41.000=184.249,42.000=184.249,43.000=184.223,44.000=185.437,45.000=185.437,46.000=185.437,47.000=185.437,48.000=182.156,49.000=182.156,50.000=182.156,51.000=182.144,52.000=186.430,53.000=186.430,54.000=186.430,55.000=186.404,56.000=184.828,57.000=184.828,58.000=184.828,59.000=184.789,60.000=185.255,61.000=185.255,62.000=185.255,63.000=185.255,64.000=185.971,65.000=185.971,66.000=185.971,67.000=185.932,68.000=180.762,69.000=180.762,70.000=180.762,71.000=180.762,72.000=183.127,73.000=183.127,74.000=183.127,75.000=183.102,76.000=185.945,77.000=185.945,78.000=185.945,79.000=185.932,80.000=186.996,81.000=186.996,82.000=186.996,83.000=186.983,84.000=183.127,85.000=183.127,86.000=183.127,87.000=183.102,88.000=191.420,89.000=191.420,90.000=191.420,91.000=191.379,92.000=186.154,93.000=186.154,94.000=186.154,95.000=186.141,96.000=181.183,97.000=181.183,98.000=181.183,99.000=181.146,100.000=180.750,101.000=180.750,102.000=180.750,103.000=180.713,104.000=187.646,105.000=187.646,106.000=187.646,107.000=187.633,108.000=187.686,109.000=187.686,110.000=187.686,111.000=187.686,112.000=204.767,113.000=204.767,114.000=204.767,115.000=204.767,116.000=182.269,117.000=182.269,118.000=182.269,119.000=182.257,120.000=193.153,121.000=193.153,122.000=193.153,123.000=193.110,124.000=186.076,125.000=186.076,126.000=186.076,127.000=186.037,128.000=184.467,129.000=184.467,130.000=184.467,131.000=184.429,132.000=187.089,133.000=187.089,134.000=187.089,135.000=187.089,136.000=187.886,137.000=187.886,138.000=187.886,139.000=187.859,140.000=190.826,141.000=190.826,142.000=190.826,143.000=190.785,144.000=185.087,145.000=185.087,146.000=185.087,147.000=185.074,148.000=208.807,149.000=208.807,150.000=184.455,151.000=184.455,152.000=184.455,153.000=184.429,154.000=189.786,155.000=189.786,156.000=189.786,157.000=189.773,158.000=187.142,159.000=187.142,160.000=187.142,161.000=187.142,162.000=186.154,163.000=186.154,164.000=186.154,165.000=186.141,166.000=191.697,167.000=191.697,168.000=191.697,169.000=191.697,170.000=187.354,171.000=187.354,172.000=187.354,173.000=187.354,174.000=188.798,175.000=188.798,176.000=188.798,177.000=188.757,178.000=182.056,179.000=182.056,180.000=182.056,181.000=182.043,182.000=186.930,183.000=186.930,184.000=186.930,185.000=186.930,186.000=183.737,187.000=183.737,188.000=183.737,189.000=183.712,190.000=185.048,191.000=185.048,192.000=185.048,193.000=185.048,194.000=182.659,195.000=182.659,196.000=182.659,197.000=182.647,198.000=184.841,199.000=184.841,200.000=184.841,201.000=184.841,202.000=185.736,203.000=185.736,204.000=185.736,205.000=185.723,206.000=186.430,207.000=186.430,208.000=186.430,209.000=186.404,210.000=175.046,211.000=175.046,212.000=175.046,213.000=175.012,214.000=185.958,215.000=185.958,216.000=185.958,217.000=185.958,218.000=197.095,219.000=197.095,220.000=197.095,221.000=197.080,222.000=184.764,223.000=184.764,224.000=184.764,225.000=184.738,226.000=185.684,227.000=185.684,228.000=185.684,229.000=185.684,230.000=179.743,231.000=179.743,232.000=179.743,233.000=179.719,234.000=187.407,235.000=187.407,236.000=187.407,237.000=187.394,238.000=196.758,239.000=196.758,240.000=196.758,241.000=196.729,242.000=198.009,243.000=198.009,244.000=198.009,245.000=198.009,246.000=183.140,247.000=183.140,248.000=183.140,249.000=183.114,250.000=189.718,251.000=189.718,252.000=189.718,253.000=189.718,254.000=195.652,255.000=195.652,256.000=195.652,257.000=195.609,258.000=198.470,259.000=198.470,260.000=198.470,261.000=198.425,262.000=193.591,263.000=193.591,264.000=193.591,265.000=193.548,266.000=196.044,267.000=196.044,268.000=196.044,269.000=196.015,270.000=189.230,271.000=189.230,272.000=189.230,273.000=189.189,274.000=186.509,275.000=186.509,276.000=186.509,277.000=186.509,278.000=186.050,279.000=186.050,280.000=186.050,281.000=186.037,282.000=187.939,283.000=187.939,284.000=187.939,285.000=187.899,286.000=188.207,287.000=188.207,288.000=188.207,289.000=188.207,290.000=180.725,291.000=180.725,292.000=180.725,293.000=180.701,294.000=186.785,295.000=186.785,296.000=186.785,297.000=186.772,298.000=189.352,299.000=189.352,300.000=189.352,301.000=189.338,302.000=186.154,303.000=186.154,304.000=186.154,305.000=186.141,306.000=182.470,307.000=182.470,308.000=182.470,309.000=182.432,310.000=182.848,311.000=182.848,312.000=182.848,313.000=182.811,314.000=186.220,315.000=186.220,316.000=186.220,317.000=186.194,318.000=183.064,319.000=183.064,320.000=183.064,321.000=183.051,322.000=176.071,323.000=176.071,324.000=176.071,325.000=176.036,326.000=180.454,327.000=180.454,328.000=180.454,329.000=180.417,330.000=200.151,331.000=200.151,332.000=200.151,333.000=200.106,334.000=186.496,335.000=186.496,336.000=186.496,337.000=186.456,338.000=186.575,339.000=186.575,340.000=186.575,341.000=186.561,342.000=179.804,343.000=179.804,344.000=179.804,345.000=179.768,346.000=194.344,347.000=194.344,348.000=194.344,349.000=194.302,350.000=194.173,351.000=194.173,352.000=194.173,353.000=194.173,354.000=200.303,355.000=200.303,356.000=200.303,357.000=200.257,358.000=196.015,359.000=196.015,360.000=196.015,361.000=196.015,362.000=187.500,363.000=187.500,364.000=187.500,365.000=187.460,366.000=182.432,367.000=182.432,368.000=182.432,369.000=182.395,370.000=185.320,371.000=185.320,372.000=185.320,373.000=185.307,374.000=182.244,375.000=182.244,376.000=182.244,377.000=182.206,378.000=183.980,379.000=183.980,380.000=183.980,381.000=183.967,382.000=181.394,383.000=181.394,384.000=181.394,385.000=181.394,386.000=178.230,387.000=178.230,388.000=178.230,389.000=178.218,390.000=184.172,391.000=184.172,392.000=184.172,393.000=184.134,394.000=183.661,395.000=183.661,396.000=183.661,397.000=183.622,398.000=179.743,399.000=179.743,400.000=179.743,401.000=179.719,402.000=183.597,403.000=183.597,404.000=183.597,405.000=183.559,406.000=181.981,407.000=181.981,408.000=181.981,409.000=181.943,410.000=182.458,411.000=182.458,412.000=182.458,413.000=182.445,414.000=180.824,415.000=180.824,416.000=180.824,417.000=180.799,418.000=179.026,419.000=179.026,420.000=179.026,421.000=178.989,422.000=181.618,423.000=181.618,424.000=181.618,425.000=181.594,426.000=184.764,427.000=184.764,428.000=184.764,429.000=184.738,430.000=179.098,431.000=179.098,432.000=179.098,433.000=179.086,434.000=188.421,435.000=188.421,436.000=188.421,437.000=188.421,438.000=178.386,439.000=178.386,440.000=178.386,441.000=178.374,442.000=185.867,443.000=185.867,444.000=185.867,445.000=185.828,446.000=181.581,447.000=181.581,448.000=181.581,449.000=181.556,450.000=182.950,451.000=182.950,452.000=182.950,453.000=182.912,454.000=179.195,455.000=179.195,456.000=179.195,457.000=179.183,458.000=194.473,459.000=194.473,460.000=194.473,461.000=194.473,462.000=194.616,463.000=194.616,464.000=194.616,465.000=194.587,466.000=196.626,467.000=196.626,468.000=196.626,469.000=196.597,470.000=191.739,471.000=191.739,472.000=191.739,473.000=191.711,474.000=194.430,475.000=194.430,476.000=194.430,477.000=194.387,478.000=193.619,479.000=193.619,480.000=193.619,481.000=193.577,482.000=190.923,483.000=190.923,484.000=190.923,485.000=190.923,486.000=190.703,487.000=190.703,488.000=190.703,489.000=190.675,490.000=191.656,491.000=191.656,492.000=191.656,493.000=191.656,494.000=189.909,495.000=189.909,496.000=189.909,497.000=189.868,498.000=191.379,499.000=191.379,500.000=191.379,501.000=191.337,502.000=189.664,503.000=189.664,504.000=189.664,505.000=189.623,506.000=190.278,507.000=190.278,508.000=190.278,509.000=190.237,510.000=190.387,511.000=190.387,512.000=190.387,513.000=190.387,514.000=188.609,515.000=188.609,516.000=188.609,517.000=188.609,518.000=187.833,519.000=187.833,520.000=187.833,521.000=187.819,522.000=186.220,523.000=186.220,524.000=186.220,525.000=186.220,526.000=192.885,527.000=192.885,528.000=192.885,529.000=192.885,530.000=186.233,531.000=186.233,532.000=186.233,533.000=186.220,534.000=187.221,535.000=187.221,536.000=187.221,537.000=187.208,538.000=190.716,539.000=190.716,540.000=190.716,541.000=190.675,542.000=193.449,543.000=193.449,544.000=193.449,545.000=193.449,546.000=184.789,547.000=184.789,548.000=184.789,549.000=184.764,550.000=188.973,551.000=188.973,552.000=188.973,553.000=188.973,554.000=184.172,555.000=184.172,556.000=184.172,557.000=184.159,558.000=190.237,559.000=190.237,560.000=190.237,561.000=190.196,562.000=184.313,563.000=184.313,564.000=184.313,565.000=184.300,566.000=189.950,567.000=189.950,568.000=189.950,569.000=189.950,570.000=186.312,571.000=186.312,572.000=186.312,573.000=186.312,574.000=192.087,575.000=192.087,576.000=192.087,577.000=192.045,578.000=186.522,579.000=186.522,580.000=186.522,581.000=186.522,582.000=189.257,583.000=189.257,584.000=189.257,585.000=189.257,586.000=186.050,587.000=186.050,588.000=186.050,589.000=186.011,590.000=189.122,591.000=189.122,592.000=189.122,593.000=189.081,594.000=185.775,595.000=185.775,596.000=185.775,597.000=185.775,598.000=198.977,599.000=198.977,600.000=198.977,601.000=198.932,602.000=188.113,603.000=188.113,604.000=188.113,605.000=188.073,606.000=189.514,607.000=189.514,608.000=189.514,609.000=189.501,610.000=190.442,611.000=190.442,612.000=190.442,613.000=190.428,614.000=220.868,615.000=182.788,616.000=247.298,617.000=245.753,618.000=182.319,619.000=182.319,620.000=182.319,621.000=182.294,622.000=184.223,623.000=184.223,624.000=184.223,625.000=184.223,626.000=190.100,627.000=190.100,628.000=190.100,629.000=190.059,630.000=180.664,631.000=180.664,632.000=180.664,633.000=180.651,634.000=188.153,635.000=188.153,636.000=188.153,637.000=188.113,638.000=184.288,639.000=184.288,640.000=184.288,641.000=184.275,642.000=187.142,643.000=187.142,644.000=187.142,645.000=187.142,646.000=183.878,647.000=183.878,648.000=183.878,649.000=183.865,650.000=188.368,651.000=188.368,652.000=188.368,653.000=188.327,654.000=177.811,655.000=177.811,656.000=177.811,657.000=177.787,658.000=187.208,659.000=187.208,660.000=187.208,661.000=187.195,662.000=202.774,663.000=202.774,664.000=202.774,665.000=202.743,666.000=191.420,667.000=191.420,668.000=191.420,669.000=191.379,670.000=183.393,671.000=183.393,672.000=183.393,673.000=183.368,674.000=189.392,675.000=189.392,676.000=189.392,677.000=189.392,678.000=184.789,679.000=184.789,680.000=184.789,681.000=184.751,682.000=182.483,683.000=182.483,684.000=182.483,685.000=182.458,686.000=180.503,687.000=180.503,688.000=180.503,689.000=180.503,690.000=189.014,691.000=189.014,692.000=189.014,693.000=188.973,694.000=177.679,695.000=177.679,696.000=177.679,697.000=177.643,698.000=175.884,699.000=175.884,700.000=175.884,701.000=175.872,702.000=185.463,703.000=185.463,704.000=185.463,705.000=185.463,706.000=185.528,707.000=185.528,708.000=185.528,709.000=185.515,710.000=184.493,711.000=184.493,712.000=184.493,713.000=184.480,714.000=186.930,715.000=186.930,716.000=186.930,717.000=186.930,718.000=185.346,719.000=185.346,720.000=185.346,721.000=185.320,722.000=184.906,723.000=184.906,724.000=184.906,725.000=184.893,726.000=178.254,727.000=178.254,728.000=178.254,729.000=178.218,730.000=171.517,731.000=171.517,732.000=171.517,733.000=171.517,734.000=175.476,735.000=175.476,736.000=175.476,737.000=175.441,738.000=185.528,739.000=185.528,740.000=185.528,741.000=185.515,742.000=190.100,743.000=190.100,744.000=190.100,745.000=190.059,746.000=186.785,747.000=186.785,748.000=186.785,749.000=186.772,750.000=165.945,751.000=165.945,752.000=165.945,753.000=165.925,754.000=181.843,755.000=181.843,756.000=181.843,757.000=181.806,758.000=190.442,759.000=190.442,760.000=190.442,761.000=190.428,762.000=186.917,763.000=186.917,764.000=186.917,765.000=186.878,766.000=184.146,767.000=184.146,768.000=184.146,769.000=184.121,770.000=176.706,771.000=176.706,772.000=176.706,773.000=176.694,774.000=176.694;
#STOPS:;
#BGCHANGES:;
// cache tags:
#FIRSTBEAT:4.000;
#LASTBEAT:774.000;
#SONGFILENAME:Songs/Astronomic Metal Collection/Damage, Inc. - Sloqx/Metallica - Damage, Inc - Sloqx.sm;
#HASMUSIC:1;
#HASBANNER:1;
#MUSICLENGTH:255.111;
// end cache tags

//---------------dance-single - ----------------
#NOTES:
     dance-single:
     :
     Challenge:
     11:
     1.000,1.000,1.000,0.353,1.000,1840.000,261.000,90.000,0.000,0.000:
0000
0000
0000
0000
,
1100
0000
0011
0000
,
0101
0000
0000
0000
0000
0000
1010
0000
0000
1000
0100
0010
,
1001
0000
1100
0000
,
0011
0000
0000
0000
0000
0000
1001
0000
0000
0001
0100
0010
,
1001
1001
0110
0110
,
0101
0000
0000
0000
0101
0000
0000
0000
1010
0000
0000
0000
1000
0100
0010
0000
,
0101
0101
1010
1010
,
1100
1100
0011
0011
,
1000
0100
0010
0001
0100
0010
1000
0001
0010
0100
1000
0001
0100
0010
1000
0001
,
0010
1100
0011
0000
0101
1010
0000
0101
,
1000
0010
0100
0001
1000
0100
0010
0001
0100
0010
1000
0001
0010
0100
1000
0001
,
0100
1010
0101
0000
1001
0011
0000
1100
,
0001
0010
0100
1000
0001
0100
0010
1000
0100
0010
0001
1000
0100
0010
0001
1000
,
0010
0101
1010
0000
0011
1100
0000
0101
,
1000
0010
0100
0001
0010
0100
1000
0001
0100
0010
1000
0001
0010
0100
1000
0001
,
0010
1100
1001
0000
0101
1010
0000
0101
,
1010
0000
0001
0010
0100
1000
0001
0100
0010
1000
0001
0010
0100
1000
0001
0100
,
0010
0101
1001
0000
1100
0011
0000
1100
,
0001
1000
0100
0010
0001
1000
0010
0100
0001
0010
0100
1000
0010
0100
0001
1000
,
0100
0011
1100
0000
1001
0101
0000
1010
,
0001
1000
0010
0100
0001
0010
0100
1000
0010
0100
0001
1000
0100
0010
0001
1000
,
0010
0101
1010
0000
1100
0011
0000
1100
,
0001
1000
0100
0010
0001
1000
0010
0100
0001
1000
0100
0010
0001
0100
0010
1000
,
0001
1100
0011
0000
0101
1010
0000
0101
,
2020
0000
0000
3030
2002
0000
0000
3003
,
0022
0000
0000
0033
2200
0000
0000
3300
,
0001
1000
0100
0010
0100
1000
0001
0100
0001
1000
0010
0100
0001
1000
0100
1000
,
0002
0003
0000
0000
0000
0000
0000
0000
,
0011
0000
1100
0000
0001
0100
0010
0000
0100
0000
0001
0000
1000
0100
0010
0000
,
1100
0000
0011
0000
1000
0001
0010
0000
0001
0000
0100
0000
0010
0100
0001
0000
,
1010
0000
1100
0000
0001
0010
0100
0000
0010
0000
0001
0000
0100
0010
1000
0000
,
0101
0000
1001
0000
1000
0100
0010
0000
0100
0000
1000
0000
0001
0010
0100
0000
,
0011
0000
0101
0000
1000
0010
0100
0000
0001
0000
1000
0000
0100
0010
0001
0000
,
1100
0000
1001
0000
0001
0100
0010
0000
0100
0000
0001
0000
1000
0100
0010
0000
,
1100
0000
1001
0000
0001
0010
0100
0000
0010
0000
0001
0000
0100
0010
1000
0000
,
0101
0000
1001
0000
1000
0010
0100
0000
0010
0000
1000
0000
0001
0010
0100
0000
,
0022
0000
0000
0000
0000
0000
0033
0000
1001
0000
1010
0000
0001
0010
0100
0000
,
1000
0000
0001
0000
0100
0010
1000
0000
1001
0000
0011
0000
1000
0100
0010
0000
,
0100
0000
1000
0000
0001
0010
0100
0000
0011
0000
0101
0000
1000
0010
1000
0000
,
0001
0000
0100
0000
0010
1000
0100
0000
1001
0000
1000
0010
1000
0001
0010
0000
,
0100
0000
1000
0000
0001
0010
0100
0000
0011
0000
1001
0000
1000
0001
0010
0000
,
0100
0000
1000
0000
0010
0100
0001
0000
0110
0000
1001
0000
0001
0100
0010
0000
,
1000
0000
0001
0000
1000
0100
0010
0000
1100
0000
0011
0000
1000
0001
0100
0000
,
0010
0000
1000
0000
0001
0010
0100
0000
1000
0100
0010
0001
0010
0100
1000
0001
,
0100
0010
0100
0001
1000
0100
0010
0001
1100
0000
0110
0000
0001
1000
0010
0000
,
0100
0000
0001
0000
1000
0100
0010
0000
0011
0000
0101
0000
1000
0010
0100
0000
,
0001
0000
1000
0000
0100
0010
0001
0000
1100
0000
1001
0000
0001
0010
0100
0000
,
1000
0000
0001
0000
0100
0010
1000
0000
0001
0010
0100
1000
0001
0100
0010
0000
,
0100
0000
0001
0000
1000
0010
1000
0000
0101
0000
1001
0000
1000
0100
0010
0000
,
0100
0000
1000
0000
0001
0010
0100
0000
0011
0000
1100
0000
0001
0100
0001
0000
,
1000
0000
0010
0000
1000
0100
0010
0000
0011
0000
1001
0000
1000
0010
0100
0000
,
0010
0000
1000
0000
0100
0010
0001
0000
1000
0100
1000
0100
1000
0100
1000
0100
,
0010
0001
0010
0001
0010
0001
0010
0001
2200
0000
0000
0000
0000
0000
3300
0000
,
0202
0000
0000
0303
2002
0000
0000
3003
,
2200
0000
0000
0000
0000
0000
3300
0000
0001
0100
0010
0100
0001
1000
0010
1000
,
0001
0100
0010
1000
0100
1000
0010
0100
0001
1000
0100
0010
0001
1000
0100
1000
,
0001
0010
0100
1000
0001
0100
0010
0000
2002
0000
0000
0000
0000
0000
3003
0000
,
0022
0000
0000
0033
2200
0000
0000
3300
,
2002
0000
0000
0000
0000
0000
3003
0000
0001
0100
0001
1000
0010
0100
0001
1000
,
0100
1000
0001
0100
0010
1000
0100
0010
1001
0000
0000
0000
0000
0000
0000
0000
,
0000
0000
1010
0000
,
1001
0000
0011
0000
,
1100
0000
0000
0000
0001
0010
0100
0000
0011
0000
0000
0000
0011
0000
0000
0000
,
1100
1100
1001
1001
,
0101
0000
0000
0000
0101
0000
0000
0000
1000
0010
1000
0001
0100
0010
1000
0000
,
0001
0000
0010
0000
0100
1000
0001
0000
0100
0010
1000
0100
0010
0001
0100
0000
,
0010
0000
1000
0000
0010
1000
0100
0000
0010
0001
0010
0100
1000
0001
0100
0000
,
0010
0000
1000
0000
0001
0010
0100
0000
0010
0001
1000
0100
0010
0001
1000
0000
,
0100
0000
1000
0000
0001
0100
0010
0000
0100
0001
1000
0010
1000
0001
0100
0000
,
0001
0000
1000
0000
0100
0010
0001
0000
0010
0100
1000
0001
0100
0010
1000
0000
,
0001
0000
0100
0000
0001
1000
0100
0000
0010
0100
1000
0010
0100
0001
1000
0000
,
0100
0000
0010
0000
0001
0010
0100
0000
1000
0001
1000
0100
0010
0001
1000
0001
,
0010
0100
1000
0100
0010
0100
1000
0010
0101
0000
1010
0000
1000
0001
0010
0000
,
0100
0000
1000
0000
0001
0100
0001
0000
1010
0000
1001
0000
0001
0010
0100
0000
,
0010
0000
0001
0000
1000
0010
0100
0000
1001
0000
1010
0000
0001
0010
0100
0000
,
0010
0000
0001
0000
1000
0010
0100
0000
0001
1000
0001
0100
0010
1000
0100
0000
,
0010
0000
0001
0000
1000
0100
0010
0000
0011
0000
1100
0000
0001
0100
0010
0000
,
0100
0000
0001
0000
1000
0100
0010
0000
1100
0000
1001
0000
0001
1000
0010
0000
,
1000
0000
0001
0000
0010
0100
1000
0000
0011
0000
0101
0000
1000
0010
1000
0000
,
0001
0000
0100
0000
0001
1000
0100
0000
0010
0100
1000
0010
0100
0001
1000
0010
,
1000
0001
0010
0100
1000
0001
0010
0100
2002
0000
0000
0000
0000
0000
3003
0000
,
2200
0000
0000
3300
2002
0000
0000
3003
,
0202
0000
0000
0000
0000
0000
0303
0000
1000
0010
1000
0001
0100
0010
1000
0001
,
0010
0100
1000
0001
0100
0010
0100
0001
1000
0100
0010
0100
1000
0100
0010
0001
,
1000
0100
1000
0001
0100
0010
1000
0000
0202
0000
0000
0000
0000
0000
0303
0000
,
2002
0000
0000
3003
2200
0000
0000
3300
,
0022
0000
0000
0000
0000
0000
0033
0000
1000
0001
0010
0100
1000
0001
0100
0010
,
1000
0100
0010
0100
1000
0001
0010
0100
1001
0000
0000
0000
0000
0000
0000
0000
,
0000
0000
0000
0000
0000
0000
0000
0000
0001
0100
0001
1000
0010
1000
0001
0100
,
0010
1000
0001
0100
0001
1000
0100
0010
0100
0000
1000
0000
0100
0010
0100
0000
,
1001
0000
0001
0000
1100
0000
0001
0000
0100
0010
0100
0000
1001
0000
1000
0000
,
0001
0010
0100
0000
1100
0000
0000
0000
0001
0000
0100
0000
0001
1000
0100
0000
,
0011
0000
1000
0000
1010
0000
0001
0000
0100
0010
1000
0000
0101
0000
0001
0000
,
1000
0100
1000
0000
0011
0000
0000
0000
1000
0000
0100
0000
0010
0100
1000
0000
,
0101
0000
0100
0000
1010
0000
0001
0000
1000
0100
0010
0000
1100
0000
0001
0000
,
0100
0010
0100
0000
1001
0000
0000
0000
1000
0000
0010
0000
1000
0001
0010
0000
,
1100
0000
1000
0000
0011
0000
0001
0000
0100
0010
1000
0000
0101
0000
0001
0000
,
1000
0100
0010
0000
1100
0000
0000
0000
0001
0000
0100
0000
0010
1000
0100
0000
,
1100
0000
1000
0000
0101
0000
0100
0000
0010
1000
0100
0000
1001
0000
0001
0000
,
0010
0100
1000
0000
0011
0000
0000
0000
1000
0000
0100
0000
0010
0001
0100
0000
,
0110
0000
0001
0000
1100
0000
1000
0000
0001
0010
0100
0000
0011
0000
1000
0000
,
0001
0100
0010
0000
1001
0000
0000
0000
1000
0000
0010
0000
0100
0001
1000
0000
,
1100
0000
0100
0000
0011
0000
1000
0000
0001
0100
0010
0000
1001
0000
0001
0000
,
1000
0100
0010
0000
1100
0000
0000
0000
0001
0000
0100
0000
0010
0100
0001
0000
,
1100
0000
1000
0000
0101
0000
1000
0000
0100
0010
0001
0000
1010
0000
0001
0000
,
0100
0010
0100
0000
1001
0000
0000
0000
1000
0000
0010
0000
1000
0100
0010
0000
,
1001
0000
0001
0000
0011
0000
1000
0000
0010
1000
0100
0000
1001
0000
1000
0000
,
0100
0010
0001
0000
0011
0000
0000
0000
0001
0000
0100
0000
0001
1000
0010
0000
,
1001
0000
1000
0000
0101
0000
1000
0000
0100
0010
0001
0000
1100
0000
0100
0000
,
1000
0001
0010
0000
1100
0000
0000
0000
0001
0000
0100
0000
0010
1000
0100
0000
,
0011
0000
0001
0000
1100
0000
1000
0000
0010
0100
0001
0000
1010
0000
1000
0000
,
0100
0010
0100
0000
1001
0000
0000
0000
0001
0000
0010
0000
0001
0100
0010
0000
,
0101
0000
1000
0000
0101
0000
0001
0000
1000
0010
1000
0000
0011
0000
1000
0000
,
0100
0010
0001
0000
1001
0000
0000
0000
1010
0000
0000
0000
0000
0000
0000
0000
,
0000
0000
0000
0000
0000
0000
0000
0000
0001
1000
0100
0010
0001
0100
0010
1000
,
0100
0000
0000
0000
1001
0000
0000
0000
0001
0010
0100
0010
0001
0010
0100
0010
,
0001
0010
0100
0010
0001
0010
0100
0010
0001
1000
0100
1000
0001
0100
0001
1000
,
0010
1000
0001
0100
0001
1000
0100
0010
0001
1000
0010
0100
0001
1000
0100
0010
,
0100
1000
0001
0010
0100
1000
0010
0100
0001
1000
0100
0010
0001
0010
0100
1000
,
0002
0000
0000
0000
0103
0010
1000
0100
0010
0000
0001
0000
1000
0000
0100
0010
,
0100
0000
1000
0000
0100
0010
0001
0000
1000
0100
0010
0000
0100
1000
0001
0000
,
0100
0010
1000
0000
0001
0010
0100
0000
0010
0000
0001
0000
1000
0010
0100
0000
,
0001
0000
1000
0000
0100
0010
0001
0000
0010
0000
0100
0000
1000
0001
0010
0000
,
0100
0000
1000
0000
0100
0010
0100
1000
0001
0000
0010
0000
0100
0010
0001
0000
,
0100
0000
0100
0000
0001
1000
0100
0000
1000
0000
0001
0000
0100
0010
1000
0001
,
0010
0100
0010
0000
0001
0010
0100
0000
1000
0000
0001
0000
0010
0100
0010
0000
,
0001
0000
1000
0000
0010
1000
0100
0000
0010
0001
0100
0000
0010
1000
0100
0000
,
0010
0000
0010
0000
0001
0010
0100
1000
0002
0000
0000
0000
0203
0000
0000
0000
,
0310
1000
0100
0010
0001
0100
0010
1000
0001
0010
0100
1000
0010
0100
0001
1000
,
0010
1000
0001
0100
0010
1000
0001
0010
0100
1000
0100
1000
0001
0100
0001
0100
,
0001
1000
0001
1000
0100
0010
0001
0010
0100
1000
0100
1000
0001
0100
0001
1000
,
0010
0100
0010
0100
0001
0100
0010
0100
0002
0000
0000
2003
0000
0000
3100
0000
,
0010
0000
0000
0000
0100
1000
0010
0100
0002
0000
0000
0000
0000
0000
0000
0000
,
0000
0000
0003
0000
1000
0010
0100
0000
0001
0000
1000
0000
1000
0000
0200
0000
,
0000
0000
0300
0000
0010
0100
1000
0001
0020
0000
0000
0000
0000
0000
0000
0000
,
0000
0000
0030
0000
0100
0000
1000
0000
0001
0000
0100
0000
0001
1000
0001
1000
,
0010
1000
0001
0100
0001
1000
0100
0010
0001
1000
0100
1000
0001
0000
0010
0000
,
0200
0000
0000
0000
1300
0000
0001
0000
0010
0000
0100
0000
1000
0100
0010
0001
,
0010
0100
1000
0100
0010
0001
0010
0100
1000
0001
0100
0010
0100
0000
0001
0000
,
2000
0000
3002
0000
0103
0020
0000
2030
,
0000
3100
0020
0000
0031
0100
0010
0100
,
0001
0000
1000
0000
0100
0000
0010
0000
0001
0100
0010
0100
0001
1000
0100
0010
,
0100
1000
0010
0100
0001
0010
0100
1000
0001
0100
0010
1000
0001
0010
0100
1000
,
0002
0000
0000
0000
0000
0000
0003
0000
1000
0100
0010
0001
0010
0001
0010
0100
,
0010
0100
0010
0100
1000
0100
0010
0001
1000
0100
1000
0100
1000
0001
1000
0001
,
0010
0100
1000
0001
0100
0001
0100
0010
0100
0001
1000
0100
0010
0001
0100
0010
,
1000
0100
0010
0001
1000
0010
1000
0001
0010
0100
1000
0001
0100
0010
1000
0001
,
0010
0100
0010
0001
1000
0010
1000
0100
0022
0000
0000
0000
0000
0000
0033
0000
,
2200
0000
0000
3300
2002
0000
0000
3003
,
0202
0000
0000
0000
0000
0000
0000
0000
0000
0303
0000
0000
0001
1000
0001
1000
0010
1000
0001
0100
0001
0100
0001
1000
,
0100
1000
0100
1000
0001
0010
0001
0010
0001
1000
0001
1000
0100
1000
0100
1000
0001
1000
0001
0010
0001
0010
0001
1000
,
0001
1000
0100
1000
0001
0100
0001
0000
0000
0000
0000
0000
2200
0000
0000
0000
0000
0000
0000
0000
0000
3300
0000
0000
,
0022
0000
0000
0033
0202
0000
0000
0303
,
2020
0000
0000
0000
0000
0000
3030
0000
1000
0000
0001
0100
0000
0001
1000
0000
,
0010
0000
1000
0001
0000
0010
0001
0000
1000
0000
0100
0010
0000
0100
1000
0000
,
0001
0000
0100
0010
0000
1000
0001
0000
1000
0000
0100
0000
0010
0100
1000
0000
,
0101
0000
0001
0000
1100
0000
1000
0000
0001
0100
0001
0000
1010
0000
1000
0000
,
0100
0010
0001
0000
1010
0000
0000
0000
1000
0000
0001
0000
0010
0100
1000
0000
,
0101
0000
0001
0000
1010
0000
0001
0000
1000
0100
0010
0000
0011
0000
1000
0000
,
0001
0100
0010
0000
1001
0000
0000
0000
0001
0000
0100
0000
0010
1000
0100
0000
,
1001
0000
1000
0000
0011
0000
0001
0000
0100
0010
0100
0000
1001
0000
0001
0000
,
1000
0010
0100
0000
1001
0000
0000
0000
1000
0000
0100
0000
0010
0100
1000
0000
,
0011
0000
0010
0000
1001
0000
1000
0000
0001
0100
0010
0000
0101
0000
0100
0000
,
0001
1000
0100
0000
1001
0000
0000
0000
2200
0000
0000
0000
0000
0000
3300
0000
,
0022
0000
0000
0033
2002
0000
0000
3003
,
2020
0000
0000
0000
0000
0000
3030
0000
0001
0100
0001
1000
0010
1000
0001
0010
,
0100
1000
0001
0100
0001
1000
0100
0010
1001
0000
1100
0000
0001
0100
0010
0000
,
0100
0000
0001
0000
0010
0100
1000
0000
0101
0000
1001
0000
1000
0010
0100
0000
,
0001
0000
1000
0000
0100
0010
0001
0000
0011
0000
1100
0000
0001
0010
0100
0000
,
0010
0000
0001
0000
1000
0010
0100
0000
0001
1000
0010
1000
0001
0010
0100
0000
,
0010
0000
0001
0000
1000
0100
0010
0000
1100
0000
1001
0000
0001
0100
0001
0000
,
1000
0000
0010
0000
1000
0001
0100
0000
1001
0000
0101
0000
1000
0010
0100
0000
,
0010
0000
1000
0000
0100
0010
0001
0000
1100
0000
1001
0000
0001
0010
0100
0000
,
0010
0000
0001
0000
1000
0010
0100
0000
0001
1000
0001
0100
0010
1000
0001
1000
,
0010
0100
0001
1000
0100
0010
0001
0010
0100
1000
0001
0100
0001
1000
0010
0000
,
0100
0000
0001
0000
0010
0100
1000
0000
0001
0100
0001
1000
0100
0010
0001
0000
,
1000
0000
0100
0000
1000
0010
0100
0000
0010
1000
0001
0010
0100
1000
0001
0000
,
0100
0000
0001
0000
1000
0100
0010
0000
0100
1000
0001
0010
0100
1000
0001
0000
,
0100
0000
0010
0000
1000
0001
1000
0000
0100
0010
0001
1000
0100
0010
0100
0000
,
1000
0000
0001
0000
0100
0001
1000
0000
0010
1000
0001
0100
0001
1000
0001
0000
,
0100
0000
0010
0000
1000
0100
0010
0000
0100
1000
0010
0100
0001
0010
0100
0000
,
0010
0000
0001
0000
1000
0100
0010
0000
0001
1000
0001
1000
0001
1000
0001
1000
,
0010
0100
0010
0100
0010
0100
0010
0100
2002
0000
0000
0000
0000
0000
3003
0000
,
2020
0000
0000
3030
2002
0000
0000
3003
,
0022
0000
0000
0000
0000
0000
0033
0000
1000
0010
0100
0001
1000
0010
1000
0001
,
0010
0100
1000
0001
0100
0001
1000
0010
1000
0001
0010
0100
1000
0010
0100
0001
,
1000
0100
0010
0001
0010
0000
1100
0000
0001
0000
1100
0000
0000
0000
0011
0000
,
1000
0101
0000
0110
1000
0101
0000
1001
,
1000
0000
0011
0000
0000
0000
1100
0000
0001
0100
0001
1000
0010
0100
0010
1000
,
0100
0010
0001
1000
0100
0010
0001
1000
0101
0000
0000
0000
0000
0000
0000
0000
,
0000
0000
1010
0000
,
0101
0000
1010
0000
,
1001
0000
0000
0001
0010
0100
1001
0000
0000
0000
0000
0000
;
