#TITLE:Jinjo Village;
#SUBTITLE:(Banjo Tooie);
#ARTIST:Rareware;
#TITLETRANSLIT:;
#SUBTITLETRANSLIT:;
#ARTISTTRANSLIT:;
#CREDIT:;
#BANNER:jv.png;
#BACKGROUND:jv-bg.png;
#LYRICSPATH:;
#CDTITLE:kykaCD.png;
#MUSIC:bt-jinjo village.mp3;
#OFFSET:-0.380;
#SAMPLESTART:38.720;
#SAMPLELENGTH:12.500;
#SELECTABLE:YES;
#BPMS:0.000=105.000;
#STOPS:;
#BGCHANGES:;
// cache tags:
#FIRSTBEAT:0.000;
#LASTBEAT:232.000;
#SONGFILENAME:Songs/toune 2/Jinjo Village/tooie.sm;
#HASMUSIC:1;
#HASBANNER:1;
#MUSICLENGTH:138.191;
// end cache tags

//---------------dance-single - ----------------
#NOTES:
     dance-single:
     :
     Beginner:
     1:
     0.140,0.147,0.000,0.065,0.000,126.000,0.000,9.000,0.000,0.000:
1000
0000
0001
0000
,
0100
0000
0010
0000
,
1000
0000
0001
0000
,
0100
0000
0010
0000
,
1000
0001
1000
0000
,
0010
0000
1000
0000
,
0001
0000
0100
0000
,
0010
0000
1000
0000
,
0001
0100
0001
0000
,
1000
0000
0010
0000
,
0100
0000
0002
0000
,
1003
0000
0010
0000
,
0100
0000
0001
0000
,
0010
0000
0001
0000
,
0100
0000
0020
0000
,
1030
0000
0001
0000
,
0100
0000
0010
0000
,
1000
0000
0001
0000
,
0010
0000
0001
0000
,
0100
0000
0010
0000
,
1000
0001
0010
0000
,
0001
0000
1000
0000
,
0001
0000
0100
0000
,
0010
0000
2000
3010
,
0100
0000
0001
0000
,
0010
0100
1000
0000
,
0010
0000
1000
0000
,
0001
0000
0200
0301
,
1000
0000
0001
0000
,
0100
0010
1000
0000
,
0001
0000
1000
0000
,
0001
0000
0200
0000
,
0310
0000
1000
0000
,
0001
0000
0100
0000
,
0010
0000
1000
0000
,
0001
0000
0200
0000
,
0301
0000
1000
0000
,
0001
0000
0100
0000
,
0010
0000
1000
0000
,
0100
0000
0020
0031
,
1000
0000
0010
0000
,
0100
0001
1000
0000
,
1000
0000
0001
0000
,
0100
0000
0010
0000
,
1000
0000
0001
0000
,
0010
0000
0001
0000
,
0100
0000
0010
0000
,
1000
0000
0001
0000
,
0100
0000
0001
0000
,
1000
0000
0001
0000
,
1000
0000
0001
0000
,
0100
0000
0020
0000
,
1030
0000
0001
0000
,
0100
0000
0001
0000
,
1000
0000
0001
0000
,
0010
0000
0200
0000
,
1300
0000
0010
0000
,
0100
0000
0001
0000
,
1000
0000
0000
0000
;

//---------------dance-single - ----------------
#NOTES:
     dance-single:
     :
     Easy:
     4:
     0.268,0.252,0.137,0.116,0.000,224.000,19.000,16.000,0.000,0.000:
0000
0001
0000
0000
0000
1000
0000
0000
,
0010
1000
0001
0200
,
0310
1000
0002
0000
,
0103
0001
1000
0001
,
1001
1001
1001
0000
,
0001
1000
0100
0020
,
0031
0100
0020
2030
,
3001
0100
0001
0010
,
0110
0110
0110
0000
,
1000
0100
0010
1000
,
0100
0000
0001
0000
1000
0001
0000
0000
,
0100
0010
1000
0001
,
0100
0001
1000
0100
,
0010
0001
0100
0010
,
1000
0000
0001
0000
0100
0001
0000
0000
,
1000
0010
0100
0001
,
0010
0001
0100
0001
,
1000
0001
0100
0020
,
1030
0001
0200
0320
,
1030
0001
0100
0001
,
1100
1100
1100
0000
,
0010
0000
0000
0100
0100
0000
0000
0001
,
0001
1000
0100
2000
,
3010
0100
0002
2003
,
3010
0100
0001
1000
,
0011
0011
0011
0000
,
1000
0010
0100
0002
,
1003
0001
0200
0320
,
1030
0001
0010
0001
,
0110
0110
1001
0000
,
1000
0001
0100
0001
,
1000
0000
0001
0000
1000
0100
0000
0000
,
0010
0001
0100
0001
,
1000
0100
0010
0001
,
0100
0010
1000
0100
,
1000
0000
0001
0000
0100
0100
0000
0000
,
0010
1000
0001
0100
,
0010
1000
0001
0100
,
0001
1000
0010
0200
,
0310
1000
0002
0100
,
1003
0100
0010
0001
,
1010
0110
1001
0000
,
0000
1000
0000
0001
0000
0100
0000
0001
,
0000
1000
0000
0100
0000
0010
0000
0001
,
0000
0100
0000
0001
0000
1000
0000
0100
,
0000
0010
0000
0001
0000
0100
0000
0010
,
0000
1000
0000
0001
0000
0100
0000
0010
,
0000
1000
0000
0010
0000
0100
0000
0001
,
0000
1000
0000
0001
0000
0100
0000
0010
,
0000
1000
0000
0100
0000
0010
0000
0001
,
1000
0001
0100
0001
,
1000
0000
0001
0000
0010
0010
0000
0000
,
0001
0010
0001
0100
,
0010
1000
0100
1000
,
0010
0100
0010
1000
,
0001
0000
0010
0000
0001
0001
0000
0000
,
0100
0010
1000
0100
,
1000
0010
0100
0001
,
1001
0000
0000
0000
;

//---------------dance-single - ----------------
#NOTES:
     dance-single:
     :
     Medium:
     7:
     0.386,0.336,0.166,0.014,0.000,348.000,23.000,2.000,0.000,0.000:
1000
1000
0000
0001
0001
0001
0000
0100
,
0010
1000
0010
1000
0010
0000
0110
0000
,
1000
0001
0100
0001
1100
0000
0000
0000
,
0010
1000
0001
0100
0001
0000
1001
0000
,
1000
0100
0010
0100
1000
0000
0000
0000
,
0001
1000
0010
0100
0010
0000
1100
0000
,
0001
0100
0001
0010
0001
0000
0100
0000
,
0001
1000
0100
0010
0001
0000
1100
0000
,
0010
1000
0001
0100
0101
0000
0000
1000
,
0010
0000
0100
0000
0010
1000
0010
0000
,
0100
0000
0001
0000
1000
0001
0000
0000
,
0100
0010
1000
0001
0100
0000
0010
1000
,
0010
0000
0100
0001
0010
0001
0100
0010
,
1000
0001
0100
0001
1000
1000
1000
0010
,
0100
0001
1000
0001
1000
0110
0000
0000
,
0001
0100
0010
1000
0100
0000
0010
0001
,
0100
0000
0010
1000
0100
0010
0100
1000
,
0010
1000
0001
0100
0001
0000
0011
0000
,
0100
0010
1000
0001
0100
0000
0001
0000
,
1000
0100
0010
0100
0010
0000
0011
0000
,
1000
0001
0010
0001
1100
0000
0000
0000
,
1000
0001
0001
1000
1000
0001
0001
1000
,
0001
0100
0010
1000
0100
0000
0110
0000
,
0001
0010
0001
1000
0200
0000
0310
0000
,
0010
0001
1000
0100
1000
0000
0110
0000
,
0010
1000
1000
0010
0101
0000
0000
0000
,
0001
1000
0100
1000
0010
0000
0110
0000
,
0001
0010
0001
1000
1100
0000
0110
0000
,
0001
1000
0100
0010
0001
0000
0101
0000
,
0010
1000
0100
0010
1100
0000
0000
1000
,
0010
0000
0100
0000
0001
1000
0001
0000
,
0100
0000
0010
0000
1000
0100
0000
0000
,
0010
0001
1000
0001
0100
0000
0010
1000
,
0100
0000
0100
1000
0010
0100
0001
1000
,
0001
0000
0100
0000
0010
1000
0100
0000
,
0010
0000
0001
0000
0100
0101
0000
0000
,
0010
1000
0100
1000
0010
0000
0100
0001
,
1000
0000
0001
1000
0010
1000
0010
0100
,
0010
1000
0001
0100
0001
0000
1100
0000
,
0010
1000
0100
1000
0002
0000
0103
0000
,
0010
1000
0100
0010
0001
0000
0101
0000
,
1000
0010
0100
0010
0110
0000
0000
0000
,
0001
1000
0000
0010
0000
0100
0000
0001
,
1000
0100
0000
0010
0000
0001
0000
0100
,
0010
1000
0000
0001
0000
0100
0000
0001
,
1000
0001
0000
0100
0010
1000
0001
0100
,
0001
1000
0000
0100
0000
0010
0000
0001
,
0100
0010
0000
1000
0000
0001
0000
0100
,
0001
1000
0000
0100
0000
0010
0000
0001
,
0100
0010
0000
1000
0001
0100
0001
1000
,
0001
1000
0100
0010
0001
0000
0100
0000
,
0010
1000
0010
0100
0010
1000
0000
0000
,
0001
0100
0001
1000
0001
0000
0100
0010
,
1000
0000
0010
0100
0001
1000
0010
0100
,
0001
1000
0100
1000
0010
0100
0010
0000
,
1000
0001
0100
0001
1000
0001
0000
0000
,
0100
0010
1000
0001
0100
0000
0001
1000
,
0100
0000
0010
0001
1000
0100
0010
0100
,
1001
0000
0000
0000
;

//---------------dance-single - ----------------
#NOTES:
     dance-single:
     :
     Hard:
     9:
     0.567,0.567,0.304,0.203,0.384,478.000,42.000,28.000,0.000,0.000:
0010
0011
0000
1000
0001
0011
0000
0110
,
1001
0000
0010
0000
0100
0000
1000
0000
0010
0000
0000
0100
0002
0000
0000
0000
,
1003
0010
1000
0100
2002
0000
0000
3003
,
0001
0000
0100
0000
0010
0000
0100
0000
0001
0000
0000
0100
0020
0000
0000
0000
,
1030
0001
0010
0001
0100
0010
1001
0000
0000
0000
0000
0000
,
0001
0000
0010
0000
0100
0000
0010
0000
0100
0000
0000
0001
0020
0000
0000
0000
,
0130
0000
1000
0000
0001
0000
0010
0000
0200
0000
0000
0000
0002
0000
0000
0303
,
1000
0000
0001
0000
0010
0000
0001
0000
0100
0000
0000
0010
2000
0000
0000
0000
,
3001
0000
0000
0000
0010
0000
0000
0000
1000
0000
0000
0000
0010
0000
0000
0000
0001
0000
0000
0000
0100
0000
0000
0000
1010
0000
0000
0000
0000
0000
0000
0000
0000
0000
0000
0000
0000
0000
0000
0000
0000
0000
0001
0000
0000
0010
0000
0000
,
0001
0000
0001
0100
0010
1000
0001
0000
0011
0000
0110
0000
1001
0000
0001
0010
,
0001
0000
0010
0001
0100
0010
1000
0000
0001
1000
0020
0000
0000
0000
0030
0000
,
0001
0000
0010
0000
0100
0000
1000
0000
0010
0000
0000
0100
0001
0000
0100
0000
,
0010
0000
0000
1000
0100
0000
1000
0000
0010
0000
0100
0000
0001
0000
1000
0000
,
0100
0000
1000
0010
0100
0001
0010
0000
0100
0000
1000
0000
1010
0000
0100
0001
,
0100
0000
1000
0010
0100
0001
0010
0000
0100
0001
0100
0000
0000
0000
0000
0000
,
1000
0000
0010
0000
0100
0000
0001
0000
0010
0000
0000
0100
1000
0000
0010
0000
,
0100
0000
0000
0001
0010
0000
0100
0000
1000
0000
0010
0000
0100
0000
0001
0000
,
1001
0000
0100
0000
0010
0000
0001
0000
0100
0000
0000
0010
2000
0000
0000
0000
,
3001
0100
0001
0010
2002
0000
0000
3003
,
1000
0000
0010
0000
0100
0000
0010
0000
1000
0000
0000
0010
0200
0000
0000
0000
,
0301
1000
0100
1000
0010
0100
1001
0000
0000
0000
0000
0000
,
1001
0010
0010
0110
1001
0001
0001
1010
,
1001
0000
0100
0000
0010
0000
0100
0000
0010
0000
0000
1000
0200
0000
0000
0000
,
0310
0000
0001
0000
1000
0000
0100
0000
0020
0000
0000
0000
0200
0000
0000
0330
,
0001
0000
1000
0000
0100
0000
1000
0000
0010
0000
0000
0100
0002
0000
0000
0000
,
1003
0100
0001
0100
1000
0010
0101
0000
0000
0000
0000
0000
,
0110
0000
0001
0000
1000
0000
0001
0000
1000
0000
0000
0100
0002
0000
0000
0000
,
1003
0000
0000
0010
0000
0000
0100
0000
0000
0001
0000
0000
2000
0000
0000
0000
0000
0000
0002
0000
0000
0000
3003
0000
,
0010
0000
0100
0000
0001
0000
0100
0000
1000
0000
0000
0001
0020
0000
0000
0000
,
0130
0000
0000
0000
0001
0000
0000
0000
0010
0000
0000
0000
0001
0000
0000
0000
0100
0000
0000
0000
1000
0000
0000
0000
0011
0000
0000
0000
0000
0000
0000
0000
0000
0000
0000
0000
0000
0000
0000
0000
0000
0000
1000
0000
0000
0010
0000
0000
,
1000
0000
1000
0010
0100
0001
1000
0000
1100
0000
0110
0000
1001
0000
1000
0010
,
1000
0000
0100
1000
0010
0100
0001
0000
1000
0001
0010
0000
0000
0000
0000
0000
,
1000
0000
0100
0000
0010
0000
0001
0000
0100
0000
0000
0010
1000
0000
0010
0000
,
0100
0000
0000
0001
0010
0000
0001
0000
0100
0000
0010
0000
1000
0000
0001
0000
,
0010
0000
0001
0100
0010
1000
0100
0000
0010
0000
0001
0000
0101
0000
0010
1000
,
0010
0000
0001
0100
0010
1000
0100
0000
0010
1000
0001
0010
1000
0010
0001
0010
,
1000
0000
0010
0000
0100
0000
0001
0000
0010
0000
0000
0100
1000
0000
0010
0000
,
0100
0000
0000
0001
0010
0000
0100
0000
1000
0000
0010
0000
0100
0000
0001
0000
,
1001
0000
0010
0000
0100
0000
1000
0000
0010
0000
0000
1000
0002
0000
0000
0000
,
0103
0000
0010
0000
1000
0000
0100
0000
2002
0003
0000
0000
0020
0000
3030
0000
,
0100
0000
0001
0000
0010
0000
0100
0000
1000
0000
0000
0010
2000
0000
0000
0000
,
3001
0000
0100
0000
0010
0000
1000
0000
0001
0000
1000
0000
0011
0000
0000
0000
0000
0000
0000
0000
0000
0011
0000
0000
,
1000
0000
0001
0010
0100
0000
1000
0000
1000
0100
0010
0000
0011
0000
0000
0000
,
0110
0000
1000
0001
1000
0000
1010
0000
0001
0010
0200
0000
0000
0300
0001
0000
,
0010
0000
0001
0100
0010
0000
1000
0000
1000
0010
0100
0000
0110
0000
0000
0000
,
1001
0000
0001
1000
0100
0000
1000
0000
0100
0000
0001
0000
1000
0000
0010
0000
,
0011
0000
1000
0100
0010
0000
0001
0000
0001
0010
0100
0000
1100
0000
0000
0000
,
0010
0000
0001
1000
0001
0000
0001
0000
1000
0100
0010
0000
0000
0000
1000
0000
,
0001
0000
1000
0010
0100
0000
0001
0000
0001
0100
0010
0000
0110
0000
0000
0000
,
0001
0000
1000
0001
0010
0000
0001
0000
0010
0000
1000
0000
0001
0000
0100
0000
,
1001
0000
1000
0010
0100
0001
1000
0000
1000
0000
0100
0000
1001
0000
1000
0010
,
1000
0000
0100
1000
0010
0100
0001
0000
1000
0001
0020
0000
0000
0000
0030
0000
,
1000
0000
0100
0000
0010
0000
0001
0000
0100
0000
0000
0010
1000
0000
0010
0000
,
0100
0000
0000
0001
0010
0000
0001
0000
0100
0000
0010
0000
1000
0000
0001
0000
,
0010
0000
0001
0100
0010
1000
0100
0000
0010
0000
0001
0000
0101
0000
0010
0100
,
0010
0000
0001
0100
0010
1000
0100
0000
0010
1000
0001
0100
1000
0100
0001
0100
,
1000
0000
0010
0000
0100
0000
0001
0000
0010
0000
0000
0100
1000
0000
0010
0000
,
0100
0000
0000
0001
0010
0000
0100
0000
1000
0000
0010
0000
0100
0000
0001
0000
,
1001
0000
0000
0000
;

//---------------dance-single - ----------------
#NOTES:
     dance-single:
     :
     Challenge:
     10:
     0.633,0.651,0.543,0.326,0.434,492.000,75.000,45.000,0.000,0.000:
1100
1100
0000
0101
1001
1100
0000
0110
,
1001
0000
0100
0000
0010
0000
0001
0000
0100
0000
0000
0010
2000
0000
0000
0000
,
3001
0100
0001
0010
2002
0000
0000
3003
,
1000
0000
0010
0000
0100
0000
0010
0000
1000
0000
0000
0010
0200
0000
0000
0000
,
0301
1000
0100
1000
0010
0100
1001
0000
0000
0000
0000
0000
,
1000
0000
0100
0000
0010
0000
0100
0000
0010
0000
0000
1000
0200
0000
0000
0000
,
0310
0000
0001
0000
1000
0000
0100
0000
0020
0000
0000
0000
2000
0000
0000
3030
,
0001
0000
1000
0000
0100
0000
1000
0000
0010
0000
0000
0100
0002
0000
0000
0000
,
1003
0000
0100
0000
0001
0000
0100
0000
1000
0000
0010
0000
0101
0000
0000
0000
0000
0000
0000
0000
0000
1000
0100
0010
,
0001
0000
0000
0000
0000
0000
1000
0000
0000
0010
0000
0000
0100
0000
0000
0001
0000
0000
1000
0000
0000
0000
0000
0000
1100
0000
0000
0000
0000
0000
0110
0000
0000
0000
0000
0000
1001
0000
0000
0000
0000
0000
0001
0000
0100
0000
0010
0000
,
1000
0000
0100
1000
0010
0100
0001
0000
1000
0001
0220
0000
0000
0000
0330
0000
,
1000
0000
0100
0000
0010
0000
0001
0000
0100
0000
0000
0010
1000
0000
0010
0000
,
0100
0000
0000
0001
0010
0000
0001
0000
0100
0000
0010
0000
1000
0000
0001
0000
,
0010
0000
0000
0000
0000
0000
0001
0000
0000
0100
0000
0000
0010
0000
0000
1000
0000
0000
0100
0000
0000
0000
0000
0000
0010
0000
0000
0000
0000
0000
0001
0000
0000
0000
0000
0000
0101
0000
0000
0000
0000
0000
0010
0000
1000
0000
0100
0000
,
0010
0000
0001
0100
0010
1000
0100
0000
0010
1000
2020
0000
0000
0000
0000
3030
,
0001
0000
0100
0000
0010
0000
1000
0000
0100
0000
0000
0010
0001
0000
0100
0000
,
0010
0000
0000
1000
0100
0000
0010
0000
0001
0000
0100
0000
0010
0000
1000
0000
,
1001
0000
0010
0000
0100
0000
1000
0000
0010
0000
0000
0100
0002
0000
0000
0000
,
1003
0010
1000
0100
2002
0000
0000
3003
,
0001
0000
0100
0000
0010
0000
0100
0000
0001
0000
0000
0100
0020
0000
0000
0000
,
1030
0001
0010
0001
0100
0010
1001
0000
0000
0000
0000
0000
,
1001
0100
0100
0110
1001
1000
1000
0101
,
1001
0000
0010
0000
0100
0000
0010
0000
0100
0000
0000
0001
0020
0000
0000
0000
,
0130
0000
1000
0000
0001
0000
0010
0000
0200
0000
0000
0000
0020
0000
0000
0330
,
1000
0000
0001
0000
0010
0000
0001
0000
0100
0000
0000
0010
2000
0000
0000
0000
,
3001
0010
1000
0010
0001
0100
1010
0000
0000
0000
0000
0000
,
0110
0000
1000
0000
0001
0000
1000
0000
0001
0000
0000
0010
2000
0000
0000
0000
,
3001
0000
0000
0100
0000
0000
0010
0000
0000
1000
0000
0000
0002
0000
0000
0000
0000
0000
2000
0000
0000
0000
3003
0000
,
0100
0000
0010
0000
1000
0000
0010
0000
0001
0000
0000
1000
0200
0000
0000
0000
,
0310
0000
1000
0000
0100
0000
1000
0000
0010
0000
0001
0000
1100
0000
0000
0000
0000
0000
0000
0000
0000
0001
0010
0100
,
1000
0000
0000
0000
0000
0000
0001
0000
0000
0100
0000
0000
0010
0000
0000
1000
0000
0000
0001
0000
0000
0000
0000
0000
0011
0000
0000
0000
0000
0000
0110
0000
0000
0000
0000
0000
1001
0000
0000
0000
0000
0000
1000
0000
0010
0000
0100
0000
,
0001
0000
0010
0001
0100
0010
1000
0000
0001
1000
0220
0000
0000
0000
0330
0000
,
0001
0000
0010
0000
0100
0000
1000
0000
0010
0000
0000
0100
0001
0000
0100
0000
,
0010
0000
0000
1000
0100
0000
1000
0000
0010
0000
0100
0000
0001
0000
1000
0000
,
0100
0000
0000
0000
0000
0000
1000
0000
0000
0010
0000
0000
0100
0000
0000
0001
0000
0000
0010
0000
0000
0000
0000
0000
0100
0000
0000
0000
0000
0000
1000
0000
0000
0000
0000
0000
1010
0000
0000
0000
0000
0000
0100
0000
0001
0000
0010
0000
,
0100
0000
0000
0000
0000
0000
1000
0000
0000
0010
0000
0000
0100
0000
0000
0001
0000
0000
0010
0000
0000
0000
0000
0000
0100
0000
0000
0001
0000
0000
1000
0000
0100
0000
0010
0000
0001
0000
0100
0000
0010
0000
1000
0000
0001
0000
0100
0000
,
0001
0000
0100
0000
0010
0000
1000
0000
0100
0000
0000
0010
0001
0000
0100
0000
,
0010
0000
0000
1000
0100
0000
0010
0000
0001
0000
0100
0000
0010
0000
1000
0000
,
1001
0000
0100
0000
0010
0000
0001
0000
0100
0000
0000
0001
2000
0000
0000
0000
,
3010
0000
0100
0000
0001
0000
0010
0000
2002
3000
0000
0000
0200
0000
0303
0000
,
0010
0000
1000
0000
0100
0000
0010
0000
0001
0000
0000
0100
0002
0000
0000
0000
,
1003
0000
0010
0000
0100
0000
0001
0000
1000
0000
0001
0000
1100
0000
0000
0000
0000
0000
0000
0000
0000
1100
0000
0000
,
0011
0000
1000
0100
0010
0000
0101
0000
0001
0010
0100
0000
2200
0000
0000
3300
,
0110
0000
0001
1000
0001
0000
0101
0000
1000
0100
0220
0000
0000
0330
1100
0000
,
0101
0000
1000
0010
0100
0000
0011
0000
0001
0100
0010
0000
0220
0000
0000
0330
,
1001
0000
1000
0001
0010
0000
0011
0000
0110
0000
1100
0000
0101
0000
0101
0000
,
1100
0000
0001
0010
0100
0000
1010
0000
1000
0100
0010
0000
0022
0000
0000
0033
,
0110
0000
1000
0001
1000
0000
1010
0000
0001
0010
0220
0000
0000
0330
0011
0000
,
1010
0000
0001
0100
0010
0000
1100
0000
1000
0010
0100
0000
0220
0000
0000
0330
,
1001
0000
0001
1000
0100
0000
1100
0000
0110
0000
0011
0000
1010
0000
1010
0000
,
1001
0000
0000
0000
0000
0000
0001
0000
0000
0100
0000
0000
0010
0000
0000
1000
0000
0000
0001
0000
0000
0000
0000
0000
0011
0000
0000
0000
0000
0000
0110
0000
0000
0000
0000
0000
1001
0000
0000
0000
0000
0000
1000
0000
0010
0000
0100
0000
,
0001
0000
0010
0001
0100
0010
1000
0000
0001
1000
0220
0000
0000
0000
0330
0000
,
0001
0000
0010
0000
0100
0000
1000
0000
0010
0000
0000
0100
0001
0000
0100
0000
,
0010
0000
0000
1000
0100
0000
1000
0000
0010
0000
0100
0000
0001
0000
1000
0000
,
0100
0000
0000
0000
0000
0000
1000
0000
0000
0010
0000
0000
0100
0000
0000
0001
0000
0000
0010
0000
0000
0000
0000
0000
0100
0000
0000
0000
0000
0000
1000
0000
0000
0000
0000
0000
1010
0000
0000
0000
0000
0000
0100
0000
0001
0000
0010
0000
,
0100
0000
0000
0000
0000
0000
1000
0000
0000
0010
0000
0000
0100
0000
0000
0001
0000
0000
0010
0000
0000
0000
0000
0000
0100
0000
0000
0001
0000
0000
1000
0000
0100
0000
0010
0000
0001
0000
0100
0000
0010
0000
1000
0000
0001
0000
0100
0000
,
0001
0000
0100
0000
0010
0000
1000
0000
0100
0000
0000
0010
0001
0000
0100
0000
,
0010
0000
0000
1000
0100
0000
0010
0000
0001
0000
0100
0000
0010
0000
1000
0000
,
1001
0000
0000
0000
;
