#TITLE:Heart of the Rainbow;
#SUBTITLE:Crystal Empire (2001);
#ARTIST:Freedom Call;
#TITLETRANSLIT:;
#SUBTITLETRANSLIT:;
#ARTISTTRANSLIT:;
#CREDIT:SulferDragon;
#BANNER:Heart of the Rainbow-banner.png;
#BACKGROUND:Heart of the Rainbow-bg.png;
#LYRICSPATH:;
#CDTITLE:!SulferDragon.png;
#MUSIC:Heart of the Rainbow.mp3;
#OFFSET:-0.160;
#SAMPLESTART:83.253;
#SAMPLELENGTH:13.880;
#SELECTABLE:YES;
#BPMS:0.000=78.500,24.000=111.000,25.000=156.990,161.000=78.500,177.000=157.000,249.000=78.500,296.000=157.000,362.000=156.400,366.000=157.000,373.000=155.000,377.000=157.000,466.000=78.500,482.000=157.000,550.000=127.000,552.000=114.000,554.000=105.000;
#STOPS:366.000=1.125
,377.000=1.130
;
#BGCHANGES:;
// cache tags:
#FIRSTBEAT:0.500;
#LASTBEAT:585.667;
#SONGFILENAME:Songs/KBU/Heart of the Rainbow (SulferDragon)/Heart of the Rainbow.sm;
#HASMUSIC:1;
#HASBANNER:1;
#MUSICLENGTH:276.610;
// end cache tags

//---------------dance-single - ----------------
#NOTES:
     dance-single:
     :
     Hard:
     11:
     1.000,1.000,1.000,0.405,1.000,1416.000,449.000,112.000,0.000,20.000:
0000
0000
0001
1000
0010
0100
1000
0001
0100
1000
0010
0100
1000
0010
0001
1000
,
0010
0100
1000
0001
0100
1000
0010
0100
1010
0000
0001
1000
0010
0100
1000
0001
,
0100
1000
0010
0100
1000
0010
0001
1000
0010
0100
1000
0001
0100
1000
0010
0100
,
1010
0000
0001
2100
0010
0001
0100
0010
0001
0010
0100
0001
0010
0100
0001
0100
,
0010
0001
0100
0010
0001
0010
0100
0001
3110
0000
0001
1010
0010
0001
1010
0010
,
1000
0000
0000
0000
0101
0000
0000
0000
0001
0000
0000
0000
1000
0000
0000
0000
0010
0100
0000
0000
0011
0000
0000
0000
1010
0000
0000
0000
1001
0000
0000
0000
0100
0000
0000
0000
0010
0000
0000
0000
1001
0000
0000
0000
0001
0000
0000
0000
0010
0000
0000
0000
1100
0000
0000
0000
1100
0000
0000
0000
1100
0000
0000
0000
,
0011
2001
0001
0000
,
0001
3020
1000
0230
,
0010
0302
0100
0023
,
0230
2300
0100
3020
,
1000
0000
0000
1130
0010
0010
0010
0010
0010
0100
0010
0010
,
0010
0010
0010
0100
0010
0010
0010
0010
0010
0100
1000
0001
,
0100
0010
1000
0020
0000
0000
1000
0000
0000
0000
0000
0000
,
1000
0230
0010
0302
,
0100
2003
0001
3200
,
0320
0032
0010
0203
,
0001
0000
0000
1301
0010
0010
0010
0010
0010
0100
0010
0010
,
0010
0010
0010
0100
0010
0010
0010
0010
0010
0100
1000
0001
,
0100
0000
0010
0000
1000
0000
0101
0000
0000
0000
0010
0000
2002
3003
0000
0000
0100
0000
0011
0000
0000
0000
0100
0000
,
2020
3030
0000
0000
0001
0000
1100
0000
0000
0000
0010
0000
0202
0303
0000
0000
1000
0000
0110
0000
0000
0000
0010
0000
,
2002
3003
0000
0000
0100
0000
1010
0000
0000
0000
0001
0000
0220
0330
0000
0000
1000
0000
0101
0000
0000
0000
0100
0000
,
0022
0033
0000
0000
1000
0000
1020
0000
0000
0000
0000
0000
1000
0000
0000
0000
0000
0000
0230
0000
0000
0000
0000
0000
,
0010
0000
0000
0000
0000
0000
1301
0000
0000
0000
0010
0000
2200
3300
0000
0000
0001
0000
0110
0000
0000
0000
1000
0000
,
0202
0303
0000
0000
0010
0000
1001
0000
0000
0000
0100
0000
2020
3030
0000
0000
0101
0000
0010
0000
0000
0000
1000
0000
,
0022
0033
0000
0000
1100
0000
0102
0000
0000
0000
0000
0000
0100
0000
0000
0000
1000
0000
2013
0000
0000
0000
0000
0000
,
0010
0000
0001
3101
0101
0101
0101
0101
0101
0101
0010
0010
,
0010
1000
1000
1002
0000
0000
0010
0000
0000
0000
0000
0000
,
0010
0203
0001
0320
,
0100
2030
0010
3002
,
0023
0230
0010
2300
,
0001
0000
0000
3101
0010
0010
0010
0010
0010
0100
0010
0010
,
0010
0010
0010
0100
0010
0010
0010
0010
0010
0100
1000
0001
,
0100
0000
0010
0000
1000
0000
0011
0000
0000
0000
0100
0000
2002
3003
0000
0000
0010
0000
1100
0000
0000
0000
0010
0000
,
0202
0303
0000
0000
1000
0000
0011
0000
0000
0000
0100
0000
2020
3030
0000
0000
0001
0000
0110
0000
0000
0000
0100
0000
,
2002
3003
0000
0000
0110
0000
0101
0000
0000
0000
1000
0000
0220
0330
0000
0000
0001
0000
1010
0000
0000
0000
0010
0000
,
2200
3300
0000
0000
0001
0000
0201
0000
0000
0000
0000
0000
0001
0000
0000
0000
0000
0000
0320
0000
0000
0000
0000
0000
,
0100
0000
0000
0000
0000
0000
1031
0000
0100
0000
0001
0000
2200
3300
0001
0000
0100
0000
1010
0000
0100
0000
0001
0000
,
0220
0330
0001
0000
0100
0000
0011
0000
1000
0000
0010
0000
0202
0303
0010
0000
1100
0000
0010
0000
1000
0000
0010
0000
,
2002
3003
0010
0000
1000
0000
2010
0000
0000
0000
0000
0000
0010
0000
0000
0000
0001
0000
3102
0000
0000
0000
0000
0000
,
0100
0000
1000
1013
0011
0010
0100
0100
0100
1001
0001
0001
,
1000
0000
1000
0000
1000
0000
0101
0000
0000
0110
1100
0110
0011
0000
0000
0000
0000
0000
0000
0000
0000
0000
0000
0000
,
0100
0000
0000
0000
0000
0000
1001
0000
0000
0110
0011
0110
1100
0000
0000
0110
1100
0110
0011
0000
0000
0011
0110
1100
,
0110
0011
0110
1100
0110
0011
1001
0000
0000
0110
0011
0110
1100
0000
0000
0000
0000
0000
0000
0000
0000
0000
0000
0000
,
0010
0000
0000
0000
0000
0000
1001
0000
0000
0110
1100
0110
0011
0000
0000
0110
0011
0110
1100
0000
0000
1100
0110
0011
,
0110
1100
0110
0011
0110
1100
1001
0000
0000
0000
0000
0000
0011
0000
0000
0000
0000
0000
0100
0000
0000
0000
0000
0000
,
1010
0000
0000
1001
1000
1000
0100
0100
0110
1001
0001
0001
,
0010
0010
0010
1001
0100
1000
0011
0000
0000
0010
0100
1000
,
0110
0000
0001
0100
0000
0000
1010
0000
0100
0001
0000
0000
,
1010
0100
0010
0001
0000
0000
1100
0010
0100
0001
0000
0001
,
0110
1000
0010
0100
0001
1000
0101
0000
0010
0100
1000
0001
,
1100
0010
1000
0110
0000
0000
0011
0000
1000
0100
0010
0001
,
0110
0000
1000
0100
0010
0001
1010
0000
0000
0010
0100
0001
,
1100
0010
1000
0001
0000
0000
0101
0000
0001
1000
0010
0100
,
1010
0000
0100
0001
0000
0000
0011
0000
0000
1000
0000
0000
,
1010
1010
1010
1001
0000
0010
1100
0000
1000
0001
0010
0100
,
0011
0000
1000
0010
0000
0000
0101
0000
0010
0100
1000
0001
,
1010
0000
0000
0100
0000
0000
1001
0000
0100
0001
0010
0100
,
1010
0100
0001
0010
0100
1000
0101
0000
0010
0100
0001
1000
,
0011
0100
0010
1001
0000
0000
1100
0000
0010
0100
0001
0010
,
1001
0000
0000
0001
0100
0010
1100
0000
0001
1000
0100
0010
,
0101
1000
0001
1010
0000
0000
1001
0010
0100
1000
0010
0100
,
0011
0000
0000
0000
1000
0000
1010
0000
0000
0100
0010
0000
0001
0000
1000
0010
0100
0000
0001
0000
1000
0010
1000
0000
,
0001
0000
0000
0000
0100
0000
0000
0000
0010
0000
0000
0000
1001
0000
0000
0100
0000
0000
0010
0000
0000
0001
0000
0000
1100
0000
0000
0001
0000
0000
0010
0000
0000
0100
0000
0000
1010
0000
0000
0001
0000
0000
0100
0000
0000
0010
0000
0000
,
0101
1000
0010
0100
1001
0100
0010
0001
1100
0001
0010
0100
1010
0001
0100
0010
,
0101
1000
0010
0100
1001
0100
0010
0001
1100
0001
0010
0100
1010
0001
0100
0010
,
0101
1000
0010
0100
1001
0100
0010
0001
1100
0001
0010
0100
1010
0001
0100
0010
,
0101
1000
0010
1000
0110
0110
0110
0000
0110
0110
0110
0000
0110
0110
0110
0000
,
0110
0110
0110
2002
3103
0000
0101
0101
0101
0000
0101
0101
0101
0000
0101
0101
,
0202
0000
0000
0303
1001
1001
1001
0000
1001
1001
1001
0000
1001
1001
1001
0000
,
1001
1001
1001
0220
1330
0000
1010
1010
1010
0000
1010
1010
1010
0000
1010
1010
,
2020
0000
0000
0000
3131
0000
0101
0000
1001
0100
1000
0000
1000
0000
1000
0000
1000
0000
1000
0000
1000
0000
1000
0010
1000
0000
1000
0000
1000
0000
1000
0000
,
1000
0000
1000
0000
1000
0001
1000
0000
0001
1000
0001
0000
0001
0000
0001
0000
0001
0000
0001
0000
0001
0000
0001
0100
0001
0000
0001
0000
0001
0000
0001
0000
,
0001
0000
0001
0000
0001
0000
0001
0000
0100
0010
0100
0000
0100
0000
0100
0000
0100
0000
0100
0000
0100
0000
0100
0001
0100
0000
0100
0000
0100
0000
0100
0000
,
0100
0000
0100
0000
0100
0010
0100
0000
1010
0100
0010
0000
0010
0000
0010
0000
1010
0000
1100
0000
0101
0000
0011
0000
1010
0000
1100
0000
0101
0000
0011
0000
,
1001
1010
1001
1010
1001
1010
1001
0010
0001
1100
0000
0000
,
0100
0010
0001
0110
0000
1000
0001
0100
0000
0101
0000
1000
,
0010
0100
0000
0101
0000
0001
1100
0010
1000
0011
0000
0100
,
0010
1000
0001
0110
0000
1000
0100
0010
0001
1010
0000
0001
,
0100
0010
1000
0011
0000
0000
0110
0000
0000
1100
0000
0001
,
0010
0100
1000
0110
0000
0001
0010
0100
1000
0101
0000
0000
,
0100
0010
1000
0011
0000
0000
0110
0000
0000
1010
0000
0010
,
0100
0001
1000
0101
0000
0010
1000
0000
0000
1100
0000
0000
,
0010
0100
0001
0110
1000
0010
1001
0000
0100
0011
0000
0001
,
1000
0100
0010
1100
0000
0001
0100
0010
0000
1010
0000
0100
,
0010
0001
1000
0101
0000
0000
0011
0100
0000
1001
0000
0010
,
1000
0100
0010
0101
0010
1000
0100
0010
0001
1010
0000
0100
,
0010
1000
0001
1100
0010
0100
1001
0000
0000
0011
1000
0010
,
0100
0001
0010
1001
0000
0001
1000
0010
0100
0011
0000
1000
,
0001
0010
0100
1010
0001
1000
0010
0000
0010
1001
0100
0010
,
0001
0000
0100
0000
0010
0000
1100
0000
0000
0000
0001
0000
0101
0000
0000
0000
0100
0000
1000
0010
0100
0000
0001
0000
,
0010
0100
1000
0000
0010
0000
0100
0001
0100
0000
0010
0000
2002
0000
0000
0000
0000
0000
0000
0000
0000
0000
0000
0000
,
0000
0000
0000
0000
0000
0000
0000
0000
0000
0000
0000
0000
0000
0000
0000
0000
0000
0000
0000
0000
0000
0000
0000
0000
0000
0000
0000
0000
0000
0000
0000
0000
3113
0000
0000
0000
0000
0000
0000
0000
0000
0000
0000
0000
0000
0000
0000
0000
1000
0001
0000
0000
0000
0000
0000
0000
1100
0000
0000
0000
0000
0000
0000
0000
,
0110
0000
0000
0000
0000
0000
0000
0000
0011
0000
0000
0000
0000
0000
0000
0000
0011
0000
0000
0000
0000
0000
0000
0000
0101
0000
0000
0000
0000
0000
0000
0000
1100
0000
0000
0000
0000
0000
0000
0000
1010
0000
0000
0000
0000
0000
0000
0000
0011
0000
0000
0000
0000
0000
0000
0000
1000
0001
0000
0000
0000
0000
0000
0000
,
0110
1001
2002
0000
0000
0000
0000
0000
,
0000
0000
3113
0010
1001
0001
0010
0110
,
1000
0001
1001
0100
0010
1010
0110
0101
,
1001
0010
0100
1100
0001
0100
0110
0110
,
0110
1002
0000
0000
0113
0100
0001
1001
,
0100
0000
0000
0000
0000
0000
0000
0000
1000
0000
0000
0000
0000
0000
0000
0000
1010
0000
0000
0000
0000
0000
0000
0000
0100
0000
0000
0000
0000
0000
0000
0000
0001
0000
0000
0000
0000
0000
0000
0000
1000
0001
0000
0000
0000
0000
0000
0000
1100
0000
0000
0000
0000
0000
0000
0000
0110
0000
0000
0000
0000
0000
0000
0000
,
0011
0100
0010
0110
1000
0001
0101
0101
,
0101
0000
0000
0000
0000
0000
0000
0000
0000
0000
0000
0000
0000
0000
0000
0000
0000
0000
0000
0000
0000
0000
0000
0000
2010
0000
0000
0000
0000
0000
0000
0000
0000
0000
0000
0000
0000
0000
0000
0000
0000
0000
0000
0000
0000
0000
0000
0000
0000
0000
0000
0000
0000
0000
0000
0000
0000
0000
0000
0000
0000
0000
0000
0000
0000
0000
0000
0000
0000
0000
0000
0000
0000
0000
0000
0000
0000
0000
0000
0000
0000
0000
0000
0000
0000
0000
0000
0000
0000
0000
0000
0000
0000
0000
0000
0000
3100
0000
0000
0000
0000
0000
0000
0000
0000
0000
0000
0000
0000
0000
0000
0000
0010
0000
0000
0000
0000
0000
0000
0000
0000
0000
0000
0000
0000
0000
0001
0000
0000
0000
0000
0000
0000
0000
0000
0000
0000
0000
0000
0000
0000
0000
0000
0000
0010
0000
0000
0000
0000
0000
0000
0000
0000
0000
0000
0000
0000
0000
0000
0000
0001
0000
0000
0000
0000
0000
0000
0000
0000
0000
0000
0000
0000
0000
0000
0000
0100
0000
0000
0000
0000
0000
0000
0000
0000
0000
0000
0000
0000
0000
0000
0000
,
0010
0100
0010
1000
0010
0001
0010
0001
0010
0100
0010
0100
,
2000
0000
0000
0000
0000
0000
3010
0100
0001
0100
0001
0010
,
0100
0010
0100
1000
0001
1000
0100
1000
0100
0010
0100
0010
,
0002
0000
0000
0000
0000
0000
1003
0100
1000
0100
0010
0100
,
1000
0100
1000
0100
0010
0100
1000
0100
1000
0100
0010
0100
,
0002
0000
0000
0000
0000
0000
0000
0000
0000
0000
0000
0000
0000
0000
0000
0000
0000
0000
0000
0000
0000
0000
0000
0000
0000
0000
0000
0000
0000
0000
0000
0000
0000
0000
0000
0000
0000
0000
0000
0000
0000
0000
0000
0000
0000
0000
0000
0000
0000
0000
0000
0000
0000
0000
0000
0000
0000
0000
0000
0000
0000
0000
0000
0000
0000
0000
0000
0000
0000
0000
0000
0000
0000
0000
0000
0000
0000
0000
0000
0000
0000
0000
0000
0000
0013
0000
0000
0000
0000
0000
0100
0000
0000
0000
0000
0000
2000
0000
0000
0000
0000
0000
0000
0000
0000
0000
0000
0000
0000
0000
0000
0000
0000
0000
0000
0000
0000
0000
0000
0000
0000
0000
0000
0000
0000
0000
0000
0000
0000
0000
0000
0000
0000
0000
0000
0000
0000
0000
0000
0000
0000
0000
0000
0000
3001
0000
0000
0000
0000
0000
0000
0000
0000
0000
0000
0000
0010
0000
0000
0000
0000
0000
0000
0000
0000
0000
0000
0000
0100
0000
0000
0000
0000
0000
0000
0000
1000
0000
0000
0000
0000
0000
0000
0000
0001
0000
0000
0000
0000
0000
0000
0000
,
0010
0000
0100
0000
0010
0000
0100
0000
0000
1000
0000
0000
0001
0000
0100
0000
0010
0000
0100
0000
0010
0000
0000
2000
0000
0000
0000
0000
0000
0000
3000
0000
0011
0000
0000
0000
1001
0000
0000
0000
0001
0000
0000
0000
0001
0000
0000
0000
,
1100
0000
0000
0000
0000
0000
0000
0000
0000
0000
0000
0000
0000
0000
0000
0000
1000
0000
0000
0000
0000
0000
0000
0000
0000
0000
0000
0000
0000
0000
0000
0000
1000
0000
0000
0000
0000
0000
0000
0000
0000
0000
0000
0000
0000
0000
0000
0000
0010
0000
0000
0000
0000
0000
0000
0000
0000
0000
0000
0000
0000
0000
0000
0000
0010
0000
0000
0000
0000
0000
0000
0000
0000
0000
0000
0000
0000
0000
0000
0000
0010
0000
0000
0000
0000
0000
0000
0000
0000
0000
1000
0000
0000
0000
0000
0000
0001
0000
0000
0000
0000
0000
0000
0000
0000
0000
0000
0000
0000
0000
0000
0000
0000
0000
0000
0000
0000
0000
0000
0000
0000
0000
0000
0000
0000
0000
0000
0000
0000
0000
0000
0000
0000
0000
0000
0000
0000
0000
0100
0000
0000
0000
0000
0000
0000
0000
0000
0000
0000
0000
0000
0000
0000
0000
0000
0000
0000
0000
0000
0000
0010
0000
0000
0000
0000
0000
0000
0000
0000
0000
0000
0000
0000
0000
0000
0000
0000
0000
0000
0000
0000
0000
0000
0000
0000
0000
0000
0000
0000
0000
0000
0000
,
0000
1000
0000
0000
0000
0000
0000
0000
0000
0000
0010
0000
0000
0000
0000
0000
0000
0000
0100
0000
0000
0000
0000
0000
0000
0001
0000
0000
0000
0000
0000
0000
0000
0000
1000
0000
0000
0000
0000
0000
0000
0000
0010
0000
0000
0000
0000
0000
,
0000
0200
0000
0000
0000
0000
0000
0000
0000
0000
0000
0000
0000
0000
0000
0000
0000
0000
0000
0000
0000
0000
0000
0000
0300
0000
0000
0000
0000
0000
0000
0000
0002
0000
0000
0000
0000
0000
0000
0000
0000
0000
0000
0000
0000
0000
0000
0000
0000
0000
0000
0000
0000
0000
0000
0000
0000
0000
0000
0000
0000
0000
0000
0000
,
1003
0020
0000
0000
0000
0000
0000
0000
0000
0000
0000
0000
0130
0001
0100
0001
0100
0001
0100
0010
0100
0010
0100
0010
,
1000
0010
1000
0010
1000
0010
1000
0001
1000
0001
1000
0001
0100
0000
0001
0000
0100
0000
0010
0000
0100
0000
1000
0000
,
0100
0010
0100
1000
0100
0010
0100
0001
0100
0010
0100
1000
,
0100
0010
0100
1000
0100
0010
0100
0001
0100
0010
0100
1000
,
0100
0000
0000
0000
0001
0000
0000
0000
0100
0000
0000
0000
0010
0000
0000
0000
0100
0000
0000
0000
1000
0000
0000
0000
0100
0000
0000
0001
0000
0000
0100
0000
0000
0010
0000
0000
0100
0000
0000
0010
0000
0000
1000
0000
0000
0010
0000
0000
,
0200
0000
0000
0000
0000
0000
0000
0000
0000
0000
0000
0000
1301
0000
0000
0110
0011
0110
1100
0000
0000
0000
0000
0000
,
0000
0000
0000
0000
0000
0000
0010
0000
0000
0000
0000
0000
1001
0000
0000
0110
1100
0110
0011
0000
0000
0110
0011
0110
,
1100
0000
0000
1100
0110
0011
0110
1100
0110
0011
0110
1100
1001
0000
0000
0110
1100
0110
0011
0000
0000
0000
0000
0000
,
0000
0000
0000
0000
0000
0000
0100
0000
0000
0000
0000
0000
1001
0000
0000
0110
0011
0110
1100
0000
0000
0110
1100
0110
,
0011
0000
0000
0011
0110
1100
0110
0011
0110
1100
0110
0011
1001
0000
0000
0000
0000
0000
1100
0000
0000
0000
0000
0000
,
0010
0000
0000
0101
0000
0000
1000
0000
0011
0101
0100
0100
,
1010
1000
1000
0010
0010
0010
1001
0100
1000
0011
0000
0000
,
0010
0100
1000
0110
0000
0001
1000
0010
0000
1010
0000
0001
,
0100
0010
0000
1010
0000
1000
0001
0100
0001
1100
0000
0010
,
0100
0001
1000
0110
0000
0001
0010
0100
1000
0101
0000
1000
,
0010
0100
0001
1100
0000
0000
0110
0000
0000
0011
0000
1000
,
0100
0010
0001
0110
0000
1000
0100
0010
0001
1010
0000
1000
,
0010
0100
0001
1100
0000
1000
0110
0000
0000
0101
0000
0100
,
0010
1000
0001
1010
0000
0100
0001
0000
0000
0011
0000
0000
,
0100
0010
1000
0110
0001
0100
1001
0000
0010
1100
0000
1000
,
0001
0010
0100
0011
0000
1000
0010
0100
0000
0101
0000
0010
,
0100
1000
0001
1010
0000
0000
0001
1000
0010
1001
0000
0100
,
0001
0010
0100
1010
0100
0001
0010
0100
1000
0101
0000
0010
,
0100
0001
1000
0011
0100
0010
1001
0000
0000
1100
0001
0100
,
0010
1000
0100
1001
0000
1000
0001
0100
0010
1100
0000
0001
,
1000
0100
0010
0101
1000
0001
1010
1010
1010
1010
1010
1010
,
1010
0000
0000
0000
1010
0000
0000
0000
1010
0000
0000
0000
1010
0000
0000
0000
1010
0000
0000
0000
1010
0000
0000
0000
2002
0000
0000
0000
0000
0000
0000
0000
0000
0000
0000
0000
0000
0000
0000
0000
0000
0000
0000
0000
0000
3003
0000
0000
,
0202
0000
0000
0000
0000
0000
0000
0000
0000
0000
0000
0000
0000
0000
0000
0000
0000
0000
0000
0000
0000
0303
0000
0000
2100
0000
0000
0000
0010
0000
0000
0000
0001
0000
0000
0000
0010
0000
0000
0000
0100
0000
0000
0000
0001
0000
0000
0000
,
0100
0010
0001
0010
0100
0001
0100
0010
0001
0010
0100
0001
,
0100
0010
0001
0100
0000
0000
3012
0100
1000
0100
0010
1000
,
0010
0100
1000
0100
0010
1000
0010
0100
1000
0100
0010
1000
,
0010
0000
0000
0000
0000
0000
0000
0000
0000
0000
0000
0000
0000
0000
0000
0000
0100
0000
0000
0000
0000
0000
0000
0000
0000
0000
0000
0000
0000
0000
0000
0000
1000
0000
0000
0000
0000
0000
0000
0000
0000
0000
0000
0000
0000
0000
0000
0000
0010
0000
0000
0000
0000
0000
0000
0000
0000
0000
0000
0000
0000
0000
0000
0000
0000
0000
0000
0000
0000
0000
0000
0000
0000
0000
0000
0000
0000
0000
0000
0000
0000
0000
0000
0000
0000
0000
0000
0000
0000
0000
0000
0000
0000
0000
0000
0000
1100
0003
0000
0000
0000
0000
0000
0000
0000
0000
0000
0000
0000
0000
0000
0000
0010
0000
0000
0000
0000
0000
0000
0000
0000
0000
0000
0000
0000
0000
0000
0000
0001
0000
0000
0000
0000
0000
0000
0000
0000
0000
0000
0000
0000
0000
0000
0000
1001
0000
0000
0000
0000
0000
0000
0000
0000
0000
0000
0000
0000
0000
0000
0000
0010
0000
0000
0000
0000
0000
0000
0000
0000
0000
0000
0000
0000
0000
0000
0000
1000
0000
0000
0000
0000
0000
0000
0000
0000
0000
0000
0000
0000
0000
0000
0000
,
1010
0100
0010
1100
0110
0011
1001
0010
0100
0101
0010
0100
,
1100
1100
1100
2002
0000
3103
0101
0010
0100
1100
0010
0001
,
0101
0010
0100
1010
0110
0101
1001
0100
0001
0011
0100
0010
,
2002
3003
2002
3003
2002
3003
0022
0000
0000
0000
0033
0000
0000
0000
0000
0000
0000
0000
0000
0000
0000
0000
0000
0000
;
