#TITLE:Final Destination;
#SUBTITLE:Super Smash Bros. Melee;
#ARTIST:Nintendo & Mr.M;
#TITLETRANSLIT:;
#SUBTITLETRANSLIT:;
#ARTISTTRANSLIT:;
#CREDIT:;
#BANNER:banner.JPG;
#BACKGROUND:final destination.jpg;
#LYRICSPATH:;
#CDTITLE:./CDTITLES/DANCE MANIA SPEED 9.PNG;
#MUSIC:53_-_final_destination.mp3;
#OFFSET:-0.259;
#SAMPLESTART:88.130;
#SAMPLELENGTH:12.000;
#SELECTABLE:YES;
#DISPLAYBPM:170.000;
#BPMS:0.000=257.000;
#STOPS:;
#BGCHANGES:;
// cache tags:
#FIRSTBEAT:4.500;
#LASTBEAT:768.500;
#SONGFILENAME:Songs/toune 2/cartoon/CARTOON HEROES (Speedy Mix).sm;
#HASMUSIC:1;
#HASBANNER:1;
#MUSICLENGTH:179.858;
// end cache tags

//---------------dance-double - ----------------
#NOTES:
     dance-double:
     :
     Easy:
     4:
     0.198,0.189,0.145,0.017,0.000,220.000,26.000,3.000,0.000,0.000:
00000000
00000000
00000000
00000000
,
00000000
00000000
00000000
00000000
,
00000000
00000000
00000000
00000000
,
00000000
00000000
00000000
00000000
,
10000000
00000000
10000000
01000000
,
00010000
00000000
00010000
00001000
,
00000100
00000000
00000100
00000010
,
00001000
00000001
00001000
00000001
,
00000200
00000000
00000000
00000300
,
00001000
00010000
00100000
10000000
,
00100000
00010000
00001000
00000100
,
00001000
00010000
01000000
10000000
,
01000000
00010000
00001000
00000010
,
00001000
00010000
01000000
00010000
,
00001000
00000010
00000100
00001000
,
00000010
00000010
00001001
00000000
,
00000100
00000100
00001000
00011000
,
00010000
00001000
00000100
00000001
,
00000100
00001000
00010000
00100000
,
00010000
00001000
00000010
00000001
,
00000010
00001000
00010000
01000000
,
00010000
00001000
00000010
00001000
,
00010000
01000000
00100000
10010000
,
10000000
01000000
00100000
00010000
,
00001000
00000100
00000010
00000110
,
00000100
00000010
00001000
00010000
,
01000000
00100000
00010000
00110000
,
01000000
00100000
10000000
01000000
,
00010000
00001000
00000010
00000011
,
00001000
00001000
00001001
00000100
,
00001000
00010000
00100000
01100000
,
10000000
00100000
01000000
00010000
,
00001000
00000010
00000100
00000110
,
00000010
00000100
00001000
00010000
,
00100000
01000000
00010000
01010000
,
00100000
01000000
10000000
00100000
,
00010000
00001000
00000100
00000101
,
00001000
00001000
00000001
00000001
,
00000100
00001000
00010000
00011000
,
00010000
00100000
10000000
00100000
,
00010000
00001000
00000100
00000110
,
00000100
00000001
00000010
00001000
,
00010000
00011000
01000000
01100000
,
10000000
01000000
00010000
00001000
,
00000010
00000001
00000010
00000110
,
00001000
00000001
00000100
00001000
,
00010000
00000000
00000000
00011000
,
00010000
00100000
00010000
00011000
,
00001000
00000010
00001000
00011000
,
00010000
00100000
10000000
01000000
,
00010000
00001000
00010000
00011000
,
00001000
00000010
00001000
00011000
,
00010000
00100000
00010000
00011000
,
00001000
00000010
00000001
00000100
,
00001000
00010000
00001000
00011000
,
00010000
00100000
10000000
10100000
,
10000000
01000000
00010000
01010000
,
00010000
00001000
00000100
00000010
,
00001000
00001000
00000001
00000001
,
00000100
00000100
00001000
00001000
,
00010000
01000000
10000000
00010000
,
20020000
00000000
00000000
30030000
;

//---------------dance-double - ----------------
#NOTES:
     dance-double:
     :
     Medium:
     7:
     0.269,0.292,0.434,0.017,0.000,258.000,78.000,3.000,0.000,0.000:
00000000
00000000
00000000
00000000
,
00000000
00000000
00000000
00000000
,
00000000
00000000
00000000
00000000
,
00000000
00000000
00000000
00000000
,
01000000
00000000
00100000
00000000
10000000
01000000
00010000
00000000
,
00001000
00000000
00010000
00000000
00000100
00000001
00000010
00000000
,
00000001
00000000
00000100
00000000
00001000
00010000
01000000
00000000
,
00010000
00000000
00001000
00000000
00000010
00000001
00000010
00001000
,
02000000
00000000
00000000
03000000
,
00100000
01010000
10010000
10100000
,
10000000
01000000
00010000
00001000
,
00000010
00001100
00001001
00000011
,
00000001
00000100
00001000
00010000
,
01000000
11000000
10010000
00110000
,
10000000
01000000
00100000
00001000
,
00010000
00000000
00010100
00000000
00001001
00000000
00000100
00000010
,
00000000
00010010
00000000
00011000
00000000
00100000
01000000
00000000
,
00010000
00001000
00000010
00000100
,
00001000
00000000
00010000
00100000
00000000
01000000
10000000
00000000
,
01000000
00100000
00010000
00001000
,
00000100
00000000
00000010
00000001
00000000
00001000
00000100
00000000
,
00000010
00000001
00001001
00000100
,
00001000
00010000
01100000
10010000
,
01000000
00110000
10010000
11000000
,
10000000
00100000
00010000
00001000
,
00000100
00001010
00001001
00000101
,
00000001
00000010
00001000
00010000
,
00100000
10100000
10010000
01010000
,
10000000
00100000
01000000
00001000
,
00010000
00000000
00010010
00000000
00001001
00000000
00000010
00000100
,
00000000
00010100
00000000
00011000
00000000
01000000
00100000
00000000
,
00010000
00001000
00000100
00000010
,
00001000
00000000
00010000
01000000
00000000
00100000
10000000
00000000
,
00100000
01000000
00010000
00001000
,
00000010
00000000
00000100
00000001
00000000
00001000
00000010
00000000
,
00000100
00000001
00001001
00000010
,
00001000
00010000
01100000
10010000
,
01000000
00010000
00001000
00011000
,
00000010
00000100
00000001
00000010
00001000
00000000
00011000
00000000
,
00010000
00100000
00010000
00000000
00100000
00000000
10100000
00000000
,
01000000
01010000
00100000
00101000
,
00001000
00000010
00001000
00000000
00000010
00000000
00000011
00000000
,
00001001
00010100
00011000
00110000
,
01000000
10000000
00100000
00000000
01000000
00000000
00101000
00000000
,
00010000
00010100
00001000
00000110
,
00000010
00000001
00001000
00000000
00000100
00000000
00000011
00000000
,
00000100
00000000
00001000
00010000
00000000
00000000
00011000
00000000
,
00010000
00100000
00010000
00001000
00000100
00000000
00000110
00000000
,
00000001
00000010
00000001
00000100
00001000
00000000
00011000
00000000
,
01100000
11000000
10010000
00101000
,
00011000
00010100
00000110
00000011
,
00001000
00000100
00010000
00001000
00100000
00000000
01100000
00000000
,
10000000
01000000
10000000
00100000
00010000
00000000
00011000
00000000
,
00000110
00000011
00001001
00010100
,
00011000
00101000
01100000
11000000
,
00100000
00010000
00001000
00000100
00000010
00000000
00001001
00000000
,
00000010
00001000
00010000
01000000
00100000
00000000
10010000
00000000
,
11000000
00110000
01001000
00011000
,
00010100
00000100
00000010
00000011
,
00000101
00000100
00000010
00010010
,
00001000
00010000
00001000
00000000
01000000
00100000
10000000
01000000
,
20020000
00000000
00000000
30030000
;

//---------------dance-double - ----------------
#NOTES:
     dance-double:
     :
     Hard:
     9:
     0.320,0.309,0.172,0.017,0.147,369.000,31.000,3.000,0.000,0.000:
00000000
00000000
00000000
00000000
,
00000000
00000000
00000000
00000000
,
00000000
00000000
00000000
00000000
,
00000000
00000000
00000000
00000000
,
00100000
00000000
00000000
00000000
10000000
00000000
00000000
01000000
00000000
00000000
00010000
00000000
00100000
00000000
00001000
00000000
,
00010000
00000000
00000000
00000000
00001000
00000000
00000000
00000100
00000000
00000000
00000001
00000000
00001000
00000000
00000010
00000000
,
00001000
00000000
00000000
00000000
00000001
00000000
00000000
00000100
00000000
00000010
00010000
00000000
00001000
00000000
00000000
00000000
,
00000010
00000000
00000001
00000000
00000100
00000000
00001000
00010000
00000000
00001000
01000000
00000000
00100000
00000000
10000000
00000000
,
02000000
00000000
00000000
03000000
,
00100000
00000000
00000000
00000000
11000000
00000000
00000000
00000000
00100000
00000000
01000000
00000000
00010000
00000000
00000000
00001000
,
00010000
00000000
01000000
10000000
00000000
00100000
00010000
00001000
,
00000010
00000000
00000000
00000000
00000110
00000000
00000000
00000000
00010000
00000000
00000100
00000000
00000010
00000000
00000000
00000001
,
00000100
00000000
00001000
00000100
00000000
00000001
00000010
00001000
,
00010000
00000000
01010000
00000000
00100000
10000000
01000000
00100000
,
00000000
00000000
00001000
00010000
00000000
00001000
00000100
00000001
,
00000001
00000100
00000000
00000000
00000100
00001000
00000000
00000000
00001000
00010000
00000000
00000000
01000000
00000000
01000000
00000000
,
00000000
01100000
00000000
00110000
00000000
10000000
01000000
00010000
,
01000000
00000000
10010000
00000000
00100000
00010000
00001000
00000000
,
00010000
00000000
00001000
00000100
00000000
00000010
00001000
00000001
,
00000100
00000000
00001010
00000000
00000100
00000001
00000010
00000000
,
00001000
00000000
00010000
00001000
00000000
01000000
00100000
10000000
,
01000000
00010000
00001000
00000000
00011000
00000000
00010000
01000000
,
00000000
00000000
00010000
00000000
00001000
00000000
00000000
00000000
00000010
00000100
00000010
00000000
00000001
00000000
00001001
00000000
,
00000100
00000000
00000000
00000000
00000011
00000000
00000000
00000000
00000100
00000000
00000010
00000000
00001000
00000000
00000000
00010000
,
00001000
00000000
00000010
00000001
00000000
00000100
00001000
00010000
,
01000000
00000000
00000000
00000000
01100000
00000000
00000000
00000000
00001000
00000000
00100000
00000000
01000000
00000000
00000000
10000000
,
00100000
00000000
00010000
00100000
00000000
10000000
01000000
00010000
,
00001000
00000000
00001010
00000000
00000100
00000001
00000010
00000100
,
00000000
00000000
00010000
00001000
00000000
00010000
00100000
10000000
,
10000000
00100000
00000000
00000000
00100000
00010000
00000000
00000000
00010000
00001000
00000000
00000000
00000010
00000000
00000010
00000000
,
00000000
00000110
00000000
00001100
00000000
00000001
00000010
00001000
,
00000010
00000000
00001001
00000000
00000100
00001000
00010000
00000000
,
00001000
00000000
00010000
00100000
00000000
01000000
00010000
10000000
,
00100000
00000000
01010000
00010000
00100000
00000000
10000000
01000000
,
00000000
00010000
00001000
00010000
00000000
00000010
00000100
00000001
,
00000010
00001000
00010000
00000000
00011000
00000000
00001000
00000010
,
00000000
00001000
00010000
00000000
01000000
00100000
10010000
00000000
,
11000000
00000000
01100000
00000000
00101000
00000000
00010000
00000100
,
00000000
00000010
00000001
00000000
00001000
00000100
00000011
00000000
,
00000001
00000000
00000100
00000000
00001000
00000000
00010000
00000000
00001000
01000000
00000000
01000000
00100000
00000000
10000000
00000000
,
01000000
00010000
00001000
00010000
00000000
01000000
10000000
00100000
,
00000000
00010000
00001000
00000100
00000001
00000000
00000010
00000001
,
00000100
00001000
00000000
00000000
00001000
00010000
00000000
00000000
00010000
00100000
00000000
00000000
00100000
01000000
00000000
00000000
,
10000000
00000000
01000000
00000000
00010000
00000000
00100000
00000000
01000000
00010000
00000000
00010000
00001000
00000000
00001000
00000000
,
00000010
00000001
00000100
00001000
00000000
00000100
00000001
00000010
,
00000000
00000001
00000010
00001000
00010000
01000000
10000000
00100000
,
01010000
00000000
00010000
10010000
00000000
00100000
01100000
00000000
,
01000000
00000000
00010000
00000000
00001000
00000000
00000010
00000000
00000001
00001000
00000000
00000000
00000100
00000000
00000010
00000000
,
00000001
00000000
00000100
00000000
00001000
00000000
00010000
00000000
00001000
01000000
00000000
00000000
00100000
00000000
10000000
00000000
,
01000000
00100000
00000000
00000000
00100000
00001000
00000000
00000000
00001000
00010000
00000000
00000000
00010000
00000100
00000000
00000000
,
00000100
00000010
00000000
00000000
00000010
00000001
00000000
00000000
00000001
00000100
00000000
00000000
00000100
00001000
00000000
00000000
,
00001000
00000000
00000100
00000000
00000001
00000000
00000010
00000000
00000100
00000010
00000000
00000000
00000001
00000000
00000100
00000000
,
00001000
00000000
00010000
00000000
00001000
00000000
00000100
00000000
00000010
00001000
00000000
00000000
00000001
00000000
00000100
00000000
,
00000001
00000010
00000000
00000000
00000010
00001000
00000000
00000000
00001000
00010000
00000000
00000000
00010000
01000000
00000000
00000000
,
01000000
00100000
00000000
00000000
00100000
00001000
00000000
00000000
00001000
00010000
00000000
00000000
00010000
00000100
00000000
00000000
,
00000010
00000001
00000100
00001000
00010000
00100000
00010000
00001000
,
00000100
00001000
00010000
01000000
10000000
00100000
10010000
00000000
,
00100000
00010000
00000000
00000000
00010000
00001000
00000000
00000000
00001000
00000100
00000000
00000000
00000100
00000001
00000000
00000000
,
00001000
00001000
00001000
00000000
00001100
00000000
00010010
00000000
,
00001000
00001000
00001000
00000000
01001000
00000000
00110000
00000000
,
00100000
00001000
00000000
00001000
00010000
00000000
00010000
00000100
00000000
00000100
00000010
00000000
00000001
00000000
00000001
00000000
,
00000220
00000000
00000000
00000330
;

//---------------dance-single - ----------------
#NOTES:
     dance-single:
     :
     Challenge:
     9:
     0.637,0.801,0.473,0.734,0.006,585.000,85.000,132.000,0.000,3.000:
0000
0000
0000
0000
,
0000
2020
0000
0000
0000
0000
3030
0100
,
0010
1000
0000
0000
0000
0000
2200
0000
,
0000
0000
0000
3301
0000
0010
2000
0000
,
0000
3000
0100
1000
0001
0000
0000
0000
,
1000
0100
1000
0100
1000
0100
1000
0000
,
0001
0000
0001
0010
0000
0011
0000
2200
,
0000
0000
0000
0000
3000
0300
1100
0010
,
0001
0020
0000
0000
0000
0000
0030
0100
,
1000
1100
0001
0000
0100
2000
0000
0000
,
0000
0000
0000
0000
0000
3000
0000
0100
,
0100
1000
0200
0000
0000
0000
0000
0000
,
0310
0001
0010
0001
0000
0000
0001
0200
,
0000
0000
0000
0000
0000
0000
0000
0300
,
1000
0000
1000
0100
0020
0000
0000
0000
,
0000
0030
0001
1000
0100
1000
0000
0100
,
2000
0000
0000
0000
,
0000
3000
0001
0000
0001
0010
0002
0000
,
0000
0000
0000
0003
1000
0100
1000
0100
,
0000
0100
2000
0000
0000
0000
0000
0000
,
3100
1000
0100
0000
2000
0000
0000
3001
,
0000
0010
0011
0000
0000
0100
1000
0100
,
1000
0000
0000
0000
0001
0010
0001
0010
,
0001
0000
0000
1100
,
0000
0011
0000
0000
1100
0000
0000
0011
,
0000
0000
1000
0000
0100
0010
0001
0000
,
0000
2200
0000
0000
0000
0000
0000
3300
,
0001
1000
0100
2000
0000
0000
0000
0000
,
3100
1100
1000
0000
,
0000
1000
0000
0000
1000
0100
0010
0000
,
0000
1001
0000
0000
0000
0100
0000
0000
,
0000
1000
0100
0000
1000
1000
0100
0000
,
0000
0000
0001
0000
0000
0010
0000
0100
,
1000
1100
0000
0001
,
0000
0000
0010
0000
0100
0000
1000
2200
,
0000
0000
0000
0300
3002
0000
0000
0000
,
2003
0000
0000
3000
0100
0000
1000
2100
,
0000
0000
0000
0000
0000
3100
0000
0110
,
0000
0010
0000
0001
2000
0000
0000
0000
,
0000
3000
1000
0000
0100
1000
2200
0000
,
0000
0000
3300
0001
0010
0022
0000
0000
,
0003
0130
1000
2200
0000
0000
0000
0300
,
3001
0010
0001
0010
0011
0000
0000
2200
,
0000
0000
0000
3000
1300
0001
1000
0100
,
0010
0001
0010
0100
0000
2200
0000
0000
,
0000
0000
0000
0000
,
0000
3300
1000
0000
0100
1000
0000
0100
,
0000
1000
0001
0000
1001
0000
1000
0000
,
0100
1000
0000
0100
0010
0000
0001
0000
,
0010
0100
0000
1000
0000
0100
1000
0000
,
0001
0000
1000
0100
0000
1000
0000
0001
,
0000
2000
0000
0000
0000
0000
0000
0000
,
0000
0000
3002
0000
,
0000
0000
0000
0000
,
0003
2000
0000
0000
0000
0000
0000
0000
,
0000
0000
3000
0220
,
0000
0000
0000
0000
,
0000
0000
0000
2330
0000
0000
0000
0000
,
0000
0000
0000
3000
,
0001
0000
1000
0100
,
0000
0000
1000
0000
0000
0001
0000
0000
,
1000
0000
0000
0100
0000
0000
0001
0000
,
0000
2000
0000
0000
0000
0000
0000
0000
,
0000
3002
0000
0000
0000
0000
0000
0003
,
1100
0000
0011
0000
0000
1100
0000
0000
,
1000
0100
1000
0000
0200
0000
0000
0000
,
0000
0300
1001
0000
0000
1000
0100
0000
,
1000
0100
0000
1000
0001
0010
0000
0001
,
0000
0000
0011
0000
0000
0011
0000
0000
,
2200
0000
0000
0000
,
3000
0300
0101
0000
0000
0000
0101
0000
,
0000
0101
0000
0000
0010
1000
0001
2000
,
0000
0000
0000
0000
0000
0000
0000
3000
,
0100
1000
0001
2200
0000
0000
0000
0000
,
0000
0000
0000
0300
3001
0000
0010
0000
,
2200
0000
0000
0000
,
0000
0000
0000
3300
0000
1100
0000
0000
,
1100
0000
0000
0011
0000
0000
0000
1000
,
0100
1000
0200
0000
0000
0000
0300
0011
,
0010
0000
0000
0100
1000
0100
0000
1000
,
0000
0000
0100
0010
0001
0010
0001
0000
,
0000
0100
0000
2200
0000
0000
0000
0000
,
0000
0000
0000
0000
,
3300
0202
0000
0000
0000
0000
0000
0000
,
0303
0000
0000
1000
1100
0000
0100
1000
,
0100
1000
1100
0100
0010
0000
0010
0000
,
0010
0011
0000
0000
0001
0000
0001
0000
,
1000
0001
1000
0001
1000
0001
0000
2000
,
0000
0000
0001
3000
1001
2000
0000
0000
,
0000
0000
0000
3000
0001
0000
0000
0001
,
0001
0000
0001
0001
0000
0000
0000
0000
,
2200
0000
0000
0000
0000
3300
0100
1002
,
0000
0000
0000
0000
0003
2000
0000
0000
,
0000
0000
3100
0001
0000
0000
0000
0000
,
1000
0100
1000
0000
0000
0000
0000
0010
,
0001
0010
0001
0010
0000
0011
0000
0000
,
1000
0000
1000
1000
0100
0010
0002
0000
,
0000
0000
0000
0000
1003
0000
1000
0100
,
0020
0000
0000
0000
0000
0030
0001
1000
,
0001
1000
0000
0001
2000
0000
0000
0000
,
0000
0000
3000
0010
,
0110
0020
0000
0000
0000
0000
0000
1030
,
0000
1001
0001
0000
0001
0001
2000
0000
,
0000
0000
0000
0000
0000
0000
3000
0100
,
0000
0100
0010
2000
0000
0000
0000
0000
,
0000
3001
0010
0001
0011
0000
0000
0012
,
0000
0000
0000
0000
0000
0000
0000
0003
,
0000
0100
0000
0100
0210
0000
0000
0000
,
0000
0000
0301
1000
0001
1000
0001
0000
,
1000
0002
0000
0000
0000
0000
0000
0003
,
1000
0100
1000
0200
0000
0000
0310
0001
,
0010
0002
0000
0000
0003
1000
0100
1000
,
0200
0000
0000
0310
0001
0010
0002
0000
,
0000
0000
0000
0003
2200
0000
0000
0000
,
0000
0000
3300
0022
0000
0000
0000
0000
,
0030
2203
0000
0000
0000
0000
3300
0010
,
0002
0000
0000
0000
0000
0003
1000
0000
,
1000
0100
0020
0000
0000
0000
0000
0030
,
0001
1000
0001
1000
0000
1000
0002
0000
,
0000
0000
0000
0003
,
1000
0000
1000
0100
0020
0000
0000
0000
,
0000
0030
1001
0001
1000
0001
0000
0001
,
0022
0000
0000
0000
,
0033
0001
0000
0001
1000
0020
0000
0000
,
0000
0000
0000
1030
0100
1000
0100
0000
,
0100
2000
0000
0000
0000
0000
0000
0000
,
0000
0000
3000
0010
0000
0010
0100
0020
,
0000
0000
0000
0000
0030
0001
1000
0001
,
0001
0000
0001
2000
0000
0000
0000
0000
,
0000
3100
1000
0001
0100
0002
0000
0000
,
0000
0003
1100
0000
2000
0000
0000
0000
,
3001
0010
0002
0000
0000
0000
0003
1000
,
0100
1000
0100
1000
0002
0000
0003
0200
,
0000
0000
0000
1300
0001
1000
0001
1000
,
0010
1000
0001
2002
0000
0000
0000
0000
,
0000
0000
0000
3003
,
1000
0100
0000
0010
0001
0010
0000
0100
,
1000
0000
0001
1000
0010
0000
0100
0001
,
0000
1000
0000
0010
1000
0000
0001
0100
,
0000
0010
1000
0000
0001
0100
0000
0010
,
1000
0000
0001
0100
0000
0010
1000
0000
,
0001
0000
0100
0010
0000
1000
0001
1000
,
0000
0100
2200
0000
0000
0000
0000
0000
,
0000
0000
0000
0000
0000
0000
0000
3000
,
0002
0000
0000
0000
,
0000
0000
0000
0303
0000
2200
0000
0000
,
0000
0000
0000
0000
0000
0000
0000
0300
,
3000
0000
0010
0001
2000
0000
0000
0000
0000
0000
0000
0000
0000
0000
3000
0000
,
0200
0000
0000
0302
0000
0000
0000
0203
,
0000
0000
2300
0000
,
0000
3002
0000
0000
2003
0000
0000
0000
,
0000
0000
0000
0000
0000
0000
3000
0202
,
0000
0000
0000
0000
,
0000
0303
1100
0000
,
1100
0000
0000
0000
1100
0000
0000
0010
,
0001
2000
0000
0000
,
3000
1100
0000
0000
0001
0010
0001
1000
,
0000
0000
0010
0001
0000
2000
0000
0000
,
0000
3100
0000
0000
0001
0000
0000
2200
,
0000
0000
0000
0000
0000
0000
0000
3300
,
0000
0101
0000
0000
0101
0000
0000
0101
,
0000
0000
0100
0000
0001
2000
0000
0000
,
0000
0000
0000
0000
,
3010
1000
0100
0000
2000
0000
0000
0000
0000
0000
0000
0000
0000
0000
0000
0000
,
0000
0000
0000
3000
0100
0001
0000
2010
,
0000
0000
0000
0000
,
0000
0000
3000
0000
1100
0000
0000
1100
,
0000
0000
0000
1100
0000
0000
0100
0001
,
0000
0020
0000
0000
0000
0000
0000
0000
,
0030
0000
0010
0001
0000
0010
0001
0000
,
0000
0010
0001
0010
0001
0000
0000
1000
,
0000
2200
0000
0000
,
0000
0000
0000
0000
0000
3300
0000
0101
,
0000
0000
0000
0000
,
1000
0000
0100
1000
0001
1000
0100
1000
,
0100
1001
0000
1000
0000
1000
1000
0100
,
0001
0000
0010
0000
0010
0000
0000
0010
,
0001
0010
0001
0010
0001
0010
0000
0020
,
0000
0000
0031
0010
0001
0020
0000
0000
,
0000
0000
0030
1000
0000
0000
1000
0100
,
1000
0002
0000
0000
0000
0000
0000
0000
,
0103
1000
0000
0000
0000
0010
0001
0020
,
0000
0000
0000
0000
0030
1100
0000
0000
,
0000
0010
0001
2000
0000
0000
0000
0000
,
3010
0001
2000
0000
0000
0000
3010
0001
,
0000
0011
0000
0010
0001
0011
0000
1000
,
1000
0000
1100
1000
0002
0000
0000
0000
,
0000
0000
0003
0010
0000
0010
0001
0020
,
0000
0000
0000
0000
0030
0001
0010
0001
,
0010
0000
0010
0002
0000
0000
0000
0000
,
0000
0000
0000
0003
1000
0000
1000
0100
,
2000
0000
0000
3001
,
0010
0001
0000
0000
0000
0000
0000
0000
;
