#TITLE:Starlight;
#SUBTITLE:BPM is 123.45 hurr;
#ARTIST:Macgravel;
#TITLETRANSLIT:;
#SUBTITLETRANSLIT:;
#ARTISTTRANSLIT:;
#CREDIT:;
#BANNER:starlight-bn.jpg;
#BACKGROUND:starlight-bg.jpg;
#LYRICSPATH:;
#CDTITLE:cdtitle.png;
#MUSIC:Starlight.mp3;
#OFFSET:-0.032;
#SAMPLESTART:100.000;
#SAMPLELENGTH:12.000;
#SELECTABLE:YES;
#BPMS:0.000=123.450;
#STOPS:;
#BGCHANGES:;
// cache tags:
#FIRSTBEAT:0.000;
#LASTBEAT:304.500;
#SONGFILENAME:Songs/Hard Songs Megapack Volume 9/Starlight/Starlight.sm;
#HASMUSIC:1;
#HASBANNER:1;
#MUSICLENGTH:149.768;
// end cache tags

//---------------dance-single - ----------------
#NOTES:
     dance-single:
     :
     Challenge:
     14:
     1.000,1.000,1.000,0.000,1.000,862.000,566.000,0.000,90.000,175.000:
1011
0100
0000
0100
0000
0100
0000
0100
,
0001
0100
0000
0100
0000
0100
0000
0100
,
0010
0000
0100
0000
0000
0000
0100
0000
0000
0000
0100
0000
0000
0000
1100
1000
,
1100
0000
0100
0000
0000
0000
0100
0000
1000
0000
0100
1000
0001
0000
1100
0000
,
1010
0000
0010
1000
0001
0000
1010
0000
0000
0000
1010
0000
0001
0000
1010
0000
,
1001
0000
0100
1000
0010
0000
1100
0000
0000
0000
1100
0000
1010
0000
0101
0000
,
1100
0000
1000
0100
0001
0000
1100
0001
0000
0001
1100
0000
0010
0000
1100
0000
,
0101
0000
1000
0100
0010
0000
1100
0000
0001
0000
1100
0000
0011
0010
1110
0010
,
1111
0000
0000
1000
00M0
0000
1001
0000
00M0
1100
0000
0000
0011
0000
0M00
0000
0000
0000
11M1
0000
0000
1000
0000
0000
1M00
0000
0000
1000
0000
0000
11M1
0000
0000
1000
0000
0000
1010
0000
0000
0001
0000
0000
1110
0000
0000
0000
0000
0000
,
1100
1000
1001
1100
0011
0000
1101
1000
1000
1000
1101
1000
1010
0001
0110
0000
,
0101
0000
0000
0100
0000
0000
0110
0000
0000
0101
0000
0000
1010
0000
0000
0000
0000
0000
0111
0000
0000
1100
0000
0000
0100
0000
0000
1100
0000
0000
0111
0000
0000
0100
0000
0000
110M
0000
0000
0010
0000
0000
1101
0000
00M0
0000
0000
0000
,
M101
0000
0000
0100
0000
0000
M110
0000
0000
0101
0000
0000
1010
0000
0M00
0000
0000
0000
M111
0000
0000
0100
0000
0000
01M0
0000
0000
0100
0000
0000
M111
0000
0000
0100
0000
0000
101M
0000
0000
0100
00M0
0000
1001
0000
0M00
0001
0000
0000
,
1101
1010
1001
1100
0111
0001
1110
1000
1100
1010
1101
1000
0111
0101
1010
0000
,
0111
0001
0011
1101
1010
0100
1011
0101
1001
0101
0011
0001
1101
0010
1100
0000
,
1101
0110
0101
0110
1011
0010
1101
0100
1100
0110
1101
0100
0111
1001
0110
0000
,
1110
0010
1010
0111
1001
0100
1011
0010
0110
0010
1010
0010
0111
1000
0110
0010
,
1110
1001
1010
1100
0111
0001
1110
1000
1100
1010
1101
1000
1011
0101
1110
0000
,
0111
0010
0011
1110
0101
1000
0111
0010
0110
0010
1010
0010
1110
0001
0100
0000
,
1011
0000
0000
0000
0000
0000
0000
0000
0000
0000
0000
0000
0110
0000
0000
0000
0000
0000
0000
0000
0000
0000
0000
0000
0011
0000
0000
0000
0000
0000
0000
0000
0000
0000
0000
0000
1010
0000
0000
0000
0000
0000
0000
0000
0000
0000
0000
0000
1101
0000
0000
0000
0000
0000
0000
0000
0000
0000
0000
0000
0001
0000
0000
0000
0000
0000
0000
0000
0000
0000
0000
0000
1110
0000
0000
0000
0000
0000
0000
0000
0000
0000
0000
0000
0011
0000
0000
0000
0000
0000
0000
0000
0000
0000
0000
0000
1010
0000
0000
0000
0000
0000
0000
0000
0000
0000
0000
0000
0111
0000
0000
0000
0000
0000
0000
0000
0000
0000
0000
0000
1011
0000
0000
0000
0000
0000
0M00
0000
0000
0000
0000
0000
0010
0000
0000
0000
0000
0000
0000
0000
0000
0000
0000
0000
1011
0000
0000
0000
0000
0000
0000
0000
0000
0000
0000
0000
0101
0000
0000
0000
0000
0000
0000
0000
0000
0000
0000
0000
1011
0000
0000
0000
0000
0000
0000
0000
0M00
0000
0000
0000
0000
0000
0000
0000
0000
0000
0000
0000
0000
0000
0000
0000
,
1101
0000
00M0
0100
0000
0000
1110
0000
0000
0101
M000
0000
0010
0000
0M00
0001
0000
0000
1110
0000
000M
0100
0000
0000
M110
0000
0000
0100
00M0
0000
0101
0000
M000
0100
0000
0000
110M
0000
0000
0010
0M00
0000
1001
0000
00M0
0000
0000
0000
,
1111
1000
1100
1010
0101
0000
1110
1000
1000
1000
1110
1000
1001
0100
1011
0000
,
1011
1000
1100
1010
0101
0000
1110
1001
1000
1001
1110
1000
1001
0100
1011
0000
,
1101
0001
0101
1001
0110
0000
1101
0001
0001
0001
1101
0001
0101
0010
0101
0000
,
1011
0001
0101
1001
0110
0000
1101
0001
0001
0001
1101
0001
0101
0010
1101
1000
,
1110
0100
0110
1100
0011
0000
1110
0100
0100
0100
1110
0100
0101
0010
1101
0000
,
1101
0100
0110
1100
0011
0000
1110
0100
0100
0100
1110
0100
1011
1000
0011
0000
,
1110
0000
0000
0010
0000
0000
1010
0000
0000
0110
0000
0000
1001
0000
0000
0000
0000
0000
1110
0000
0000
0011
0000
0000
0010
0000
0M00
0011
0000
0000
1110
0000
0000
0010
M000
0000
0111
0000
0000
1000
0000
0000
0111
0000
M000
0000
0000
0000
,
111M
0000
0000
0010
0000
0000
101M
0000
0000
0110
0000
0000
1001
0000
0M00
0000
0000
0000
111M
0000
0000
0010
0000
0000
0M11
0000
0000
0000
0000
0000
111M
0000
0000
0000
0000
0000
M111
0000
0000
0001
0000
0000
1111
0000
0000
0001
0000
0000
,
1111
0000
0000
00M0
0000
0000
010M
0000
0000
M000
0000
0000
0M11
0000
0000
0000
M000
0000
0000
0000
00M0
0000
0000
0000
1M01
0000
0000
0000
0000
0000
00M0
0000
0000
0000
0000
0000
0M01
0000
0000
0000
0000
0000
0000
0000
0000
0000
0000
0000
,
1100
0010
1001
0000
1100
0000
1000
0000
,
1100
0010
0101
0000
1100
0000
0100
0000
,
1010
0100
0011
0000
1010
0000
0010
0000
,
1001
0110
0011
0010
1001
0010
0001
0010
,
1100
0110
1001
0100
1100
0100
1000
0100
,
1100
1010
0101
1000
1100
1000
0100
1000
,
1010
0101
0011
0001
1010
0001
0010
0001
,
1111
1110
0111
1010
1011
0010
0001
1010
,
1110
1110
1011
1100
1101
0100
1000
0110
,
1110
1011
1101
1010
1101
1000
0100
1010
,
1110
1101
0111
1001
1011
0001
0010
0101
,
1011
1110
0111
1010
1011
0010
0001
1010
,
1110
1110
1011
1100
1101
0100
1000
0110
,
1110
1011
1101
1010
1101
1000
0100
1010
,
1110
1101
0111
1001
1011
0001
0010
0101
,
1110
0000
0110
0010
0101
0000
1000
1000
0110
0000
0010
0000
0100
0000
1000
0000
,
0101
0000
0011
0000
0001
0010
0000
0000
1001
0010
0010
0001
0100
0100
0001
1000
,
1100
0000
0110
0010
1001
0000
0100
0100
1010
0000
0001
0000
0100
0000
1000
0000
,
1100
0000
0110
0000
0010
0001
0000
0000
1010
0100
0100
0010
1000
1000
0010
0001
,
0101
0000
1010
1000
0011
0000
0010
0010
1100
0000
1000
0000
0010
0000
0001
0000
,
1100
0000
0110
0000
0001
1000
0000
0000
1010
0100
0100
1000
0010
0010
1000
0001
,
1001
0000
0000
0000
0000
0000
0110
0000
0000
0100
0000
0000
0011
0000
0000
0000
0000
0000
1000
0000
0000
1000
0000
0000
0110
0000
0000
000M
0000
0000
0100
0000
M000
0000
0000
0000
0001
0000
0000
0000
0M00
0000
0010
0000
0000
0000
0000
0000
,
110M
0000
0000
0000
0000
0000
M110
0000
0000
0000
0000
0000
0M01
0000
0000
0010
M000
0000
0000
0000
0M00
0000
0000
0000
101M
0000
0000
01M0
0000
0000
010M
0000
0000
M010
0000
0000
1M00
0000
0000
10M0
0000
0000
0M10
0000
0000
0001
0000
0000
,
1001
1010
1100
1100
0011
0101
1010
1010
1100
1010
1001
1000
1010
0101
1010
0000
,
0101
0100
0011
1100
0001
1000
0101
0100
0011
1100
1100
0011
1100
1001
0110
1001
,
1001
0101
0011
0011
1100
0110
1001
1001
0011
0101
1001
0001
1001
0110
1001
0000
,
1100
1000
0011
1100
0001
0110
1001
1000
0011
1100
1100
0011
1100
0110
1001
0110
,
0110
1010
0011
0011
1100
0101
1010
1010
0110
0011
1010
0010
0011
1100
0011
0000
,
1010
1000
0110
1001
0010
0101
1010
1000
0101
1010
1010
0101
1100
0110
1010
0101
,
0101
0011
1001
1001
0110
1010
0101
0101
0011
1001
0101
0001
1001
0110
1001
0000
,
1100
1000
0101
1010
0100
0011
1100
1000
0011
1100
1100
0011
1100
0110
1001
0110
,
0111
1100
0101
1101
1110
0011
1110
1100
0101
1100
0111
0100
1101
0011
1110
0000
,
1101
0001
1010
1101
1010
0100
1011
0001
1010
0101
0111
1010
1101
0110
1001
0110
,
1110
0011
1010
1110
0111
1001
1110
0111
1010
0111
1110
0010
0111
1001
1110
0000
,
1101
0100
1010
1101
0110
1001
1110
0100
1010
0101
1101
1010
0111
1001
0111
1011
,
1011
1100
1010
1110
0111
0011
1110
1100
1001
1010
1101
1000
1110
0101
1011
0000
,
1110
0100
1001
0111
1100
0011
1101
0110
0011
1110
1101
0011
1101
1001
1110
0011
,
0111
1010
0110
1110
1011
1100
0111
0011
1010
0110
1011
0010
0111
1001
0110
0000
,
1101
0100
0011
1110
0101
1010
1101
0100
1011
0101
0111
1010
0111
1001
1110
1011
,
1111
0110
1010
0101
1010
0100
1000
1100
,
1010
1001
0110
1001
0011
0001
0010
0101
,
1100
0101
1010
0101
1001
0001
1000
1001
,
1100
1010
0101
1010
0110
0010
1100
0011
,
0001
0101
1000
0110
0001
0100
0000
0110
,
0010
0110
1000
0110
0001
0010
0000
0110
,
0100
0000
0000
1100
0000
0000
0010
0000
0000
1100
0000
0000
00M1
0000
0000
1000
0M00
0000
0000
0000
M000
0001
0000
0000
,
0M10
0000
M010
0000
010M
0000
10M0
0M00
001M
M000
00M0
00M0
M0M0
0MMM
MM1M
0MMM
,
M0M0
00M0
00M0
0000
0000
0000
0000
0000
0000
0000
0000
0000
0000
0000
0000
0000
;

//---------------dance-single - Copied from----------------
#NOTES:
     dance-single:
     Copied from:
     Edit:
     15:
     1.000,1.000,1.000,0.000,1.000,910.000,589.000,0.000,89.000,264.000:
1011
1000
0100
0010
0100
1000
0100
0001
0010
1000
0100
0010
1000
0010
0100
1000
,
0011
1000
0100
0001
0010
1000
0100
0010
1000
0001
0100
0010
1000
0010
0100
1000
,
0011
1000
0100
0001
0010
1000
0100
0010
0001
1000
0100
0010
0001
0010
1100
1001
,
1110
0001
0100
1000
0010
1000
0100
0001
1010
0001
0100
1010
0101
0010
1100
0001
,
1010
0000
0010
1000
0001
0000
1010
0000
0000
0000
1010
0000
0001
0000
1010
0000
,
1001
0000
0100
1000
0010
0000
1100
0000
0000
0000
1100
0000
1010
0000
0101
0000
,
1100
0000
1000
0100
0001
0000
1100
0001
0000
0001
1100
0000
0010
0000
1100
0000
,
0101
0000
1000
0100
0010
0000
1100
0000
0001
0000
1100
0000
0011
0010
1110
0010
,
1111
0000
0000
1000
00M0
0000
1001
0000
00M0
1100
0000
0000
0011
0000
0M00
0000
0000
0000
11M1
0000
0000
1000
0000
0000
1M00
0000
0000
1000
0000
0000
11M1
0000
0000
1000
0000
0000
1010
0000
0000
0001
0000
0000
1110
0000
0000
0000
0000
0000
,
1100
1000
1001
1100
0011
0000
1101
1000
1000
1000
1101
1000
1010
0001
0110
0000
,
0101
0000
0000
0100
0000
0000
0110
0000
0000
0101
0000
0000
1010
0000
0000
0000
0000
0000
0111
0000
0000
1100
0000
0000
0100
0000
0000
1100
0000
0000
0111
0000
0000
0100
0000
0000
110M
0000
0000
0010
0000
0000
1101
0000
00M0
0000
0000
0000
,
M101
0000
0000
0100
0000
0000
M110
0000
0000
0101
0000
0000
1010
0000
0M00
0000
0000
0000
M111
0000
0000
0100
0000
0000
01M0
0000
0000
0100
0000
0000
M111
0000
0000
0100
0000
0000
101M
0000
0000
0100
00M0
0000
1001
0000
0M00
0001
0000
0000
,
1101
1010
1011
1100
0111
0001
1111
1000
1100
1010
1111
1000
0111
0101
1011
0000
,
0111
0001
1011
1101
1010
0100
1111
0101
1001
0101
1011
0001
1101
0010
1101
0000
,
1101
0110
1101
0110
1011
0010
1111
0100
1100
0110
1111
0100
0111
1001
0111
0000
,
1110
0010
1110
0111
1001
0100
1111
0010
0110
0010
1011
0010
0111
1000
0111
0010
,
1110
1001
1011
1100
0111
0001
1111
1000
1100
1010
1111
1000
1011
0101
1111
0000
,
0111
0010
1011
1110
0101
1000
1111
0010
0110
0010
1011
0010
1110
0001
1100
0000
,
1011
0110
0111
1010
1101
0001
1111
0011
1010
0111
1111
0M10
1011
0101
1111
00M0
,
1101
0000
00M0
0100
0000
0000
1110
0000
0000
0101
M000
0000
0010
0000
0M00
0001
0000
0000
1110
0000
000M
0100
0000
0000
M110
0000
0000
0100
00M0
0000
0101
0000
M000
0100
0000
0000
110M
0000
0000
0010
0M00
0000
1001
0000
00M0
0000
0000
0000
,
1111
1000
1100
1010
0101
0000
1110
1000
1000
1000
1110
1000
1001
0100
1011
0000
,
1011
1000
1100
1010
0101
0000
1110
1001
1000
1001
1110
1000
1001
0100
1011
0000
,
1101
0001
0101
1001
0110
0000
1101
0001
0001
0001
1101
0001
0101
0010
0101
0000
,
1011
0001
0101
1001
0110
0000
1101
0001
0001
0001
1101
0001
0101
0010
1101
1000
,
1110
0100
0110
1100
0011
0000
1110
0100
0100
0100
1110
0100
0101
0010
1101
0000
,
1101
0100
0110
1100
0011
0000
1110
0100
0100
0100
1110
0100
1011
1000
0011
0000
,
1110
0000
0000
0010
0000
0000
1010
0000
0000
0110
0000
0000
1001
0000
0000
0000
0000
0000
1110
0000
0000
0011
0000
0000
0010
0000
0M00
0011
0000
0000
1110
0000
0000
0010
M000
0000
0111
0000
0000
1000
0000
0000
0111
0000
M000
0000
0000
0000
,
111M
0000
0000
0010
0000
0000
101M
0000
0000
0110
0000
0000
1001
0000
0M00
0000
0000
0000
111M
0000
0000
0010
0000
0000
0M11
0000
0000
0000
0000
0000
111M
0000
0000
0000
0000
0000
M111
0000
0000
0001
0000
0000
1111
0000
0000
0001
0000
0000
,
1111
0000
0000
00M0
0000
0000
010M
0000
0000
M000
0000
0000
0M11
0000
0000
0000
M000
0000
0010
0000
000M
0000
0000
0000
1M01
0000
0000
0000
0000
0000
00M0
0000
0000
0000
0000
0000
0M01
0000
0000
0000
0000
0000
0000
0000
0000
0000
0000
0000
,
1101
0010
1001
0001
1100
0000
1000
0000
,
1101
0010
0101
0001
1100
0000
0100
0000
,
1011
0100
0011
0010
1010
0000
0010
0000
,
1101
0110
0011
0010
1101
0010
0001
0010
,
1101
0110
1001
0100
1110
0100
1000
0100
,
1101
1010
0101
1000
1110
1000
0100
1000
,
1011
0101
0011
0001
1110
0001
0010
0001
,
1111
1110
0111
1010
1111
0010
0001
1010
,
1111
1110
1011
1100
1111
0100
1000
0110
,
1111
1011
1101
1010
1111
1000
0100
1010
,
1111
1101
0111
1001
1111
0001
0010
0101
,
1111
1110
0111
1010
1111
0010
0001
1010
,
1111
1110
1011
1100
1111
0100
1000
0110
,
1111
1011
1101
1010
1111
1000
0100
1010
,
1111
1101
0111
1001
1111
0001
0010
0101
,
1110
0000
0110
0010
1001
0000
1100
1000
0110
0000
0010
0000
0100
0000
1010
0000
,
0101
0000
0011
0000
0001
0010
0100
0000
1001
0010
0010
0001
0100
0100
0011
1000
,
1010
0000
0110
0010
1001
0000
0110
0100
1010
0000
0001
0000
0100
0000
1010
0000
,
1100
0000
0110
0000
0010
0001
0100
0000
1010
0100
0100
0010
1000
1000
0110
0001
,
0101
0000
1010
1000
0011
0000
0110
0010
1100
0000
1000
0000
0010
0000
0101
0000
,
1100
0000
0110
0000
0001
1000
0100
0000
1010
0100
0100
1000
0010
0010
1100
0001
,
1001
0000
0000
0000
0000
0000
0110
0000
0000
0100
0000
0000
0011
0000
0000
0000
0000
0000
1100
0000
0000
1000
0000
0000
0110
0000
0000
000M
0000
0000
0100
0000
M000
0000
0000
0000
0001
0000
0000
0000
0M00
0000
1010
0000
0000
0000
0000
0000
,
110M
0000
0000
0000
0000
0000
M110
0000
0000
0000
0000
0000
0M01
0000
0000
0010
M000
0000
0100
0000
00M0
0000
0000
0000
101M
0000
0000
01M0
0000
0000
010M
0000
0000
M010
0000
0000
1M00
0000
0000
10M0
0000
0000
0110
0000
0000
0001
0000
0000
,
1111
1010
1100
1110
1011
0101
1110
1010
1100
1010
1101
1000
1011
0101
1110
0000
,
1101
0100
0011
1110
0101
1000
0111
0100
0011
1100
1101
0011
1110
1001
0110
1001
,
1011
0101
0011
1011
1101
0110
1011
1101
0011
1101
1011
0001
1101
0110
1011
0000
,
1110
1000
0011
1110
1001
0110
1101
1000
0011
1100
1110
0011
1101
0110
1101
0111
,
0111
1010
0011
0111
1110
0101
1011
1010
0110
0011
1110
0010
1011
1100
0111
0000
,
1110
1000
0110
1101
1010
0101
1110
1010
0101
1011
1110
0101
1101
0110
1110
0101
,
1101
0011
1001
1011
1110
1010
1101
0101
0011
1001
0111
0001
1101
0110
1001
0000
,
1110
1000
0111
1010
0100
0011
1101
1000
0011
1100
1110
0011
1100
0110
1011
0110
,
1111
1100
0111
1101
1110
0011
1111
1100
0101
1100
1111
0100
1101
0011
1111
0000
,
1101
0001
1110
1101
1010
0100
1111
0001
1010
0101
1111
1010
1101
0110
1101
0110
,
1110
0011
1011
1110
0111
1001
1111
0111
1010
0111
1111
0010
0111
1001
1111
0000
,
1101
0100
1011
1101
0110
1001
1111
0100
1010
0101
1111
1010
0111
1001
1111
1011
,
1011
1100
1011
1110
0111
0011
1111
1100
1001
1010
1111
1000
1110
0101
1111
0000
,
1110
0100
1011
0111
1100
0011
1111
0110
0011
1110
1111
0011
1101
1001
1111
0011
,
0111
1010
0111
1110
1011
1100
1111
0011
1010
0110
1111
0010
0111
1001
1110
0000
,
1101
0100
1011
1110
0101
1010
1111
0100
1011
0101
1111
1010
0111
1001
1111
1011
,
1111
0110
1010
0101
1010
0100
1000
1100
,
1010
1001
0110
1001
0011
0001
0010
0101
,
1100
0101
1010
0101
1001
0001
1000
1001
,
1100
1010
0101
1010
0110
0010
1100
0011
,
0001
0101
1000
0110
0001
0100
0000
0110
,
0010
0110
1000
0110
0001
0010
0000
0110
,
0100
0000
0000
1100
0000
0000
0010
0000
0000
1100
0000
0000
00M1
0000
0000
1000
0M00
0000
0000
0000
M000
0001
0000
0000
,
0M10
0000
M010
0000
010M
0000
10M0
0M00
001M
M000
00M0
00M0
M0M0
0MMM
MM1M
0MMM
,
M0M0
00M0
00M0
0000
0000
0000
0000
0000
0000
0000
0000
0000
0000
0000
0000
0000
;
