#TITLE:Open Your Mind;
#SUBTITLE:;
#ARTIST:Beautiful Day;
#TITLETRANSLIT:;
#SUBTITLETRANSLIT:;
#ARTISTTRANSLIT:;
#CREDIT:;
#BANNER:OYM-bn.png;
#BACKGROUND:openyourmind-bg.png;
#LYRICSPATH:;
#CDTITLE:!reachTitle.png;
#MUSIC:Song.mp3;
#OFFSET:-1.290;
#SAMPLESTART:42.937;
#SAMPLELENGTH:12.000;
#SELECTABLE:YES;
#BPMS:0.000=144.000,97.000=72.000,109.000=144.000;
#STOPS:;
#BGCHANGES:;
// cache tags:
#FIRSTBEAT:0.000;
#LASTBEAT:297.000;
#SONGFILENAME:Songs/Fabulously Fresh Flock of Fantastic Files F5/(Reach) Open Your Mind/OYM.sm;
#HASMUSIC:1;
#HASBANNER:1;
#MUSICLENGTH:133.015;
// end cache tags

//---------------dance-single - Copied from----------------
#NOTES:
     dance-single:
     Copied from:
     Hard:
     12:
     1.000,1.000,1.000,0.293,1.000,772.000,203.000,39.000,0.000,0.000:
1000
0010
0100
0010
0001
0000
0000
0000
0000
0000
1001
0000
0000
0000
0000
0000
,
0000
0000
1001
0000
1001
0101
0000
0101
,
0010
0000
0011
0000
1001
0000
0000
0000
0000
0000
0110
0000
1001
0000
1000
0010
,
0000
0010
0001
0000
1010
0000
0100
0010
0000
0001
0010
0000
0101
0000
1000
0010
,
1000
0100
0001
0010
0001
0000
0000
0001
0000
0000
0100
0000
0100
0000
0000
0100
,
0000
0000
0100
0000
1001
0000
0010
0100
0000
1000
0101
0000
0010
0000
1010
0101
,
0000
0000
1001
0000
0101
1000
0010
1000
0010
1000
0010
1000
0001
1000
0001
1000
,
0001
1000
0001
1000
0012
0000
0100
0000
0010
0000
0100
0000
0010
0000
0100
0000
,
0010
0100
2003
0000
0000
3100
0000
0000
,
0000
0000
0000
0000
0001
0000
0000
0010
0000
0000
0100
0000
0000
0000
1000
0000
,
0110
0000
0011
0000
1001
0010
0100
1000
0001
0100
0010
1000
0001
0010
0100
1000
,
0001
0100
0010
1000
0002
0000
0010
0000
0100
0000
1000
0000
0100
0000
0010
0000
,
0100
0000
1000
0100
0023
0000
0000
0000
1030
0100
0010
0001
1000
0001
0100
0010
,
1000
0100
0010
0001
1000
0001
0100
0010
1000
0100
0010
0001
1000
0001
0010
0100
,
0010
0001
1000
0100
0010
0100
0010
0100
0010
0100
0010
0100
0001
0100
0001
0100
,
0001
0100
0001
0100
0002
0000
0010
0000
0100
0000
1000
0000
0100
0000
0010
0000
,
0100
0000
1000
0100
0013
0000
1100
0000
0110
0000
1001
0010
1001
0000
0010
1001
,
0000
0010
1100
0000
0101
0000
1000
0101
0000
1000
0101
0000
0110
0000
0001
0110
,
0000
1000
0101
0000
1010
0000
0000
1010
0000
0000
0101
0000
0101
0000
1000
0101
,
0000
0010
1100
0000
0101
0000
1000
0101
0000
0010
0101
0000
0110
0000
1000
0101
,
0000
0010
1100
0001
1010
0000
0000
1010
0000
0000
1010
0000
0101
0000
0010
1100
,
0000
0010
0101
0000
1010
0000
0000
1010
0000
0000
1010
0000
0101
0000
0010
1100
,
0000
1000
0110
0000
0101
0000
0000
0101
0000
0000
0101
0000
1000
0101
0000
0101
,
0000
0000
0101
0000
0011
0000
0110
0000
1000
0100
0000
0001
0100
0001
1000
0001
,
1000
0001
0100
0010
1001
0100
0000
0001
0000
0000
0000
0000
0100
0010
0000
0001
,
0000
0001
0010
0100
1000
0010
0000
1000
0000
0000
0000
0000
0100
0010
0000
0001
,
0000
0000
0100
0000
0010
0000
1000
0000
0101
0000
0000
0000
0000
0000
1000
0000
1000
0000
0000
0001
0000
0000
1000
0000
0000
0000
0100
0000
0010
0000
0000
0000
,
0001
0000
0000
0010
0000
0000
0001
0000
0010
0000
0100
0000
0010
0000
0100
0000
0010
0000
1000
0000
0010
0000
1000
0000
0010
0000
0100
0000
0010
0000
0100
0000
,
0010
1000
0010
1000
0020
0000
0100
0000
1000
0000
0001
0000
1000
0000
0100
0000
,
1000
0100
0031
0100
1001
0000
1100
0000
0110
0000
0011
0000
0011
0000
1000
0000
,
0010
0100
0011
1001
1100
0110
0110
0101
,
1010
0101
0100
0011
1100
0110
0011
1000
,
0010
0100
1001
1100
0110
0011
0011
1001
,
1000
0010
0100
0010
0001
0000
1100
0000
0110
0000
0011
0000
0011
0000
1000
0000
,
0001
1000
0101
1010
0110
0011
0011
0101
,
1010
0101
0010
1100
0101
0011
0011
0001
,
1000
0000
0001
0000
0110
0000
1100
0010
0001
1000
0010
0000
0001
0010
0100
1000
,
0010
0100
0001
1000
0021
0000
0100
0000
0001
0000
2030
0000
0000
0000
3001
0100
,
0001
0000
1000
0010
0200
0000
1000
0000
0010
0000
0302
0000
1000
0000
0010
0000
,
0100
0000
0010
0000
2003
0000
0100
0000
0010
0000
3002
0000
0000
0000
0013
1000
,
0100
0000
0010
0001
2000
0000
0010
0000
3200
0000
0000
0000
0302
0000
0000
0000
,
0023
0000
0000
0000
0230
0000
1000
0000
0010
0000
0302
0000
1000
0000
0013
1000
,
0100
0000
1000
0001
0020
0000
1000
0000
0001
0000
0230
0000
0000
0000
0000
0000
,
0010
0001
2300
0000
0010
0000
0001
0100
,
0001
0000
3010
0000
0101
0000
0000
0101
0000
0000
1001
0010
0100
1000
0001
0100
,
0010
1000
0001
0010
0100
0000
1100
0000
1100
0000
1100
0000
1100
0000
0000
1001
,
0000
0000
1001
0000
0000
0000
0101
0000
0101
0000
0101
0000
0101
0000
0000
1001
,
0110
0000
1001
0100
1001
0000
1100
0000
1100
0000
1100
0000
1100
0000
0000
1001
,
0000
0000
1001
0000
1001
0000
0101
1000
0010
0000
0101
0010
1000
0000
0100
0001
,
1000
0010
0100
0001
1000
0000
0110
0000
0110
0000
0110
0000
0110
0000
0011
1100
,
0000
1100
0011
0000
0000
0000
1010
0000
1010
0000
1010
0000
1010
0000
0110
1001
,
0000
1001
0110
0000
1100
0001
0100
0010
1000
0001
0100
0001
1000
0010
1000
0010
,
0100
0001
1000
0010
1100
0001
0100
1010
0100
0010
1100
0001
1000
0001
0200
0000
,
1300
0010
0100
0010
0001
0000
1010
0000
0101
0000
0011
0000
0011
0000
1000
0010
,
0100
0000
0001
1000
0101
0000
0110
0000
1100
0000
0011
0000
0011
0000
1010
0000
,
0101
0000
1010
0000
1002
0000
0000
0000
0013
1000
0010
0100
0010
1000
0010
0100
,
0010
1000
0010
0100
0010
1000
0100
0010
0001
1000
0010
0100
0001
1000
0100
0010
,
0001
1000
0010
0100
0002
0000
0000
0000
1003
0001
0100
0001
1000
0001
0100
0001
,
1000
0001
0100
0001
1000
0001
0100
0001
1000
0001
0010
0001
0010
0100
1000
0001
,
0010
0001
0010
0100
2000
0000
0000
0000
3001
0100
0010
0100
0001
1000
0010
1000
,
0001
1000
0100
1000
0001
0100
0010
0000
1001
0000
0010
1000
0001
1000
0100
0010
,
0001
0010
0100
0010
1001
0000
1010
0000
0101
0000
1010
0000
2002
3003
0010
0100
,
0010
0000
0101
0000
2002
3003
1100
0000
0011
0000
1100
0000
2002
3003
0110
0000
,
1001
0000
0110
0000
1001
0100
0010
0100
0001
0100
0010
0100
0001
0010
0100
1000
,
0001
0100
0010
1000
0001
0100
0001
0100
0010
1000
0010
1000
0001
0010
0001
0010
,
1000
0100
1000
0100
1001
0000
0101
0000
1010
0000
0101
0000
2002
3003
0100
0010
,
0100
0000
1100
0000
2002
3003
1010
0000
0101
0000
1010
0000
2002
3003
0011
0000
,
1100
0000
0011
0000
1001
0100
0010
0001
1000
0010
0100
0001
1000
0100
0010
0001
,
1000
0001
1000
0010
1000
0100
1000
0100
1000
0010
1000
0010
1000
0001
0100
0001
,
0010
0001
1000
0001
1010
0100
0010
0100
0010
0001
0010
0100
1000
0010
0100
0010
,
0001
0010
0100
0010
1001
0100
1000
0100
0010
0100
0010
0100
1000
0100
0010
0100
,
0010
0100
1000
0010
1001
0010
0100
0010
0001
0010
0100
0010
1000
0010
0100
0010
,
0001
0100
0010
0100
1000
0010
0100
0001
1000
0010
1000
0001
0100
0010
0100
0001
,
1000
0010
0100
0010
2002
0000
0000
0000
0000
0000
0000
0000
0000
0000
0000
0000
,
0000
3003
0000
0000
;
