#TITLE:Kasta Sten;
#SUBTITLE:;
#ARTIST:Slagsmalklubben;
#TITLETRANSLIT:;
#SUBTITLETRANSLIT:;
#ARTISTTRANSLIT:;
#CREDIT:FLX! Synch by DNL!;
#BANNER:KastaSten-BN.png;
#BACKGROUND:KastaSten-BG.png;
#LYRICSPATH:;
#CDTITLE:;
#MUSIC:Kasta Sten.ogg;
#OFFSET:-0.023;
#SAMPLESTART:62.399;
#SAMPLELENGTH:19.900;
#SELECTABLE:YES;
#DISPLAYBPM:100.000:200.000;
#BPMS:0.000=199.683,2.000=199.668,3.000=199.683,4.000=199.668,6.000=199.683,7.000=199.668,9.000=199.412,10.000=199.924,19.000=199.879,20.000=199.623,21.000=199.638,22.000=199.623,23.000=199.638,24.000=199.623,25.000=199.638,26.000=199.623,27.000=199.638,28.000=199.623,29.000=199.412,30.000=200.698,31.000=200.713,32.000=200.698,33.000=200.713,34.000=200.698,35.000=200.713,36.000=200.698,37.000=200.713,38.000=200.698,39.000=200.683,40.000=198.395,49.000=198.291,50.000=200.121,59.000=200.060,60.000=200.318,69.000=200.212,70.000=199.924,79.000=199.879,80.000=200.896,89.000=200.850,90.000=199.157,99.000=199.082,100.000=200.030,109.000=199.894,110.000=200.409,119.000=200.363,120.000=200.515,129.000=200.379,130.000=199.548,131.000=199.563,132.000=199.548,133.000=199.563,134.000=199.548,135.000=199.563,136.000=199.548,137.000=199.563,138.000=199.548,139.000=199.412,140.000=201.094,149.000=201.018,150.000=199.924,159.000=199.879,160.000=198.768,169.000=198.753,170.000=199.924,179.000=199.879,180.000=200.318,189.000=200.212,190.000=199.924,199.000=199.879,200.000=199.924,209.000=199.879,210.000=199.924,219.000=199.879,220.000=199.924,224.000=99.962,226.000=99.951,227.000=99.774,228.000=99.777,229.000=99.774,230.000=99.777,231.000=94.221,232.000=94.224,233.000=94.221,234.000=94.217,235.000=103.440,236.000=103.671,237.000=103.659,238.000=105.150,239.000=106.668,240.000=108.004,241.000=110.076,242.000=111.849,243.000=111.863,244.000=114.973,246.000=118.532,247.000=119.615,248.000=118.943,249.000=123.489,250.000=123.934,251.000=124.982,252.000=126.204,253.000=129.344,254.000=128.878,255.000=131.839,256.000=132.174,257.000=134.759,258.000=136.181,259.000=137.084,260.000=138.346,261.000=142.174,262.000=143.757,263.000=143.159,264.000=144.764,265.000=147.237,267.000=150.452,268.000=150.538,269.000=153.240,270.000=154.963,271.000=154.502,272.000=158.529,273.000=160.529,274.000=160.841,275.000=163.001,276.000=164.195,277.000=164.850,278.000=167.521,280.000=168.342,281.000=171.696,282.000=174.228,283.000=176.459,284.000=177.560,285.000=177.596,286.000=179.135,287.000=180.074,288.000=181.494,289.000=183.916,290.000=184.944,291.000=187.036,292.000=188.960,293.000=189.786,294.000=189.827,295.000=194.287,296.000=196.131,298.000=197.773,299.000=198.678,300.000=198.723,301.000=199.924,302.000=199.638,303.000=199.683,305.000=199.623,307.000=199.683,308.000=199.563,309.000=199.924,312.000=199.879,313.000=199.924,322.000=199.879,323.000=199.924,332.000=199.890;
#STOPS:;
#BGCHANGES:;
// cache tags:
#FIRSTBEAT:16.000;
#LASTBEAT:338.500;
#SONGFILENAME:Songs/SSSC PACK/[FLX!] - Kasta Sten/Kasta Sten.sm;
#HASMUSIC:1;
#HASBANNER:1;
#MUSICLENGTH:113.449;
// end cache tags

//---------------dance-single - FLX!----------------
#NOTES:
     dance-single:
     FLX!:
     Challenge:
     13:
     1.000,1.000,0.881,0.132,0.696,716.000,100.000,15.000,51.000,0.000:

0000
0000
0000
0000
,
0000
0000
0000
0000
,
0000
0000
0000
0000
,
0000
0000
0000
0000
,
0001
0000
1000
0000
0001
0000
0010
0000
0001
0000
0010
0000
0001
0100
0001
0100
,
0001
0001
0010
0100
1000
0100
0010
0001
,
0010
0000
0100
0000
0010
0000
0001
0000
0010
0000
0001
0000
1000
0100
1000
0100
,
1000
1000
0100
0010
0001
0010
0100
1000
,
0100
0000
0001
0000
0100
0000
0010
0000
0001
0000
0100
0000
0001
0010
0100
1000
,
0001
0001
1000
0100
0010
0100
0010
0001
,
1000
0000
0100
0000
1000
0000
0010
0000
1000
0000
0010
0000
1000
0100
0010
0001
,
1000
1000
0001
0010
0001
1000
0010
1000
,
0100
0000
0001
0000
0100
0000
1000
0000
0100
0000
1000
0000
0001
0100
0010
1000
,
0001
0001
0100
1000
0100
0001
0100
1000
,
0100
0000
0010
0000
0100
0000
0001
0000
0100
0000
0001
0000
1000
0010
0100
0001
,
1000
1000
0100
0010
0100
0001
0100
0010
,
1100
0000
0000
0010
1100
0000
0001
0010
,
0100
1000
1010
0000
0101
0000
1001
0100
,
0001
0000
1000
0010
1100
0000
0011
0000
,
1000
0001
1000
0001
1000
0001
1000
0001
,
1001
0000
0000
0110
1001
0000
0000
0000
,
0000
0000
1100
0000
0110
0100
0010
0001
,
0011
0000
0000
0101
,
1100
1100
0000
1100
0100
0010
0001
0100
,
1010
0000
0000
0101
0101
0000
0000
0001
,
0010
0001
0011
0000
0110
0000
1100
0100
,
1000
0000
1001
0000
0001
0010
0001
1000
,
0101
0000
0000
0000
0001
0000
0000
0000
1000
0100
0010
0001
1000
0100
0010
0001
,
1000
0100
0010
0001
,
0001
0100
0001
0000
1000
0000
0010
0000
,
1010
1000
0100
0000
0010
0001
0100
0000
,
0010
0000
1000
0000
0100
0000
0000
0000
1001
0000
0000
0000
1000
0100
1000
0000
,
0010
0000
0000
0000
0110
0000
0100
0010
0100
0000
0000
0000
0001
0000
0100
0000
,
0011
0000
0100
0000
0010
0000
0000
0000
1001
0000
0000
0001
1000
0100
1000
0010
,
1000
0000
1100
0000
1010
0000
0101
1000
,
0010
0000
0100
0000
0011
0000
1000
0000
0101
0000
1000
0010
1000
0001
1000
0000
,
0000
0000
1100
0000
0101
0000
0001
0100
,
0000
0000
1100
0000
1001
0100
0010
0000
,
0010
0100
1000
0100
0010
0000
1000
0100
,
1000
0001
0101
0000
0011
0010
0100
1000
,
11M0
M000
001M
01M0
0M10
M000
00M1
0M10
,
010M
M100
11MM
M000
11MM
0M00
11MM
M100
,
001M
0M00
M1M1
0000
1M1M
M000
1M00
00M1
,
1M00
0001
10M0
0001
1M00
0001
10M0
0001
1M00
0001
10M0
0001
1M00
0001
10M0
0001
,
1MM0
0000
1000
0000
0100
0000
0100
0000
0100
0000
0100
0000
0010
0100
0010
0100
,
0010
0010
0001
0010
0100
1000
0100
0010
,
0001
0000
0001
0000
1000
0000
1000
0000
1000
0000
1000
0000
0010
1000
0100
1000
,
0010
0010
0001
0010
0100
1000
0100
0001
,
0100
0000
0100
0000
0010
0000
0010
0000
0010
0000
0010
0000
1000
0100
0010
0001
,
0100
0100
0010
0001
0010
1000
0100
0001
,
0100
0000
0100
0000
0010
0000
0010
0000
0010
0000
0010
0000
0100
1000
0010
0100
,
0001
0001
0010
0001
1000
1001
0100
1001
,
0100
0000
0100
0000
0010
0000
0010
0000
0010
0000
0010
0000
0100
0001
1000
0010
,
0100
0100
1000
0100
0010
0001
0010
0100
,
1000
0000
1000
0000
0100
0000
0100
0000
0100
0000
0100
0000
0001
0010
0100
0010
,
0001
0001
0010
0100
1000
1001
0010
1001
,
0020
0000
0000
0000
0002
0000
0030
0000
2000
0000
0003
0000
0200
0000
3000
0000
0002
0000
0300
0000
2000
0000
0003
0000
0020
3000
0002
0030
2000
0003
0200
3000
,
0020
0300
0000
0000
0002
0000
0030
0000
2000
0000
0003
0000
0200
0000
3000
0000
0002
0000
0300
0000
0100
0000
0003
0000
0110
0000
0000
0000
1001
0000
0000
0000
,
0000
0000
0000
0000
0000
0000
0000
0000
0000
0000
0000
0000
000M
M000
000M
M000
000M
M000
000M
M000
000M
M000
000M
M000
000M
0000
0000
0000
1100
0000
0000
0000
,
0011
0000
1010
0000
0101
0000
0000
0000
0110
0000
1001
0000
0011
0000
0001
1000
,
0100
0000
0010
0000
0001
0010
0100
0100
0010
0000
0001
0000
1000
0000
1100
0000
,
0101
0000
1001
0000
0011
0000
0000
0000
0011
0000
1010
0000
1001
0000
0001
0001
,
0010
0010
0100
0100
1000
1000
0010
0010
0100
0100
0001
0001
0100
0000
1100
0000
,
0110
0000
0101
0000
1010
0000
0000
0000
1100
0000
0110
0000
0101
0000
1000
0100
,
0001
0000
0100
0000
0001
0100
1000
1000
0100
0000
0010
0000
0001
0000
1100
0000
,
0110
0000
0011
0000
0110
0000
0000
0000
0011
0000
0110
0000
1100
0000
0010
1000
,
0010
0100
0010
1000
0001
1000
0010
1000
0100
0010
0100
0010
0001
0010
0001
0010
,
0100
1000
0001
1000
0100
0010
0100
1000
0001
0010
0100
0000
1100
0000
1000
0000
,
1001
0000
0001
0000
0101
0000
0100
0000
0110
0000
0010
0000
1010
0000
0010
1000
,
0100
1000
0010
0100
0001
0010
0100
1000
0001
0010
0100
0010
0100
1000
0100
0010
,
0100
0010
0001
0100
0010
0100
0010
0000
0110
0000
0100
0000
0101
0000
0001
0010
,
0100
1000
0001
0010
0100
1000
0001
1000
0100
0010
0001
0000
0101
0000
0100
0000
,
0110
0000
0010
0000
1010
0000
1000
0000
1100
0000
0100
0000
0110
0000
0010
0001
,
1000
0100
0010
0100
1000
0001
0010
0001
0100
0010
1000
0001
0100
0000
0001
0000
,
0100
0000
0010
0000
0100
0000
1000
0000
0100
0000
0010
0000
0100
0000
0001
0010
,
0100
1000
0001
0010
0100
1000
0001
1000
0100
0010
0001
0010
0100
1000
0001
0100
,
0010
1000
0001
0010
0100
1000
0001
0000
1001
0000
1000
0000
1010
0000
0100
0001
,
1000
0001
1000
0100
0010
0100
1000
0001
0010
0100
0010
0001
1000
0100
0010
0100
,
0010
0001
1000
0010
0100
0010
1000
0001
1000
0001
0010
0100
1000
0001
0100
0010
,
1000
0100
0010
0001
1000
0001
0010
0100
1000
0001
1000
0010
0100
0001
1000
0000
,
1001
0000
0001
0000
0011
0000
0010
0000
0110
0000
0100
0000
1100
0000
1000
0100
,
1000
0010
0100
0001
0010
0001
0100
0010
1000
0100
1000
0010
1000
0001
0010
0001
,
0100
0010
1000
0100
0010
0001
0100
0001
0010
0001
1000
0100
1000
0010
0100
0000
,
0001
1000
0001
1000
0001
1000
0001
1000
,
0001
1000
0001
1000
0001
1001
0000
0000
;
