#TITLE:M;
#SUBTITLE:;
#ARTIST:dj TAKA;
#TITLETRANSLIT:;
#SUBTITLETRANSLIT:;
#ARTISTTRANSLIT:;
#CREDIT:;
#BANNER:;
#BACKGROUND:M-bg.png;
#LYRICSPATH:;
#CDTITLE:;
#MUSIC:M.mp3;
#OFFSET:-0.765;
#SAMPLESTART:35.358;
#SAMPLELENGTH:12.000;
#SELECTABLE:YES;
#BPMS:0.000=361.999,52.000=358.559,58.000=360.379,64.000=357.379,68.000=359.179,98.000=357.139,125.000=360.219,150.000=361.439,192.000=358.579,240.000=360.199,370.000=357.539,382.000=355.719,394.000=352.899,408.000=354.539,427.000=359.019,434.000=362.459,444.000=361.019,474.000=359.599,531.000=361.239,544.000=358.599,578.000=360.639,588.000=362.259,592.500=365.079;
#STOPS:111.500=2.000
,219.500=0.720
;
#BGCHANGES:;
// cache tags:
#FIRSTBEAT:4.000;
#LASTBEAT:628.000;
#SONGFILENAME:Songs/toune 3/M/M.sm;
#HASMUSIC:1;
#HASBANNER:0;
#MUSICLENGTH:108.759;
// end cache tags

//---------------dance-single - ----------------
#NOTES:
     dance-single:
     :
     Hard:
     11:
     1.000,1.000,1.000,0.055,0.064,888.000,209.000,6.000,0.000,0.000:
0000
0000
0000
0000
,
1000
0100
0010
0001
1000
0100
0010
0001
,
1000
0001
0100
0010
1000
0001
0100
0010
,
1000
0100
0010
0100
1000
0001
0100
0010
,
0100
0001
0010
0100
0110
0000
1001
0000
,
0001
0010
0100
1000
0100
1000
0010
0100
,
0010
1000
0001
0010
0100
0010
0001
1000
,
0001
0100
0010
1000
0100
1000
0010
1000
,
0001
0100
0001
0010
0110
0000
1100
0000
,
1000
0001
0100
0010
1000
0100
1000
0010
,
0100
0001
0010
0100
1000
0100
1000
0001
,
0100
0010
1000
0001
0010
0100
1000
0100
,
1000
0001
0010
0100
0011
0000
1100
0000
,
0001
0010
0100
1000
0100
1000
0010
0100
,
0001
0010
0100
1000
0101
0000
1010
0000
,
1000
0001
0010
0100
0010
0001
1000
0100
,
0010
0100
1000
0010
0110
0000
1010
0000
,
1000
0001
0010
0100
1000
0100
1000
0010
,
0100
0001
0010
0001
0100
0010
1000
0100
,
1000
0010
0100
0001
0010
0100
1000
0100
,
0010
0001
0100
0010
1000
0100
0010
0001
,
0100
0010
1000
0100
1000
0010
0100
1000
,
0100
0010
1000
0100
0010
0001
0010
0001
,
0100
0010
0001
0010
1000
0100
0010
0001
,
0010
0100
1000
0001
0100
0010
1000
0001
,
0010
0100
0010
0001
0100
1000
0100
0010
,
0001
0010
0100
0010
1000
0100
0001
0100
,
1001
0000
0000
0000
0000
0000
0000
0000
0000
0000
0000
0000
0000
0000
0000
0000
0000
0000
0000
0000
0000
0000
0000
0000
0000
0000
0000
0000
0000
0000
0000
0000
2002
0000
0000
0000
0000
0000
0000
0000
0000
0000
0000
0000
0000
0000
0000
0000
0000
0000
0000
0000
0000
0000
0000
0000
0000
3003
0000
0000
0000
0000
0000
0000
,
0001
0010
0100
1000
0001
0010
0100
1000
,
0001
1000
0010
0100
0001
1000
0010
0100
,
0001
0010
0100
0010
0001
1000
0010
0100
,
0010
1000
0100
0010
0110
0000
1001
0000
,
1000
0100
0010
0001
0010
0001
0100
0010
,
0100
0001
1000
0100
0010
0100
1000
0001
,
1000
0010
0100
0001
0010
0001
0100
0001
,
1000
0010
1000
0100
0110
0000
0011
0000
,
0001
1000
0010
0100
0001
0010
0001
0100
,
0010
1000
0100
0010
0001
0010
0001
1000
,
0010
0100
0001
1000
0100
0010
0001
0010
,
0001
1000
0100
0010
1100
0000
0011
0000
,
1000
0100
0010
0001
0010
0001
0100
0010
,
1000
0100
0010
0001
1010
0000
0101
0000
,
0001
1000
0100
0010
0100
1000
0001
0010
,
0100
0010
0001
0100
0110
0000
0101
0000
,
0001
1000
0100
0010
0001
0010
0001
0100
,
0010
1000
0100
1000
0010
0100
0001
0010
,
0001
0100
0010
1000
0100
0010
0001
0010
,
0100
1000
0010
0100
0001
0010
0100
1000
,
0010
0100
0001
0010
0001
0100
0010
0001
,
0010
0100
0001
0010
0100
1000
0100
1000
,
0010
0100
1000
0100
0001
0010
0100
1000
,
0100
0010
0001
1000
0010
0100
0001
1000
,
0100
0010
0100
1000
0010
0001
0010
0100
,
1000
0100
0010
0100
0001
0010
1000
0010
,
1001
0000
0000
0000
0000
0000
0000
0000
0000
0000
0000
0000
0000
0000
0000
0000
0000
0000
0000
0000
0000
0000
0000
0000
0000
0000
0000
0000
0000
0000
0000
0000
2002
0000
0000
0000
0000
0000
0000
0000
0000
0000
0000
0000
0000
0000
0000
0000
0000
0000
0000
0000
0000
0000
0000
0000
0000
3003
0000
0000
0000
0000
0000
0000
,
1000
0100
0010
0001
1000
0100
0010
0001
,
1000
0001
0100
0010
1000
0001
0100
0010
,
1000
0100
0010
0100
1000
0001
0100
0010
,
0100
0001
0010
0100
0110
0010
0011
0000
,
0001
0010
0100
1000
0100
1000
0010
0100
,
0010
1000
0001
0010
0100
0010
0001
1000
,
0001
0100
0010
1000
0100
1000
0010
1000
,
0001
0100
0001
0010
0110
0100
1100
0000
,
1000
0001
0100
0010
1000
0100
1000
0010
,
0100
0001
0010
0100
1000
0100
1000
0100
,
0011
0100
0010
0001
1100
0010
1000
0100
,
0011
0100
1000
0001
1100
0010
0001
0100
,
1001
0000
1100
0000
,
0001
0000
0000
0000
1000
0000
0000
0001
,
0010
0100
1000
0001
0100
0010
1000
0000
0000
0000
0000
0000
,
1000
0000
0001
1000
0101
0000
1000
0000
,
1100
0000
0011
0000
,
1000
0001
0101
1000
,
1100
0000
0011
0000
,
0100
0000
0010
0001
1010
0000
0001
0000
,
0011
1100
0011
1100
,
1010
0101
0011
1100
,
0110
1001
1100
0101
,
0011
1100
0011
0110
,
1001
1100
0101
0011
,
0110
1001
1100
0110
,
1001
0011
0101
1010
,
1100
0011
0110
1001
,
1100
0000
0000
0000
,
0011
0000
0000
0000
,
1000
0100
0010
0001
1000
0001
0100
0000
0000
0000
0000
0000
,
0000
0000
0000
0000
,
1010
0000
0000
0000
,
0101
0000
0000
0000
,
0001
0010
0100
1000
0001
1000
0100
0000
0000
0000
0000
0000
,
0000
0000
0000
0000
,
1001
0000
0000
0000
,
1000
0100
1000
0001
0100
0010
1000
0100
,
1010
0001
1000
0001
0010
0001
0100
0010
,
1001
0010
0100
0010
1000
0100
0010
0001
,
1100
0010
1000
0010
1100
0001
0010
0001
,
1100
0001
1100
0010
1100
0001
1100
0010
,
1001
0100
0001
0010
1000
0010
0100
1000
,
0100
0010
1000
0100
0010
0001
0010
0100
,
1100
0000
0101
0000
,
0000
0000
0010
0100
1000
0001
0100
0010
,
1000
0100
1000
0001
0110
0001
0010
0100
,
1000
0100
0010
0001
1010
0100
1000
0010
,
0100
1000
0101
0010
0001
0010
1100
0001
,
0010
0100
0011
1000
0011
0100
0011
1000
,
0011
0100
0010
1000
0010
0100
0010
0001
,
1000
0000
0000
0001
0000
0000
0100
0000
0000
0010
0000
0000
1000
0000
0000
0010
0000
0000
0100
0000
0010
0000
0001
0000
,
1000
0000
0000
0000
0101
0000
1000
0100
,
0001
0000
0000
0000
1001
0000
0001
0100
,
1000
0000
0000
0000
1100
0000
0001
0010
,
1000
0000
0000
0000
1001
1000
0010
0001
,
1100
0011
0011
0011
,
0011
0011
1001
0101
,
0110
1010
1010
1010
,
1010
0110
0101
0011
,
1100
0011
0011
0011
,
0011
0011
1001
0101
,
0110
1010
1010
1010
,
1010
0110
0101
1001
,
1100
0011
0011
0011
,
1001
1001
1001
1001
,
0101
0101
0101
0101
,
0110
0110
0110
0110
,
0011
1100
1100
1100
,
1100
1100
1001
1010
,
0110
0101
0101
0101
,
0101
0110
1010
1100
,
0011
1100
1100
1100
,
1100
1100
1001
1010
,
0110
0101
0101
0101
,
0101
0110
1010
1001
,
0011
1100
1100
1100
,
1001
1001
1001
1001
,
1010
1010
1010
1010
,
0110
0110
0110
0110
,
1001
0000
1000
0000
,
0100
0000
0000
0000
0010
0000
0000
0001
,
1000
0000
1100
0000
,
1001
0000
0101
0000
,
0110
0000
0010
0000
,
1000
0000
0000
0000
0001
0000
0000
0010
,
0100
0000
0110
0000
,
0011
0000
1100
0000
,
1001
0000
1000
0000
0001
0100
0001
0000
,
1001
0000
0001
0000
1000
0100
1000
0000
,
1001
0000
1000
0000
0001
0100
0001
0000
,
1001
0000
0001
0000
1000
0100
1000
0000
,
1000
0100
1000
0001
0100
0010
1000
0001
,
0010
0100
0010
0001
1000
0001
0010
0100
,
0010
0001
0100
0010
1000
0001
0010
0100
,
1000
0001
0100
0010
1000
0100
1000
0100
,
0010
0001
0100
1000
0100
0001
0010
1000
,
0010
0001
1000
0001
0010
0100
0010
0200
,
2000
0000
0000
0000
,
0000
0000
0000
0000
,
0000
0000
0000
0000
,
0000
0000
0000
0000
,
3300
0000
0000
0000
;
