#TITLE:Body Breakdown;
#SUBTITLE:Inhuman Rampage;
#ARTIST:Dragonforce;
#TITLETRANSLIT:;
#SUBTITLETRANSLIT:;
#ARTISTTRANSLIT:;
#CREDIT:Dog_E;
#BANNER:body.PNG;
#BACKGROUND:body-bg.PNG;
#LYRICSPATH:;
#CDTITLE:DogETitle.PNG;
#MUSIC:DragonForce - 05 - Body Breakdown.mp3;
#OFFSET:-0.267;
#SAMPLESTART:151.580;
#SAMPLELENGTH:12.000;
#SELECTABLE:YES;
#BPMS:0.000=200.000;
#STOPS:;
#BGCHANGES:;
// cache tags:
#FIRSTBEAT:0.000;
#LASTBEAT:1382.000;
#SONGFILENAME:Songs/keyboard/Body Breakdown (Dog_E)/DragonForce - 05 - Body Breakdown.sm;
#HASMUSIC:1;
#HASBANNER:1;
#MUSICLENGTH:418.932;
// end cache tags

//---------------dance-single - Blank----------------
#NOTES:
     dance-single:
     Blank:
     Hard:
     14:
     1.000,1.000,1.000,0.812,1.000,3781.000,442.000,340.000,0.000,10.000:

1000
0100
0010
0001
1000
0010
0100
0001
1200
0000
0000
0000
0000
0000
0300
0000
,
0001
0010
0100
1000
0001
0100
0010
1000
0202
0303
0202
0000
0303
0000
0000
0000
,
2002
3003
0000
0000
0022
0033
0000
0000
,
0000
0110
0000
0101
1100
0000
0110
0000
,
1000
0001
0100
0010
1000
0001
0100
0010
,
0001
1000
0010
0100
0001
1000
0100
0010
,
0001
0100
0010
1000
0100
0010
0001
0100
,
0010
1000
0001
0100
0010
1000
0100
0010
,
0001
1000
0010
0001
0100
0010
1000
0100
,
0001
0100
0010
1000
0100
0010
0001
1000
,
0001
0010
0100
1000
0100
0010
1000
0100
,
1000
0000
0000
0100
0000
0000
0010
0000
0000
0001
0000
0000
0010
0000
0000
0100
0000
0000
0020
0000
0000
0031
0000
0000
1000
0000
0000
0001
0000
0000
0120
0000
0000
0000
0000
0000
2032
0000
0000
0000
0000
0000
0000
0000
3003
0000
0000
0000
,
1000
0100
0010
0001
1000
0010
0100
0001
1000
0001
0010
0001
1000
0100
0010
0100
,
1000
0001
0010
0100
1000
0001
0010
0100
1000
0100
0010
0001
1000
0100
0010
0001
,
1000
0100
0010
0001
0100
0010
1000
0100
0010
0001
0100
0010
1000
0100
0010
0100
,
1000
0100
0010
0001
0010
0100
0010
0001
0010
0100
1000
0100
0010
0001
1000
0001
,
1000
0010
0100
0001
1000
0010
0100
0001
1000
0100
0010
0001
1000
0100
0010
0001
,
1000
0001
0010
0100
0010
0001
1000
0100
0010
0100
1000
0001
1000
0100
0010
0001
,
1000
0001
1000
0001
1000
0010
1000
0010
1000
0100
0010
0001
1000
0010
0100
0001
,
0100
0010
1000
0001
0100
0010
1000
0100
0010
0001
1000
0010
0100
0001
0010
0100
,
1000
0001
0100
0010
1000
0001
0010
0100
1000
0001
1000
0100
0010
0001
1000
0100
,
0010
0100
1000
0100
0010
0001
1000
0001
0100
0010
1000
0001
0100
0010
1000
0001
,
0100
0010
1000
0001
0010
0001
1000
0100
0010
0100
1000
0001
1000
0100
0010
0001
,
1000
0100
0010
0001
0010
0100
0010
0001
0010
0100
1000
0100
0010
0001
0010
0100
,
0010
0001
0010
0100
1000
0001
0010
0100
1000
0001
0010
0100
1000
0001
1000
0100
,
0010
0001
1000
0100
0010
0001
0100
0010
1000
0001
0010
0100
1000
0010
0100
0001
,
1000
0001
1000
0100
1000
0001
0010
0100
0010
0001
1000
0100
1000
0100
0010
0001
,
0010
0100
1000
0100
1000
0001
1000
0001
1000
0010
0100
0001
0100
0010
0100
0010
,
2002
3003
0022
0033
2002
3003
0022
0033
2002
3003
0022
0033
2002
3003
0022
0033
,
0220
0330
0110
0000
1100
0000
0202
0313
0100
1000
0100
1000
0020
0000
0000
0030
,
0001
0010
0100
1000
0010
0100
0001
0010
0100
1000
0010
1000
0100
0010
0001
0100
,
0020
0000
0000
0000
0000
0000
0000
0030
,
1100
0101
1000
0110
0001
0010
0101
1000
,
0011
0110
0001
1100
0010
0100
1001
0010
,
1100
0010
0101
1010
0100
0010
1001
0010
,
0101
0110
0001
1100
0010
0001
0110
0001
,
1100
0010
0101
1100
0001
0010
1001
0100
,
1010
0001
0110
1100
0001
0100
0011
1000
,
0110
1000
0101
0110
0001
1000
0110
1000
,
0001
0010
0001
0010
0001
0010
0100
0010
0100
0010
0001
1000
0001
1000
0001
1000
,
0110
0000
0011
0000
0100
0010
0100
0000
1001
0000
0011
0000
0100
1000
0100
0000
,
0011
0000
1100
0000
0010
0100
0010
0000
0110
0000
0011
0000
1000
0001
1000
0000
,
1100
0000
0110
0000
0100
0001
0100
0000
0011
0000
0110
0000
1000
0010
1000
0000
,
0101
0000
1100
0000
0010
0001
0010
0000
0110
0000
0011
0000
0100
1000
0100
0000
,
0110
0000
0011
0000
0100
0010
0100
0000
1001
0000
0011
0000
0100
0001
0100
0000
,
1100
0000
0110
0000
0010
0001
0010
0000
0110
0000
1100
0000
0001
1000
0001
0000
,
1000
0100
0010
0001
1000
0010
0100
0001
1000
0001
0010
0100
1000
0001
0100
0010
,
1000
0100
2000
0000
0000
0000
0000
0000
0000
0000
3001
0010
0100
1000
0001
1000
,
0001
0100
0001
0100
0001
0010
0100
1000
0001
0100
0001
0010
0100
1000
0001
1000
,
0100
0010
0001
0010
0100
1000
0001
1000
0100
0010
0001
1000
0001
0010
0100
1000
,
0001
0100
0010
1000
0001
0010
0100
1000
0100
0010
0001
0100
0010
1000
0100
0010
,
0001
1000
0010
0100
0010
1000
0010
0100
0001
1000
0100
0010
0001
1000
0100
0010
,
0001
0100
0010
1000
0001
0010
0100
1000
0010
0100
0010
1000
0001
1000
0001
1000
,
0010
1000
0001
0100
0010
1000
0001
0100
0010
0100
0001
1000
0001
0010
0100
1000
,
0001
0100
0010
0100
0001
0100
0010
0100
0001
0010
0100
1000
0001
0010
0100
1000
,
0001
1000
0001
1000
0002
0000
0003
0000
0001
1000
0001
1000
0001
0010
0100
1000
,
0001
0010
0100
0010
0001
1000
0100
0010
0100
1000
0001
0010
0100
1000
0001
0010
,
0100
0010
0001
0010
0100
1000
0100
0010
0001
1000
0100
0010
0100
1000
0100
0010
,
0001
1000
0001
0010
0001
1000
0100
1000
0001
0010
0100
1000
0001
0010
0100
1000
,
0100
0010
0001
0100
0010
1000
0100
0010
0001
0100
0010
1000
0001
0010
0100
1000
,
0001
0100
0010
1000
0100
0010
0001
0100
0010
1000
0001
0100
0010
1000
0100
0010
,
0001
0100
0010
1000
0001
0100
0010
0100
0001
1000
0010
0100
0001
0100
0010
0100
,
0001
0010
0100
1000
0001
0010
0100
1000
0001
0100
0010
1000
0010
1000
0100
0010
,
0001
0010
0100
1000
0100
0010
0001
1000
0001
0010
0100
0010
0100
1000
0100
0010
,
1001
0010
0101
0010
1001
0010
1100
0010
,
1001
0100
0011
0100
1010
0001
1100
0001
,
1100
0011
0000
0011
1100
0001
0110
1000
,
0001
0010
0100
1000
0100
0010
0100
1000
0001
1000
0001
0100
0010
1000
0001
1000
,
0110
0001
1010
0001
1100
0010
0101
1000
,
0011
0000
0100
0000
1001
0000
0000
0000
0110
1000
0100
0010
0001
1000
0100
0010
,
1001
0100
0110
0001
1010
0001
0110
1000
,
0101
0010
1100
0001
1010
0100
1001
0020
,
0130
1000
0011
1000
0110
1000
0101
1000
,
0110
0001
1010
0001
1100
0010
0101
0010
,
0101
1010
0000
1010
0101
0010
1001
0100
,
0010
1000
0001
0100
0001
1000
0001
0100
0010
0100
0010
1000
0001
0100
0010
0100
,
1001
0010
1100
0010
0101
1000
0011
0100
,
1010
0001
0110
1000
1001
0100
0011
1000
,
0110
0001
0101
0001
1001
0001
1001
0110
,
2002
0000
0000
0000
0000
0000
0000
0000
0000
0000
0000
0000
0000
3003
0000
0000
,
0101
0011
0100
1001
0010
1000
0011
0100
,
1010
1001
0010
0101
1000
0001
0110
1000
,
0101
1000
0011
1100
0001
1000
0110
1000
,
0011
1001
0010
0101
1000
0010
1001
0010
,
0101
1000
0011
0101
0010
1000
0110
0001
,
1100
0010
1001
0101
0010
0001
1010
0100
,
1001
0100
0011
1001
0010
0100
1001
0100
,
0010
1000
0010
1000
0010
1000
0001
1000
0001
1000
0010
0100
0010
0100
0010
0100
,
1001
0000
1010
0000
0001
1000
0001
0000
0110
0000
1010
0000
0001
0100
0001
0000
,
1010
0000
0101
0000
1000
0001
1000
0000
1001
0000
1010
0000
0100
0010
0100
0000
,
0101
0000
1001
0000
0001
0010
0001
0000
1010
0000
1001
0000
0100
1000
0100
0000
,
0011
0000
0101
0000
1000
0010
1000
0000
1001
0000
1010
0000
0001
0100
0001
0000
,
1001
0000
1010
0000
0001
1000
0001
0000
0110
0000
1010
0000
0001
0010
0001
0000
,
0101
0000
1001
0000
1000
0010
1000
0000
1001
0000
0101
0000
0010
0100
0010
0000
,
1000
0100
0010
0001
0100
0010
1000
0100
0010
0001
0100
0010
1000
0001
0100
0010
,
1000
0000
0000
0200
0300
0200
0300
0200
0300
0200
0300
0200
0300
0200
0300
0200
0300
0200
0300
0200
0300
0200
0300
0000
,
0001
0010
0100
0010
0001
0010
0100
0010
0001
1000
0100
0010
0001
1000
0100
0010
,
0100
1000
0001
0010
0001
0010
0100
1000
0001
0010
0100
1000
0100
0010
0001
0100
,
0010
1000
0001
0010
0100
1000
0010
0100
0001
0010
0100
1000
0001
0010
0100
0010
,
0001
1000
0100
0010
0001
0010
0100
1000
0010
0100
0001
1000
0010
0100
0001
1000
,
0001
0010
0100
0010
0001
1000
0001
1000
0001
0100
0010
1000
0001
1000
0100
0010
,
0100
0010
0001
0010
0100
1000
0001
0010
0001
1000
0100
0010
0001
1000
0100
0010
,
0001
1000
0100
0010
0100
1000
0100
0010
0100
1000
0001
0010
0100
0010
0001
1000
,
0001
0010
0001
1000
0100
1000
0100
1000
0001
0100
0001
0100
0001
1000
0010
0100
,
0001
1000
0010
0100
0001
0010
0001
0010
0001
1000
0001
1000
0001
1000
0010
1000
,
0100
0010
0001
1000
0100
0010
0001
1000
0010
0100
0001
1000
0010
0100
0001
1000
,
0100
0010
0001
0100
0010
1000
0001
0010
0100
1000
0100
0010
0001
1000
0100
0010
,
0001
1000
0001
0010
0100
1000
0010
0100
0010
1000
0010
0100
0010
1000
0100
0010
,
0001
1000
0100
0010
0001
1000
0010
0100
0010
1000
0100
0010
0100
1000
0010
0100
,
0001
1000
0100
0010
0001
1000
0100
0010
0001
1000
0001
0010
0100
1000
0001
0010
,
0100
1000
0100
1000
0001
0010
0001
0010
0100
0010
0100
0010
0001
1000
0001
1000
,
0001
0010
0100
1000
0010
0100
0001
0010
0100
1000
0001
0010
0001
0010
0100
1000
,
0110
1000
0011
1000
0110
1000
0101
1000
,
0110
0001
1010
0001
1100
0010
0101
0010
,
0101
1010
0000
1010
0101
0010
1001
0100
,
0010
1000
0001
0100
0001
1000
0001
0100
0010
0100
0010
1000
0100
0010
0001
0010
,
1001
0010
1100
0010
0101
1000
0011
0100
,
1010
0000
0001
0000
0110
0000
0000
0000
1001
0100
0001
1000
0010
0100
0001
1000
,
0110
0001
1001
0010
1100
0010
1001
0100
,
0011
1000
0101
0010
1100
0001
0110
2000
,
3001
0100
1010
0100
1001
0100
0011
0100
,
1001
0010
1100
0010
0101
1000
0011
1000
,
0011
1100
0000
1100
0011
1000
0110
0001
,
1000
0100
0010
0001
0010
0100
0010
0001
1000
0001
1000
0010
0100
0001
1000
0001
,
0110
1000
0101
1000
0011
0100
1010
0001
,
1100
0010
1001
0100
0110
0001
1010
0100
,
0110
0101
0110
1010
0101
1010
1001
0110
,
2002
0000
0000
0000
0000
0000
0000
3003
0020
0030
0000
0000
0020
0000
0030
0000
,
0010
0100
0010
0100
0010
0100
0010
0100
0010
0100
0010
0100
0010
0100
0010
0100
,
0010
1000
0100
0010
0001
0100
0010
1000
0100
0010
0001
0100
0010
1000
0100
0010
,
0001
1000
0001
1000
0001
1000
0001
1000
0001
1000
0001
1000
0001
1000
0001
1000
,
0001
0010
0100
1000
0010
0100
0001
0010
0100
1000
0010
0100
0001
0010
0100
1000
,
0001
0010
0100
0010
0001
0010
0100
1000
0100
0010
0100
1000
0100
0010
0001
0010
,
0100
1000
0100
0010
0001
0010
0100
1000
0100
0010
0100
1000
0100
0010
0100
1000
,
0100
0010
0001
1000
0100
0010
0001
1000
0100
0010
0001
1000
0010
0100
0001
1000
,
0002
0000
0113
0000
2000
0000
3101
0000
0020
0000
1031
0000
0220
0000
0000
0330
,
0001
0010
0100
0010
0001
0010
0100
0010
0001
0010
0100
0010
0001
0010
0100
0010
,
0001
1000
0001
1000
0001
1000
0001
1000
0001
1000
0001
1000
0001
1000
0001
1000
,
0001
1000
0100
0010
0001
0100
0010
1000
0100
0010
0001
0100
0010
1000
0100
0010
,
0001
1000
0001
0010
0100
1000
0100
0010
0001
1000
0001
0010
0100
1000
0100
0010
,
0001
1000
0010
0100
0001
1000
0010
0100
0001
1000
0100
0010
0001
0010
0100
1000
,
0001
0010
0100
1000
0001
0010
0100
1000
0001
0100
0010
1000
0001
0010
0100
1000
,
0100
0010
0001
0010
0100
1000
0010
0100
0010
1000
0010
0100
0010
1000
0010
0100
,
0001
0010
0100
1000
0001
0010
0100
1000
0001
0010
0100
1000
0001
0010
0100
1000
,
0010
1000
0100
1000
0010
1000
0100
0010
0001
0100
0010
0100
0001
0010
0100
1000
,
0010
1000
0100
1000
0100
0010
0001
0010
0100
1000
0010
0100
0001
0010
0100
1000
,
0100
0000
0010
0000
0101
0000
0010
0000
1200
0000
0302
0003
0020
0030
2000
3000
,
0120
0000
0000
0030
1002
0000
0000
0003
1100
0000
0100
0000
2001
0000
0000
3000
,
0002
0003
0020
0030
0200
0000
0320
0030
0001
0000
0001
0000
0010
0000
0100
0000
,
0011
0000
0110
0000
1100
0000
0101
0000
1010
0000
0120
0000
0001
0030
1000
0000
,
0100
0010
0001
1000
0100
0000
0010
0000
0101
0000
0010
0000
0100
0000
1000
0000
,
0020
0030
0100
0000
0020
0030
0002
0000
0000
0000
0000
0000
0000
0000
0003
0000
,
0010
0100
0010
0010
0200
0000
0310
0002
,
0000
0003
1000
0000
0010
0000
0100
0000
0002
0000
0003
0000
0200
0000
0300
0000
,
0001
0010
0100
0010
0100
1000
0001
0010
0100
0010
0100
1000
0001
1000
0001
0100
,
0010
0100
0001
1000
0001
0010
0100
0010
0001
0010
0100
1000
0001
0010
0001
1000
,
0200
0300
1000
0000
0001
0000
1000
0000
0100
0000
1000
0000
0000
0000
0010
0000
,
0000
0100
0001
1000
0100
0001
0100
0010
,
1001
1001
0010
0100
0000
0010
0000
0100
,
1000
0000
0010
0000
0001
0000
1000
0000
0100
0000
0010
0000
0002
0000
0000
0003
,
0120
1000
1000
1000
,
1000
1000
1000
1000
,
1000
1000
1000
1000
,
1000
0000
0000
0000
1000
0000
0000
0030
1000
0000
1000
0100
0002
0000
0003
0000
,
1001
1010
1001
1100
1001
0110
0011
1100
,
0101
0011
1001
1010
0101
1100
0110
0011
,
1001
1010
1001
1100
1001
0110
0011
1100
,
0101
0000
0011
0000
1001
0000
1010
0000
0101
0000
1100
0000
0200
0302
0203
0301
,
1001
0101
1001
0011
1001
0110
1100
0011
,
1010
1100
1001
0101
1010
0011
0110
1100
,
1001
0101
1001
0011
1001
0110
1100
0011
,
1010
0000
1100
0000
1001
0000
0101
0000
1010
0000
0011
0000
0020
2030
3020
1030
,
0001
0010
0100
0010
0001
0010
0100
0010
0001
1000
0001
0010
0001
1000
0001
0010
,
0001
1000
0001
0100
0010
0100
0001
0100
0010
0100
0001
0100
0010
0100
0001
0100
,
0010
1000
0010
0100
0010
1000
0010
0100
0010
1000
0001
1000
0010
1000
0001
1000
,
0010
0100
0001
0010
0100
1000
0010
0100
0001
0010
0100
1000
0010
0100
0001
0010
,
0100
1000
0100
0010
0100
1000
0100
0010
0100
0010
0001
0010
0100
0010
0001
0010
,
0100
0010
0001
1000
0001
1000
0001
1000
0001
0100
0001
0010
0001
0100
0001
0010
,
0001
0010
0100
1000
0100
0010
0100
1000
0001
0010
0100
0010
0001
0010
0100
0010
,
0001
0010
0100
1000
0100
0010
0001
0010
0100
1000
0100
0010
0001
0010
0100
1000
,
0100
0010
1000
0001
0010
0100
1000
0010
0100
0001
0010
0100
1000
0010
0100
0001
,
1000
0010
1000
0010
1000
0010
1000
0010
1000
0010
0000
0000
0200
0000
0000
0000
0000
0000
0000
0000
0300
0000
0000
0000
,
0001
0000
0001
0010
0000
0010
0100
2000
,
0000
0000
0000
3000
0000
1000
0100
0010
,
0002
0000
0000
0000
0003
0000
0100
0000
0000
0010
0000
0000
0000
0000
0000
1000
0000
0000
0000
0000
0000
0020
0030
0000
,
0000
0100
0000
0002
0000
0000
0000
0003
,
0001
0010
1000
0010
0001
0100
1000
0100
,
0001
0100
0010
2000
0000
0000
0000
3000
,
0100
0000
0010
0000
0001
0010
0100
0000
1000
0000
0100
0000
0010
0000
0001
0000
0100
0000
0010
0000
1000
0000
0100
0010
,
0001
0000
0000
0000
1000
0000
0000
0000
0100
0000
0001
0000
0010
0000
0000
0000
1000
0000
0000
0000
0100
0000
0000
0000
0010
0000
0000
0001
0000
0000
0100
0000
0000
0010
0000
0000
2000
0000
0000
0000
0000
0000
0000
0000
3000
0000
0000
0000
,
0001
0010
0100
1000
0001
0010
0100
1000
0001
0010
0100
1000
,
0000
0000
0000
0100
0000
0000
0010
0000
0000
0100
0000
0000
0001
0000
0000
0000
0010
0000
0000
0000
0100
0000
0000
0000
0001
0000
0000
0000
1000
0000
0000
0000
0001
0000
0000
0000
0100
0000
0000
0010
0000
0000
0100
0000
0000
0010
0000
0000
,
0001
0010
0100
1000
0100
0010
0001
0010
0100
1000
0100
0010
,
0001
0000
0000
0000
0010
0000
0000
0000
0100
0000
0000
0000
1000
0000
0000
0000
0100
0000
0000
0000
0010
0000
0000
0000
0001
0000
0000
0010
0000
0000
0001
0000
0000
0010
0000
0000
0200
0000
0000
0000
0000
0000
0010
0000
0000
0300
0000
0000
,
0001
0010
0100
1000
0100
1000
0100
1000
0100
0010
0001
0010
0100
0010
0001
1000
,
0001
0010
0001
0100
0010
1000
0001
0100
0001
0010
0001
0010
0200
0000
0000
0300
,
0010
0000
0000
1000
0000
0000
0001
0000
0000
0100
0000
0000
0010
0000
0000
1000
0000
0000
0001
0000
0000
0100
0000
0000
0010
0000
1000
0000
0100
0000
0010
0000
0001
0000
0100
0000
0010
0000
0000
1000
0000
0000
0100
0000
0000
0010
0000
0000
,
0002
0103
0020
0130
2000
3100
0002
1003
,
0022
0000
0000
0033
0000
0000
0220
0000
0000
0330
0000
0000
1100
0000
0000
0000
,
0020
0000
0030
0000
0001
0000
0000
0000
0000
0000
0000
0010
0200
0000
0000
0000
0000
0000
0300
0000
2000
0000
0000
0000
0000
0000
0000
3000
0000
0000
0000
0000
,
0210
0010
0300
1002
0003
0000
0110
0000
,
0220
0032
0000
0000
0000
0000
0000
0000
0000
0000
0000
0000
0000
0000
0303
0000
,
2200
0000
0000
0000
3300
0000
0220
0000
0000
0000
0330
0000
0022
0000
0000
0033
,
0200
0300
2000
3000
0000
0000
0021
0000
0000
0000
0000
0000
0200
0330
0000
0000
,
1000
0100
0010
0001
0100
0010
0100
0001
0010
0100
1000
0100
0010
0001
0010
0100
,
0010
0001
1000
0001
0010
0100
1000
0100
0022
0000
0133
0000
2020
0000
3031
0000
,
0010
1000
0100
0010
0001
0100
0010
0100
0001
0010
0100
1000
0001
0010
0100
1000
,
0002
0000
0000
0000
0000
0000
0000
0003
,
0001
0010
0100
1000
0001
0100
0010
1000
0001
0100
0010
1000
0100
0010
0100
1000
,
0001
0010
0100
1000
0001
0010
0100
1000
0001
0010
0100
1000
0001
0010
0100
1000
0001
0010
0100
1000
0001
0010
0100
1000
,
0110
0000
0000
0000
0000
0000
0000
0000
0000
0010
0000
0000
0000
0000
0000
0000
1000
0000
0000
0000
0000
0000
1000
0000
0000
0000
0001
0000
0000
0000
0000
0000
0001
0000
0000
0000
0000
0000
0000
0000
0000
0000
0100
0000
0000
0000
0000
0000
,
0001
0000
0000
0000
0000
0000
0110
0000
0000
0000
0000
0000
1010
0000
0000
0000
0000
0000
0000
0000
0100
0000
0000
0000
0001
0000
0000
0000
0000
0000
1000
0000
0000
0001
0000
0000
0000
0000
0100
0000
0000
0000
0010
0000
0100
0000
0000
0000
,
1001
0100
0010
0001
1000
0100
0010
0001
1000
0100
0010
0100
0001
0100
0010
1000
,
0100
0010
0001
1000
0001
0010
0100
1000
0001
0010
0100
1000
0110
1000
0001
1000
,
0110
0001
1000
0001
0010
0001
1000
0001
0010
0100
0010
0100
1000
0001
0100
0010
,
1000
0001
0200
0310
2000
3001
0200
0310
0002
1003
0020
0130
0002
0000
0013
0000
,
1001
0100
0010
0001
1000
0100
0010
1000
0001
0010
0100
1000
0001
1000
0100
0010
,
0001
0100
0010
1000
0001
0010
0100
1000
0001
0100
0010
0001
0100
0010
0100
0010
,
0002
0023
0230
0320
0030
0002
2003
3200
,
0320
0032
0203
0320
0032
2003
3002
2003
,
3200
0320
0032
2003
3020
0230
0302
2003
,
0100
0010
0100
0001
0010
0100
0001
3010
,
0002
0023
0230
2300
3000
0200
0320
0230
,
0302
0023
0230
2300
3002
0003
0200
0300
,
0020
0230
0302
2003
3000
0200
0320
0032
,
0010
0000
0000
0100
0000
0000
1003
0000
0000
0100
0000
0000
0010
0000
0001
0000
1000
0000
0001
0000
0100
0000
0010
0000
1000
0000
0000
0001
0000
0000
0100
0000
0000
0010
0000
0000
1000
0000
0000
0010
0000
0000
0100
0000
0000
0010
0000
0000
,
0002
0000
0000
0003
0001
0000
0002
0000
0023
0000
2030
0000
3200
0000
0320
0000
,
0032
0003
0200
0000
0320
0000
2030
0000
3002
0000
0203
0000
0320
0000
0000
0000
0030
0000
0000
0000
0000
0000
0000
0000
,
0002
0003
0001
0010
0100
0000
0100
0000
0020
0030
0020
0030
0100
0010
0002
0003
,
2000
3000
1000
0100
0010
0000
0020
0000
0130
0000
0200
0300
0010
0001
0200
0300
,
0001
1000
0010
0100
0001
0010
0100
1000
0001
0010
0100
0010
0001
0100
0010
1000
,
0002
0003
2000
3000
0002
0003
0020
0000
0000
0000
0000
0030
,
2000
3000
1000
0100
0010
0001
0010
0100
1000
0010
1000
0100
1000
0100
0010
0000
,
0200
0300
0100
0010
0001
0010
0100
1000
0100
0001
0100
1000
0100
0010
0001
0000
,
0200
0000
0000
0300
0100
0000
0010
0000
0001
0000
0100
0000
1000
0000
0100
0000
,
0010
0000
0020
0031
0000
0200
0000
0000
,
0310
0010
0010
0010
1000
0000
0100
0000
0010
0001
0100
0010
1000
0100
0010
0100
,
0001
0001
0001
0000
2000
0000
3000
0001
0100
0010
1000
0100
0002
0000
0000
0003
,
0210
0010
0310
1000
0021
0001
0031
0100
,
0010
0000
0000
0000
0000
0000
0000
0000
0000
1000
0000
0000
0000
0000
0000
0000
0000
0000
0100
0000
0000
0000
0000
0000
0002
0000
0000
0000
0000
0000
0000
0000
0000
0000
0000
0000
0000
0000
0000
0000
0000
0000
0000
0000
0003
0000
0000
0000
,
1000
0100
0010
0001
0001
0010
0100
1000
1000
0100
0010
0001
0100
0010
1000
0001
,
1000
0100
0010
0100
0001
0100
1000
0010
0001
0010
1000
0010
0200
0300
0020
0000
,
0031
0000
0000
0001
0000
0000
0001
0000
0000
0001
0000
0010
0000
0000
0100
0000
,
0010
0000
0000
0100
0000
0000
0002
0000
0000
0000
0000
0000
0000
0000
0003
0000
,
1000
0000
0000
0100
0000
0000
0010
0000
0000
0001
0000
0000
1000
0000
0000
0100
0000
0000
0010
0000
0000
0001
0000
0000
1000
0000
0001
0000
1000
0000
0001
0000
0000
1000
0000
0000
0100
0000
0000
0010
0000
0000
0001
0000
0000
1000
0000
0000
,
0100
0010
0001
1000
0001
0100
0010
1000
0010
0100
0010
1000
0001
0100
0010
0100
,
0001
1000
0001
0100
0001
0010
0001
1000
0001
0010
0100
1000
0100
0010
0001
0010
,
0100
0000
0000
0000
1000
0000
0000
0000
0100
0000
0000
0000
0010
0000
0000
0000
0001
0000
0000
0000
0010
0000
0000
0000
0100
0000
0000
0010
0000
0000
1000
0000
0000
0100
0000
0000
0010
0000
0000
0001
0000
0000
0100
0000
0000
0010
0000
0000
,
0002
0000
0000
0000
0003
0000
0020
0000
0000
0030
0000
0000
2000
0000
0000
3000
0000
0000
0002
0000
0000
0003
0000
0000
0200
0000
0000
0300
0000
0000
2000
0000
0000
3100
0000
0000
0010
0000
0000
0000
0000
0000
0001
0000
0000
0000
0000
0000
,
0200
0000
0320
0000
0032
0000
0203
0000
2300
0000
3020
0030
,
0001
0010
0100
1000
0100
0010
0001
0100
0010
1000
0100
1000
0010
1000
0100
0010
,
0001
0010
0100
1000
0100
0001
0010
0100
1000
0100
0001
0010
0100
1000
0100
0010
,
0001
0100
0001
0100
0010
0100
0010
0100
0010
1000
0010
1000
0001
0100
0001
0100
,
1000
0000
0100
0000
0010
0000
0001
0000
0010
0000
0100
0000
1000
0000
0000
0100
0000
0000
0010
0000
0000
0001
0000
0000
0010
0000
0000
0100
0000
0000
1000
0000
0000
0100
0000
0000
0010
0000
0000
0001
0000
0000
0010
0000
0000
0100
0000
0000
,
1000
0000
0100
0000
0010
0000
0001
0000
0010
0000
0100
1000
0010
0000
0001
0000
,
0010
0100
1000
0000
0001
0000
0100
0010
0001
0000
0200
0000
0320
0000
0230
0000
,
1300
0100
1000
0100
0010
0001
0001
0010
0001
0010
0100
1000
,
0010
0100
1000
0100
0010
0001
0010
0100
0010
0001
1000
0001
1000
0010
1000
0100
,
1000
0100
0010
0001
0010
0100
1000
0001
0100
0001
1000
0001
0010
0001
0100
0010
,
0100
1000
0100
0010
0001
0010
0100
1000
0010
1000
0100
0010
0001
0100
0001
0010
,
0100
1000
0010
0100
0010
0100
0001
1000
0001
0010
0100
1000
0001
1000
0100
0010
,
0001
0010
0100
1000
0100
0010
0001
0010
0100
1000
0100
0010
0002
0013
0100
0010
0100
0010
0002
0000
0003
0000
0000
0000
,
0002
0000
0000
0000
0003
0010
0100
1000
,
0200
0000
0000
0000
0000
0000
0000
0000
0000
0000
0000
0000
0000
0000
0000
0000
0000
0000
0000
0000
0000
0300
0000
0000
0010
0000
0000
0000
0000
0000
0000
0000
1000
0000
0000
0000
0000
0000
0000
0000
0010
0000
0000
0000
0000
0000
0000
0000
,
0001
0000
0000
0000
0010
0000
0000
0000
0100
0000
0000
0000
0010
0000
0000
0000
0001
0000
0000
0000
1000
0000
0000
0010
,
0200
0000
0000
0000
0000
0000
0000
0000
0000
0000
0000
0000
0000
0000
0000
0000
0000
0000
0000
0000
0000
0000
0000
0000
0000
0000
0000
0000
0000
0000
0000
0000
0000
0000
0000
0000
0000
0000
0000
0000
0000
0000
0000
0000
0000
0000
0000
0000
0000
0000
0000
0000
0000
0000
0000
0000
0000
0000
0000
0000
0000
0000
0000
0000
0000
0000
0000
0000
0000
0000
0000
0000
0000
0000
0000
0000
0000
0000
0000
0000
0300
0000
0000
0000
1000
0000
0000
0000
0000
0000
0010
0000
0000
0000
0000
0000
0002
0000
0000
0000
0000
0000
0000
0000
0000
0000
0000
0000
0000
0000
0000
0000
0000
0000
0000
0000
0000
0000
0000
0000
0000
0000
0000
0000
0000
0000
0000
0000
0000
0000
0000
0000
0000
0000
0000
0000
0000
0000
0000
0000
0000
0000
0000
0000
0000
0000
0000
0000
0000
0000
0000
0000
0000
0000
0000
0000
0000
0000
0000
0000
0000
0000
0000
0000
0000
0000
0000
0000
0000
0000
0000
0000
0000
0000
0000
0000
0000
0000
0000
0000
0000
0000
0000
0000
0000
0000
0000
0000
0000
0000
0000
0000
,
0000
0000
0000
0000
0000
0000
0000
0000
0000
0000
0000
0000
0000
0000
0000
0000
0000
0000
0003
0000
0000
0000
0000
0000
0000
0000
0000
0000
0000
0000
0000
0000
0000
0000
0000
0000
0000
0000
0000
0000
0000
0000
0000
0000
0000
0000
0000
0000
2002
0000
0000
0000
0000
0000
0000
0000
0000
0000
0000
0000
0000
0000
0000
0000
0000
0000
0000
0000
0000
0000
0000
0000
0000
0000
0000
0000
0000
0000
0000
0000
3003
0000
0000
0000
0000
0000
0000
0000
0000
0000
0000
0000
0000
0000
0000
0000
0022
0000
0000
0000
0000
0000
0000
0000
0000
0000
0000
0000
0000
0000
0000
0000
0000
0000
0000
0000
0000
0000
0000
0000
0000
0000
0000
0000
0000
0000
0000
0000
0000
0000
0000
0000
0000
0000
0000
0000
0033
0000
0000
0000
0000
0000
0000
0000
0220
0000
0000
0000
0000
0000
0000
0000
0000
0000
0000
0000
0000
0000
0000
0000
0000
0000
0000
0000
0000
0000
0000
0000
0000
0000
0000
0000
0000
0000
0000
0000
0000
0000
0000
0000
0000
0000
0000
0000
0330
0000
0000
0000
0000
0000
0000
0000
,
2000
3000
0000
0000
0200
0300
0000
0000
0020
0030
0000
0000
0002
0000
0000
0000
0000
0000
0023
0000
0000
0000
0000
0030
,
1000
0100
0010
0001
1000
0000
0001
0000
0010
0000
0100
0000
0020
0000
0000
0030
,
1001
0000
0011
0000
0110
0000
1001
0000
1100
0000
0110
0000
2002
0000
0000
3003
,
0011
0011
1000
0101
0101
1000
0101
0101
,
0110
0000
1100
0000
0101
0000
0101
0000
1100
0000
0101
0000
0220
0000
0000
0330
,
1000
0000
0100
0000
0010
0000
0001
0000
0010
0100
1000
0100
0001
0010
0100
0010
,
0001
0010
0100
1000
0100
0010
0001
1000
0200
0000
0302
0000
2003
0000
0000
3000
,
0001
1000
0010
0100
0001
1000
0010
0100
0001
1000
0010
1000
0100
0000
0002
0000
,
1003
0010
0100
0001
1000
0010
0100
0001
0010
0100
0010
0001
1000
0000
0200
0000
,
0310
0000
0000
0000
0001
0000
0000
0000
0100
0000
0000
0000
1000
0000
0000
0000
0100
0000
0000
0000
0010
0000
0000
0000
0001
0000
0000
0000
0100
0000
0000
0000
0010
0000
0000
0000
1000
0000
0000
0100
0000
0000
1000
0000
0010
0000
0000
0000
,
0001
0010
0100
1000
0100
0010
0002
0003
,
1000
0100
0010
0001
0100
0010
1000
0001
0100
0010
1000
0001
0100
0010
0001
0100
,
0001
0010
0001
0010
0001
0010
0001
0100
0010
0100
0010
1000
0200
0000
0000
0300
,
0022
0033
0022
0033
0220
0330
0220
0330
2200
3300
2200
3300
2002
3003
2002
3003
,
0220
0000
0000
0000
2330
3000
0002
0003
,
2000
0100
0010
3002
0100
0010
0203
1000
,
0320
0001
0100
1000
0032
0100
2003
0010
,
3200
0001
1300
0020
0100
0001
0230
1000
,
0302
0010
0100
1000
0013
0100
0001
0100
,
2000
0100
3020
0001
0230
1000
0320
0032
,
0100
0010
0203
1000
0320
0001
2030
0010
,
3200
0001
2300
3020
0001
0100
0032
0100
,
0023
0100
1000
0001
0200
0000
0000
0330
,
0120
0000
0000
0000
1000
0000
0000
0000
0100
0000
0000
0000
0001
0000
0000
0030
1020
0000
0000
0000
0100
0000
0000
0000
0001
0000
0000
0000
1000
0000
0000
0000
,
0100
0000
0000
0000
1000
0000
0000
0000
0100
0000
0000
0000
0001
0000
0000
0030
0120
0000
0000
0000
1000
0000
0000
0000
0100
0000
0000
0000
0001
0000
0000
0000
,
1000
0000
0000
0000
0001
0000
0000
0000
0100
0000
0000
0000
1000
0000
0000
0030
0021
0000
0000
0000
0100
0000
0000
0000
1000
0000
0000
0000
0001
0000
0000
0000
,
0100
0000
0000
0000
0001
0000
0000
0000
0100
0000
0000
0000
0001
0000
0000
0030
1020
0000
0000
0000
0100
0000
0000
0000
0001
0000
0000
0000
1000
0000
0000
0000
,
0100
0000
0000
0000
0001
0000
0000
0000
1000
0000
0000
0000
0100
0000
0000
0030
0021
0000
0000
0000
1000
0000
0000
0000
0100
0000
0000
0000
0001
0000
0000
0000
,
1000
0000
0000
0000
0100
0000
0000
0000
0001
0000
0000
0000
1000
0000
0000
0030
0120
0000
0000
0000
0001
0000
0000
0000
1000
0000
0000
0000
0100
0000
0000
0030
,
1001
0100
0010
0001
1000
0001
0110
0001
1000
0001
0100
0010
0101
0010
0100
0001
,
1000
0100
0010
0001
1100
0000
0101
0000
1000
0000
0010
0000
0100
0000
0001
0000
,
1001
0100
0010
0001
0010
0100
0010
0100
0010
0100
1000
0100
0010
0001
1000
0001
,
0110
1000
0001
1000
0001
0100
0010
1000
0100
0010
0001
0100
0010
1000
0100
1000
,
0011
0100
1000
0100
0010
0001
0010
0100
1000
0001
0100
0010
0001
0010
0100
0010
,
1100
0010
0001
1000
0100
0010
0001
1000
0010
0100
0001
0100
0010
0001
0010
0100
,
1001
0100
0010
1000
0001
0100
0010
1000
0001
0010
0100
1000
0010
1000
0001
1000
,
0110
0001
1000
0001
0100
0010
1000
0001
0100
0010
1000
0100
0010
0001
0100
0010
,
1001
0100
0010
0100
1000
0100
0010
0001
1000
0100
0010
0001
0010
0100
0010
0001
,
1000
0000
0000
0010
0000
0000
0100
0000
0000
0001
0000
0000
1000
0000
0000
0010
0000
0000
0100
0000
0000
0001
0000
0000
1000
0000
0001
0000
1000
0000
0001
0000
0000
0010
0000
0000
0001
0000
0000
0100
0000
0000
0010
0000
0000
1000
0000
0000
,
0001
0010
0100
1000
0001
0100
0001
0100
0001
0010
0100
1000
0001
0100
0001
0100
,
0001
1000
0010
0100
0001
1000
0001
1000
0001
0100
0010
1000
0001
1000
0001
1000
,
0001
0010
0100
1000
0100
0010
0001
1000
0100
0010
0001
0010
0100
1000
0100
0010
,
0001
1000
0001
0010
0100
1000
0100
0010
0001
1000
0100
0010
0001
1000
0100
0010
,
0001
1000
0001
1000
0001
1000
0001
1000
0001
1000
0001
1000
0001
1000
0001
1000
,
0001
0100
0001
0100
0001
0100
0001
0100
0001
0100
0001
0100
0001
0100
0001
0100
,
1001
0100
0010
0001
0010
0100
1001
0100
0010
0001
0010
0100
1000
0100
0010
0001
,
1000
0001
0010
0001
1000
0001
0010
0001
1000
0001
0010
0100
0010
0001
0010
0100
,
0001
0010
0100
1000
0001
0010
0100
1000
0001
0010
0100
1000
0100
0010
0001
0010
,
0100
1000
0100
0010
0001
0010
0100
1000
0100
0010
0001
0010
0100
1000
0100
0010
,
0100
1000
0100
0010
0100
1000
0100
0010
0001
0010
0100
1000
0011
0000
0000
0000
,
0012
0000
0000
0000
0000
0000
0000
0003
0220
0000
0330
0000
0220
0000
0330
0000
,
1001
0100
0010
0001
0010
0100
0010
0100
1000
0100
0010
0001
0100
0010
1000
0010
,
0101
0010
1000
0100
0010
0001
0100
0010
0001
0010
0100
1000
0001
0010
0100
0001
,
1010
0100
0001
0010
0100
1000
0010
0100
0001
0010
0100
1000
0001
0100
0010
0001
,
0110
1000
0001
1000
0001
0010
0100
1000
0001
0010
0100
0010
0001
0010
0100
1000
,
0101
0110
0101
0001
1010
0100
1000
0001
,
0010
1100
0001
1010
0101
1000
0110
1000
,
0202
0303
0010
0000
1000
0000
0001
0000
0110
0000
0001
0000
0010
0000
0100
0000
,
0010
1100
0001
0110
0011
1000
0101
0010
,
0101
0110
0101
0010
1010
0001
0100
0010
,
0001
1100
0001
1010
0101
1000
0110
1000
,
0202
0303
0010
0000
1000
0000
0001
0000
0110
0000
1000
0000
0100
0000
0010
0000
,
0001
1100
0001
0110
0011
1000
0101
0010
,
0100
1010
0100
1001
0101
1000
0011
0100
,
0010
0101
0000
0110
1010
0100
0101
0010
,
2002
3103
0010
0100
0001
0100
0010
1000
,
0100
0010
0001
0100
0001
0100
0010
0100
,
0002
0000
0000
0000
,
0000
0000
0000
0000
0000
0000
0000
0000
0000
0000
0000
0000
0000
0000
0003
0000
1000
0000
0000
0000
0000
0100
0000
0000
0000
0020
0000
0000
0000
0000
0000
0000
,
0000
0000
0000
0000
,
0000
0000
0000
0000
0000
0000
0030
0000
0001
0000
0000
0000
0010
0000
0000
0000
0000
0100
0000
0000
0000
1000
0000
0000
0000
0000
0020
0000
0000
0000
0200
0000
,
0030
0320
0000
0000
0000
0000
0000
0000
0000
0000
0000
0000
0000
0000
0000
0000
,
0000
0000
0000
0000
0000
0000
0000
0000
0000
0000
0000
0030
0000
0000
0100
0001
,
0200
0000
0000
0000
0000
0000
0000
0000
0000
0000
0000
0000
0000
0000
0000
0300
,
2000
0000
0000
3000
0000
0000
0020
0000
0000
0030
0000
0000
0002
0000
0003
0000
,
2002
3003
0000
0000
2002
3003
0000
0000
,
2002
3003
2002
0000
0000
0000
0000
0000
0000
0000
0000
0000
0000
0000
0000
0000
,
0000
0000
0000
0000
0000
0000
0000
3003
,
0020
0000
0030
0000
;
