#TITLE:Mark David Chapman;
#SUBTITLE:;
#ARTIST:Mindless Self Indulgence;
#TITLETRANSLIT:;
#SUBTITLETRANSLIT:;
#ARTISTTRANSLIT:;
#CREDIT:;
#BANNER:../fallback - bn.png;
#BACKGROUND:../fallback - bg.png;
#LYRICSPATH:;
#CDTITLE:;
#MUSIC:MDC.ogg;
#OFFSET:-0.610;
#SAMPLESTART:42.238;
#SAMPLELENGTH:12.000;
#SELECTABLE:YES;
#BPMS:0.000=155.000,120.000=77.500,122.000=155.000,277.000=77.500,279.000=155.000;
#STOPS:183.000=0.387
;
#BGCHANGES:;
// cache tags:
#FIRSTBEAT:8.000;
#LASTBEAT:360.000;
#SONGFILENAME:Songs/Beast Aoreo BEAST!/Mark David Chapman - [Aoreo]/MDC.sm;
#HASMUSIC:1;
#HASBANNER:1;
#MUSICLENGTH:155.989;
// end cache tags

//---------------dance-single - J. Nero----------------
#NOTES:
     dance-single:
     J. Nero:
     Challenge:
     11:
     0.649,0.750,0.680,0.167,0.391,576.000,106.000,26.000,23.000,4.000:
0000
0000
0000
0000
,
0000
0000
0000
0000
,
0001
0001
0000
1000
0000
0010
0000
1000
,
0100
1000
0010
0100
0001
0010
0100
1000
,
1100
0110
0010
0011
0001
0101
0000
0000
,
0000
0000
0000
0000
,
0000
0000
0000
0000
0000
0000
0000
0000
0000
0000
0000
0000
0000
0000
1000
0100
,
1100
0000
1010
0110
0000
0101
0000
1001
,
1100
0000
1010
0000
0010
0100
0001
1000
,
1100
0100
0010
0100
0000
1000
0000
0010
,
0110
0000
0000
0000
0000
0000
0000
0000
0100
0000
0000
0000
0000
0000
0000
0000
0001
0000
0000
0000
1000
0000
0000
0000
0010
0000
0000
0000
0100
0001
0100
0001
,
0100
0001
1000
0100
1000
0010
0100
0001
,
1001
0000
0000
1000
0010
0110
0101
1001
,
1100
0000
0000
1010
0110
0000
M1M1
0000
,
0001
0000
0100
0000
1000
0000
0100
0000
M001
0000
0000
0000
0000
0000
0000
0000
1000
0000
0100
0000
0001
0000
0100
0000
100M
0000
0000
0000
0100
1000
0100
1000
,
0100
0000
1000
0010
0000
0110
0000
0100
,
0001
0010
0100
1000
0010
0100
0001
1000
,
1010
0000
0000
1MM1
,
0001
0000
0100
0000
1000
0000
0100
0000
M001
0000
0000
0000
0000
0000
0000
0000
1000
0000
0100
0000
0001
0000
0100
0000
100M
0000
0000
0000
0100
1000
0100
1000
,
0100
0000
1000
0000
0010
0000
0100
0001
0000
0000
0010
0000
0100
0000
1000
0010
,
0000
0000
0000
0000
0100
0000
0000
0000
0001
0000
0000
0000
1000
0000
0001
0000
0000
0000
0000
0000
0010
0000
0000
0000
0100
0000
0000
0000
1000
0001
1000
0001
,
1000
0000
0000
0001
0100
0000
0010
1000
0000
0000
1100
0000
1010
0000
0010
0000
,
0100
0000
0000
0001
0010
0000
0100
0010
0000
0000
0011
0000
1100
0000
0000
0000
,
1010
0000
0010
0000
0100
0000
0001
1000
0000
0000
0100
0000
0010
0000
0100
1000
,
0000
0000
0000
0000
0010
0000
0000
0000
0100
0000
0000
0000
0001
0000
0010
0000
0000
0000
0000
0000
0100
0000
0000
0000
1000
0000
0000
0000
0001
0100
0001
0100
,
0001
0000
0000
0100
0010
0000
1000
0100
0000
0000
1010
0000
0110
0000
0100
0000
,
0001
0000
0000
0000
0000
0000
0000
0000
0000
0100
0000
0000
0010
0000
0000
0000
0000
0000
1000
0000
0000
0100
0000
1000
0000
0100
0000
1000
0000
0100
0000
0000
0000
0000
1000
0000
0000
0000
0000
0000
0000
0000
0010
0000
0000
0000
0000
0000
,
1010
0000
1000
0100
0001
0100
1000
0010
,
0011
0000
0001
0010
0100
0001
1000
0100
,
0101
0000
0001
0100
1000
0000
0010
0000
,
0200
0000
0002
0000
2000
0000
0020
3333
0101
0000
0000
0100
0001
0000
0010
0000
,
0110
0000
0100
1000
0010
0000
0100
0000
0110
0000
0000
0010
1000
0000
0100
0000
,
1100
0000
1000
0001
0010
0000
0001
0000
0011
0000
0000
0010
0100
0000
1000
0000
,
1010
0000
0010
0100
0001
0000
0100
0000
0101
0000
0000
0001
0101
0000
0100
0000
,
1010
0010
1001
1000
0012
0000
0000
0013
,
0100
0000
1100
0000
1010
0000
0010
0200
,
0001
0000
1000
0300
0101
0000
0001
1000
,
0200
0000
0001
0300
1100
0000
1000
0010
,
0200
0000
1000
0300
0110
0000
0010
0100
,
0002
0000
0010
0013
0110
0000
0100
1000
,
0020
0000
0001
0130
0110
0000
0010
1000
,
0200
0000
0001
0300
1100
0000
1000
0010
,
0200
0000
0000
0000
0000
0000
0302
0000
0000
0000
0000
0000
1003
0000
0001
0000
0100
0000
0010
0000
0000
0100
0000
0000
,
0001
0000
0000
1000
0000
0100
0000
0000
0000
1000
0000
0000
0010
0000
0000
0000
0000
0000
0100
0000
0000
0001
0000
0000
,
1000
0000
0000
0000
0000
0000
0100
0000
0000
0000
0000
0000
1000
0000
0000
0000
0000
0000
0010
0000
0000
0000
0000
0000
0100
0000
0000
0000
0000
0000
0000
0000
0000
0000
0000
0000
0000
0000
0000
0010
0000
0000
0000
1000
0000
0000
0000
0001
,
0000
0000
0000
0000
0000
0000
0000
0000
0000
0000
0000
0100
0000
0000
0000
0000
0100
0000
0000
0000
0000
0000
0000
0100
M0MM
0000
0000
0000
0000
0000
0000
0000
,
0000
0000
0001
0100
0101
0000
0000
0000
0000
0000
0011
0000
0000
0000
0110
0000
,
0000
1100
1010
0000
0110
0000
0100
0001
,
1000
0000
0000
0000
0010
1000
0010
1000
0010
0000
0000
0000
1000
0000
0000
0000
0100
0000
0000
0000
0001
0000
0000
0000
0000
0000
0000
0000
0110
0000
0000
0000
,
0000
1100
1001
0000
0101
0001
0010
0100
,
1000
0000
0000
0000
0001
0100
0001
0100
0001
0000
0000
0000
0000
0000
0000
0000
1000
0000
0000
0000
0010
0000
0000
0000
0000
0000
0000
0000
0110
0000
0000
0000
,
0000
0101
1001
0000
1100
1000
0010
0100
,
0001
0010
0110
0000
0000
0100
1000
0000
,
1M1M
0000
0000
0000
0001
0100
1000
0100
M001
0000
0000
0000
1000
0100
0001
0100
,
100M
0000
0000
0000
0001
0100
0001
0100
0001
0000
0000
0000
0000
0000
0000
0000
0100
0000
0000
0000
0110
0000
0000
0000
0000
0000
0000
0000
1010
0000
0000
0000
,
0000
1100
1001
0001
0100
0001
0010
0100
,
1000
0001
0101
0000
0000
0000
0000
0000
,
1MM1
0000
0000
0000
1000
0100
0001
0100
100M
0000
0000
0000
0001
0100
1000
0100
,
M001
0000
0000
0000
1000
0001
1000
0001
1000
0000
0000
0000
0000
0000
0000
0000
0001
0000
0000
0000
1000
0000
0010
0000
0000
0000
0000
0000
0100
0000
0000
0000
,
0001
0000
1000
0100
0000
0000
0010
0000
0100
0000
1000
0010
0000
0000
0100
0000
,
0001
0000
0000
0000
1000
0100
1000
0100
1000
0000
0000
0000
0000
0000
0100
0000
1000
0000
0000
0000
0010
0000
0100
0000
0000
0000
0000
0000
0001
0000
0000
0000
,
1000
0000
1100
0000
0110
0000
0000
0010
0001
0000
0100
0010
0000
0000
1000
0000
,
0010
0000
0000
0000
0100
0001
0100
0001
0100
0000
0000
0000
0000
0000
0000
0000
0010
0000
0000
0000
0100
0000
0001
0000
0000
0000
0000
0000
0010
0000
0000
0000
,
0100
0000
1000
0010
0000
0000
0100
0000
0001
0000
1000
0001
0000
0000
0100
0000
,
0010
0000
0000
0000
1000
0001
1000
0001
1000
0000
0000
0000
0000
0000
0001
0000
0010
0000
0000
0000
0100
0000
1000
0000
0000
0000
0000
0000
0010
0000
0000
0000
,
0110
0000
0101
0000
1001
0000
0000
1000
0001
0000
0010
0100
0000
0000
1000
0000
,
0110
0100
0101
0000
0001
0100
0010
1000
,
0100
0001
0101
0000
0100
1000
0010
0100
,
0001
0100
1100
0000
0100
0001
1000
0000
,
0100
0000
0000
0000
2000
0000
0020
0000
0200
0000
0002
3333
1010
0000
0000
1000
,
0010
0000
0100
0000
0101
0000
0001
0010
0100
0000
0010
0000
0110
0000
0000
0100
,
1000
0000
0100
0000
1100
0000
1000
0001
0010
0000
0100
0000
0110
0000
0000
0010
,
0001
0000
0100
0000
0110
0000
0010
1000
0100
0000
1000
0000
1001
0000
0000
0001
,
0101
1000
1010
0100
0011
0100
0210
0000
,
0000
0310
0100
0000
1100
0000
1010
0000
,
0010
0200
0001
0000
1000
0300
0101
0000
,
0001
1000
0200
0000
0001
0300
1100
0000
,
1000
0010
0200
0000
1000
0300
0110
0000
,
0010
0100
0002
0000
0010
0013
0110
0000
,
0100
1000
0020
0000
0001
0130
0110
0000
,
0010
1000
0200
0000
0001
0300
1100
0000
,
1000
0000
0010
0000
0200
0000
0000
0000
0302
0000
0000
0000
0403
0004
0000
0000
,
0000
0000
0000
0000
,
0000
0000
0000
0000
,
0000
0000
0000
0000
0000
0000
0000
0000
0000
0000
0000
0000
0000
0000
0000
0303
0000
0000
0000
0000
0000
0000
0000
0000
0000
0001
0000
0000
0000
0000
0000
0000
0000
0000
0000
0000
1000
0000
0000
0000
0000
0000
0000
0000
0000
0010
0000
0000
,
0000
0000
0000
0000
0000
0000
0000
0000
0000
0000
0000
0000
0000
0000
0000
0000
0000
0000
0000
0000
0000
0000
0000
0000
0000
0000
0000
0000
0000
0000
0000
0000
0000
0000
0000
0000
0000
0000
0000
0000
0000
0000
0000
0000
0000
0000
0000
0000
0000
0000
0000
0000
0000
0000
0000
0000
0000
0000
0000
0000
0000
0000
0000
0000
1000
0000
0000
0000
0000
0000
0000
0000
0000
0000
0000
0000
0000
0000
0000
0000
0000
0000
0000
0000
0000
0000
0000
0000
0000
0000
0001
0000
0000
0000
0000
0000
0000
0000
0000
0000
0000
0000
0000
0000
0000
0000
0000
0000
0000
0000
0000
0000
0000
0000
0000
0000
0000
0000
0000
0000
0100
0000
0000
0000
0000
0000
0000
0000
0000
0000
0000
0000
0000
0000
0000
0000
0010
0000
0000
0000
0000
0000
0000
0000
0000
0000
0000
0000
0000
0000
0000
0000
1000
0000
0000
0000
0000
0000
0000
0000
0000
0000
0000
0000
0000
0000
0000
0000
0000
0000
0000
0000
0000
0000
0001
0000
0000
0000
0000
0000
0000
0000
0000
0000
0000
0000
0010
0000
0000
0000
0000
0000
,
0000
0000
0000
0000
0000
0000
0000
0000
0000
0000
0000
0000
0100
0000
0000
0000
0000
0000
0000
0000
0000
0000
0000
0000
0000
0000
0000
1000
0000
0000
0000
0000
0000
0000
0000
0000
0000
0000
0000
0000
0000
0000
0000
0000
0000
0000
0000
0000
0000
0000
0000
0000
0000
0000
0000
0000
0000
0000
0000
0000
0000
0000
0000
0000
1010
0000
0000
0000
0000
0000
0000
0000
0000
0000
0000
0000
0000
0000
0000
0000
0000
0000
0000
0000
0000
0000
0000
0000
0000
0000
0000
0000
0000
0000
0000
0000
0000
0000
0000
0000
0000
0000
0000
0000
0000
0000
0000
0000
0000
0000
0000
0000
0000
0000
0000
0000
0000
0000
0000
0000
0000
0000
0000
0000
0000
0000
0000
0000
0000
0000
0000
0000
0110
0000
0000
0000
0000
0000
0000
0000
0000
0000
0000
0000
0000
0000
0000
0000
0000
0000
0000
0000
0000
0000
0000
0000
0000
0000
0000
0000
0000
0000
0000
0000
0000
0000
0000
0000
0000
0000
0000
0000
0000
0000
0000
0000
0000
0000
0000
0000
0000
0000
0000
0000
0000
0000
0000
0000
0000
0000
0000
0000
,
0000
0000
0000
0000
,
0000
0000
0000
0000
,
0000
0000
0000
0000
,
MMMM
0000
0000
0000
;
