#TITLE:Green D;
#SUBTITLE:Oh Henry!;
#ARTIST:DJ Sharpnel;
#TITLETRANSLIT:;
#SUBTITLETRANSLIT:;
#ARTISTTRANSLIT:;
#CREDIT:;
#BANNER:../Fallback-Ban.png;
#BACKGROUND:../Fallback-BG.png;
#LYRICSPATH:;
#CDTITLE:../~CDTitle-@@.png;
#MUSIC:DJ Sharpnel - Green D.ogg;
#OFFSET:-9.610;
#SAMPLESTART:71.148;
#SAMPLELENGTH:22.154;
#SELECTABLE:YES;
#BPMS:0.000=195.000;
#STOPS:;
#BGCHANGES:;
// cache tags:
#FIRSTBEAT:0.000;
#LASTBEAT:665.000;
#SONGFILENAME:Songs/Oh Henry! Mad Stamina/Green D (17+)/Green D.sm;
#HASMUSIC:1;
#HASBANNER:1;
#MUSICLENGTH:218.070;
// end cache tags

//---------------dance-single - @@----------------
#NOTES:
     dance-single:
     @@:
     Challenge:
     17:
     1.000,1.000,0.000,0.018,1.000,2540.000,0.000,4.000,0.000,0.000:
1000
0000
0100
0010
0001
1000
0001
0010
0100
0000
1000
0001
0100
0010
0100
0001
,
1000
0000
0100
0010
0100
1000
0001
0010
0001
0000
0100
0010
0100
0001
0010
0100
,
1000
0000
0001
1000
0001
0100
0010
1000
0010
0000
1000
0001
0010
0100
0010
0001
,
1000
0000
0001
0100
0010
1000
0001
0100
0001
0000
0010
0100
1000
0010
0100
0001
,
1000
0000
0001
0010
0100
0010
0001
1000
0001
0000
1000
0010
0100
0010
1000
0001
,
1000
0000
0001
0010
0001
1000
0100
0010
0001
0000
0100
0010
1000
0100
0010
0100
,
1000
0000
0001
1000
0001
0100
0010
1000
0001
0000
1000
0100
0010
0100
1000
0001
,
1000
0000
0001
0100
0010
1000
0010
0100
0001
1000
0001
1000
0001
0010
0100
1000
,
0010
0100
0001
0100
0010
1000
0001
1000
0100
0010
0001
1000
0100
1000
0001
0010
,
0001
1000
0010
1000
0001
0100
0010
0100
0001
1000
0010
1000
0100
1000
0010
1000
,
0001
0010
0100
1000
0001
0010
0001
1000
0001
0100
0010
1000
0010
0100
0001
1000
,
0001
0010
0100
1000
0100
0010
0100
1000
0001
0010
0001
0100
0001
0010
0001
1000
,
0001
0100
0010
0100
0001
1000
0001
0100
0001
1000
0100
0010
0100
1000
0001
0010
,
0001
1000
0010
1000
0001
0100
0010
0100
0001
1000
0100
1000
0010
1000
0100
1000
,
0001
0100
0010
1000
0001
0100
0001
1000
0100
0010
0100
1000
0001
0010
0100
1000
,
0001
1000
0000
1000
0000
1000
0000
1000
,
0001
0100
0010
0100
0001
1000
0010
1000
0001
0010
0100
1000
0001
0100
0001
0100
,
0001
1000
0100
1000
0001
0010
0100
1000
0001
0010
0001
0100
0010
1000
0001
0010
,
0001
0100
0010
1000
0001
0100
0001
1000
0100
0010
0001
1000
0010
0100
0010
0100
,
0001
1000
0100
0010
0001
1000
0100
1000
0001
0100
0010
1000
0100
0010
0001
0100
,
0001
0010
0100
0010
0001
1000
0100
1000
0001
0100
0010
1000
0001
0010
0001
0010
,
0001
1000
0010
1000
0001
0100
0010
1000
0001
0100
0001
0010
0100
1000
0001
0100
,
0001
0010
0100
1000
0001
0010
0001
1000
0010
0100
0001
1000
0100
0010
0100
0010
,
0001
1000
0010
0100
0001
1000
0010
1000
0001
0010
0001
0100
0001
1000
0100
1000
,
0010
0100
0001
1000
0010
1000
0001
0100
0001
1000
0100
0010
0001
1000
0001
1000
,
0001
0010
0100
0010
0001
1000
0100
0010
0100
1000
0010
0100
0001
0100
0010
1000
,
0100
1000
0001
0010
0001
1000
0100
1000
0001
0100
0001
1000
0100
0010
0100
0010
,
0001
1000
0010
1000
0001
0100
0001
1000
0100
0010
0100
1000
0010
0100
0001
0010
,
0100
0010
0001
1000
0100
0010
0001
1000
0001
0100
0001
1000
0100
1000
0100
1000
,
0001
0100
0010
0100
0001
1000
0010
0100
0010
1000
0100
0010
0001
0010
0100
1000
,
0010
1000
0001
0100
0001
1000
0010
1000
0001
0010
0001
1000
0010
0100
0010
0100
,
0001
1000
0100
1000
0001
0010
0001
1000
0010
0100
0010
1000
0100
0010
0001
0100
,
0001
1000
0010
1000
0000
0001
1000
0000
0001
0010
0100
1000
0000
0001
0010
0000
,
0001
1000
0010
1000
0000
0001
0100
0000
0001
1000
0100
0010
0000
0001
1000
0000
,
0001
0100
0010
0100
0000
0001
1000
0000
0001
0010
0100
1000
0000
0001
0010
0000
,
0001
1000
0010
1000
0000
0001
0100
0000
0001
1000
0100
1000
0000
0001
0010
0000
,
0001
1000
0001
0100
0000
0010
1000
0000
0001
0010
0100
0010
0000
0001
1000
0000
,
0010
0100
0010
1000
0000
0001
0100
0000
0001
0010
0100
1000
0000
0100
0010
0000
,
0001
1000
0010
1000
0000
0001
0100
0000
0001
0010
0001
1000
0000
0100
0010
0000
,
0001
1000
0010
1000
0000
0001
1000
0000
0100
0010
0001
1000
0000
0100
1000
0000
,
0001
0100
0010
1000
0010
0100
0001
0000
1000
0100
0010
0001
0010
0100
1000
0000
,
0001
0100
0010
0100
0001
1000
0001
0000
1000
0100
0010
0100
1000
0001
1000
0000
,
0010
0100
0001
0100
0010
1000
0001
0000
0010
0100
1000
0100
0010
0001
1000
0000
,
0001
0100
0010
1000
0001
1000
0010
0000
1000
0100
0010
0001
1000
0001
0010
0000
,
0001
1000
0010
0100
0010
1000
0001
0000
1000
0001
0010
0100
0010
0001
1000
0000
,
0010
0100
0001
1000
0001
0100
0001
0000
0010
0100
1000
0001
1000
0100
1000
0001
,
0100
0010
0100
0001
1000
0010
0100
0001
1000
0100
0010
0001
0010
0100
1000
0001
,
0100
0010
0100
0001
0010
0100
1000
0100
0010
0001
0100
0010
1000
0001
0100
0001
,
0010
0000
0000
0010
0001
0000
0020
0000
0031
0000
0001
0000
1000
0000
0010
0000
,
0100
0001
1000
1000
0100
0100
0010
0010
,
0001
1000
0100
1000
0001
0010
0001
1000
0010
1000
0001
0100
0010
0100
0001
0010
,
0100
1000
0001
1000
0010
1000
0001
1000
0100
0010
0100
0010
0001
0100
0010
1000
,
0100
1000
0100
1000
0010
0100
0001
0010
0100
1000
0100
1000
0010
0100
0001
0010
,
0100
1000
0100
0010
0100
1000
0100
0010
0001
0100
0010
0100
0001
1000
0100
1000
,
0010
0100
0001
1000
0010
0100
0010
1000
0001
0010
0100
0010
0001
1000
0100
0010
,
0001
0100
0001
1000
0001
0010
0001
1000
0010
0100
0010
0100
0001
0010
0100
0010
,
0001
0100
0001
0100
0010
1000
0100
0010
0001
0100
0001
0100
0010
1000
0100
0010
,
0001
0100
0010
0100
0001
1000
0100
0010
0001
0100
0010
1000
0010
0100
0001
0010
,
0001
0100
0010
1000
0001
0100
0001
1000
0100
1000
0001
0010
0100
0010
0001
0100
,
0010
1000
0001
1000
0100
1000
0001
1000
0010
0100
0010
0100
0001
0010
0100
1000
,
0010
1000
0010
1000
0100
0010
0001
0100
0010
1000
0010
1000
0100
0010
0001
0100
,
0010
1000
0010
0100
0010
1000
0010
0100
0001
0010
0100
0010
0001
1000
0010
1000
,
0100
0010
0001
1000
0100
0010
0100
1000
0001
0100
0010
0100
0001
1000
0010
0100
,
0001
0010
0001
1000
0001
0100
0001
1000
0100
0010
0100
0010
0001
0100
0010
0100
,
0001
0010
0001
0010
0100
1000
0010
0100
0001
0010
0001
0010
0100
1000
0010
0100
,
0001
0010
0100
0010
0001
1000
0010
0100
0001
0010
0100
1000
0100
0010
0001
0100
,
0010
0000
0000
0010
1000
0000
0002
0000
0103
0000
0100
0000
0010
0000
0100
0000
,
0001
1000
0001
0001
0010
0010
0100
0100
,
1000
0001
0010
0001
1000
0100
1000
0001
0100
0001
1000
0010
0100
0010
1000
0100
,
0010
0001
1000
0001
0100
0001
1000
0001
0010
0100
0010
0100
1000
0010
0100
0001
,
1000
0100
1000
0100
0010
0001
0100
0010
1000
0100
1000
0100
0010
0001
0100
0010
,
1000
0100
0010
0100
1000
0100
0010
0001
0100
0010
0100
0001
1000
0010
1000
0100
,
0010
0100
1000
0001
0010
0100
0010
0001
1000
0010
0100
0010
1000
0001
0100
0010
,
1000
0100
1000
0001
1000
0010
1000
0001
0010
0100
0010
0100
1000
0010
1000
0001
,
0100
0001
0100
0001
0010
0100
1000
0010
0100
0001
0100
0001
0010
0100
1000
0010
,
1000
0100
0010
0100
1000
0001
0100
0010
1000
0100
0010
0001
0010
0100
1000
0010
,
1000
0001
0100
0001
1000
0010
1000
0001
0010
0001
1000
0100
0010
0100
1000
0010
,
0100
0001
1000
0001
0010
0001
1000
0001
0100
0010
0100
0010
1000
0100
0010
0001
,
1000
0010
1000
0010
0100
0001
0010
0100
1000
0010
1000
0010
0100
0001
0010
0100
,
1000
0010
0100
0010
1000
0010
0100
0001
0010
0100
0010
0001
1000
0100
1000
0010
,
0100
0010
1000
0001
0100
0010
0100
0001
1000
0100
0010
0100
1000
0001
0010
0100
,
1000
0010
1000
0001
1000
0100
1000
0001
0100
0010
0100
0010
1000
0100
1000
0001
,
0010
0001
0010
0001
0100
0010
1000
0100
0010
0001
0010
0001
0100
0010
1000
0100
,
1000
0010
0100
0010
1000
0001
0010
0100
1000
0010
0100
0001
0100
0010
1000
0100
,
1000
0000
0000
1000
0001
0000
0020
0000
0130
0000
0100
0000
1000
0000
0010
0000
,
0100
0001
1000
1000
0100
0100
0010
0010
,
0001
1000
0001
1000
0100
0010
0001
0100
0010
1000
0010
1000
0001
0100
0010
1000
,
0100
0010
0100
0010
0001
1000
0100
1000
0010
0100
0010
0100
0001
1000
0010
0100
,
0001
0010
0001
0010
0100
1000
0100
0010
0001
0100
0001
0100
0010
1000
0010
0100
,
0001
0010
0100
0010
0001
0010
0100
0010
0001
1000
0010
1000
0001
0100
0010
1000
,
0100
0010
0100
0010
0001
1000
0100
1000
0010
0100
0010
0100
0001
1000
0010
0100
,
0001
0010
0001
0010
0100
1000
0100
0010
0001
0100
0001
0100
0001
1000
0010
1000
,
0100
0010
0100
0010
0001
1000
0100
0010
0001
0100
0001
0100
0010
1000
0001
1000
,
0100
0010
0001
1000
0100
1000
0010
0100
0001
0100
0010
1000
0100
0010
0100
1000
,
0001
1000
0001
1000
0010
0100
0001
0010
0100
1000
0100
1000
0001
0010
0100
1000
,
0010
0100
0010
0100
0001
1000
0010
1000
0100
0010
0100
0010
0001
1000
0100
0010
,
0001
0100
0001
0100
0010
1000
0010
0100
0001
0010
0001
0010
0100
1000
0100
0010
,
0001
0100
0010
0100
0001
0100
0010
0100
0001
1000
0100
1000
0001
0010
0100
1000
,
0010
0100
0010
0100
0001
1000
0010
1000
0100
0010
0100
0010
0001
1000
0100
0010
,
0001
0100
0001
0100
0010
1000
0010
0100
0001
0010
0001
0010
0001
1000
0100
1000
,
0010
0100
0010
0100
0001
1000
0010
0100
0001
0010
0001
0010
0100
1000
0001
1000
,
0010
0100
0001
1000
0010
1000
0100
0010
0001
0010
0100
1000
0010
0100
0001
0100
,
0010
1000
0001
0100
0010
0100
0001
0010
0100
1000
0100
0010
0001
1000
0100
1000
,
0010
0100
0001
1000
0010
1000
0001
0100
0001
0010
0100
1000
0100
0010
0001
0100
,
0010
1000
0010
0100
0001
0100
0010
1000
0100
0010
0001
1000
0001
0010
0100
1000
,
0001
0100
0010
0100
0001
0100
0010
0100
0001
0010
0100
0010
0001
0010
0100
1000
,
0010
0100
0001
1000
0010
0100
0010
1000
0100
0010
0001
1000
0100
0010
0100
1000
,
0010
0100
0001
1000
0001
0100
0010
1000
0100
1000
0001
0010
0001
1000
0100
1000
,
0010
0100
0001
0100
0010
1000
0010
0100
0001
0010
0100
0010
0001
1000
0100
0010
,
0001
1000
0010
0100
0001
0010
0001
1000
0100
1000
0001
0100
0010
0100
0001
0010
,
0100
1000
0001
0010
0100
0010
0001
0100
0010
1000
0010
0100
0001
1000
0010
1000
,
0100
0010
0001
1000
0100
1000
0001
0010
0001
0100
0010
1000
0010
0100
0001
0010
,
0100
1000
0100
0010
0001
0010
0100
1000
0010
0100
0001
1000
0001
0100
0010
1000
,
0001
0010
0100
0010
0001
0010
0100
0010
0001
1000
0010
1000
0001
1000
0010
0100
,
0001
0010
0001
1000
0100
0010
0100
1000
0010
0100
0001
1000
0010
0100
0010
1000
,
0100
0010
0001
1000
0001
0010
0100
1000
0010
1000
0001
0100
0001
1000
0010
1000
,
0100
0010
0001
0010
0100
1000
0100
0010
0001
0100
0010
0100
0001
1000
0010
0100
,
0001
1000
0100
0010
0001
0100
0001
1000
0010
0100
0010
1000
0100
0010
0001
0100
,
0010
1000
0001
0100
0001
1000
0010
1000
0100
0010
0001
0010
0100
0010
0001
0010
,
0100
1000
0001
1000
0010
0100
0001
1000
0001
0010
0100
1000
0001
0100
0010
1000
,
0100
0010
0001
1000
0100
1000
0010
0100
0001
1000
0010
1000
0001
1000
0010
1000
,
0100
0010
0001
0100
0010
1000
0010
0100
0001
1000
0100
1000
0001
0100
0001
1000
,
0100
0010
0100
1000
0010
1000
0001
0100
0010
1000
0001
0100
0001
1000
0100
1000
,
0001
0010
0100
1000
0100
0010
0001
1000
0001
0100
0010
1000
0001
1000
0010
0100
,
0001
0010
0100
0010
0001
0010
0100
1000
0010
0100
0001
0100
0010
0100
0001
1000
,
0100
0010
0001
1000
0100
1000
0001
0010
0001
0100
0010
1000
0001
0100
0001
0010
,
0100
1000
0001
0010
0001
1000
0100
1000
0010
0100
0001
0100
0010
0100
0001
0100
,
0010
1000
0001
1000
0100
0010
0001
1000
0001
0100
0010
1000
0001
0010
0100
1000
,
0010
0100
0001
1000
0010
1000
0100
0010
0001
1000
0100
1000
0001
1000
0100
1000
,
0010
0100
0001
0010
0100
1000
0100
0010
0001
1000
0010
1000
0001
0010
0001
1000
,
0010
0100
0010
1000
0100
1000
0001
0010
0100
1000
0001
0010
0001
1000
0010
1000
,
0001
0100
0010
1000
0010
0100
0001
1000
0001
0010
0100
1000
0001
1000
0100
0010
,
0001
0100
0010
1000
0001
0100
0010
1000
0100
0010
0001
1000
0100
0010
0001
1000
,
0010
0100
0001
1000
0010
0100
0001
1000
0001
0010
0001
0100
0001
1000
0100
1000
,
0010
0100
0001
1000
0001
0100
0010
0100
0001
0010
0001
1000
0001
0010
0001
1000
,
0100
0010
0100
1000
0010
0100
0001
1000
0001
0010
0100
1000
0001
0100
0010
1000
,
0100
0010
0100
1000
0001
0100
0010
1000
0010
0100
0001
0100
0010
0100
0001
1000
,
0100
0010
0001
0100
0010
0100
0001
1000
0100
1000
0001
0100
0010
0100
0001
1000
,
0100
0010
0100
1000
0010
1000
0001
0100
0010
1000
0001
0100
0001
1000
0100
0010
,
0001
0010
0100
1000
0100
0010
0001
1000
0001
0100
0010
0100
0001
1000
0010
0100
,
0001
1000
0100
1000
0001
1000
0100
1000
0001
0100
0001
1000
0001
0100
0001
1000
,
0100
0010
0001
0010
0100
1000
0100
0010
0100
1000
0010
1000
0001
0100
0010
1000
,
0100
0010
0001
1000
0001
0010
0100
0010
0001
0100
0001
1000
0001
0100
0001
1000
,
0010
0100
0010
1000
0100
0010
0001
1000
0001
0100
0010
1000
0001
0010
0100
1000
,
0010
0100
0010
1000
0001
0010
0100
1000
0100
0010
0001
0010
0100
0010
0001
1000
,
0100
0010
0001
0100
0010
1000
0010
0100
0001
1000
0100
1000
0001
0100
0001
1000
,
0100
0010
0100
1000
0010
1000
0001
0100
0010
1000
0001
0100
0001
1000
0100
1000
,
0001
0010
0100
1000
0100
0010
0001
1000
0001
0100
0010
1000
0001
1000
0010
0100
,
0001
0010
0100
1000
0001
0010
0100
1000
0010
0100
0001
1000
0010
0100
0001
1000
,
0100
0010
0001
1000
0100
0010
0001
1000
0001
0100
0001
0010
0001
1000
0010
1000
,
0100
0010
0001
1000
0001
0010
0100
0010
0001
0100
0001
1000
0001
0100
0010
0100
,
0001
1000
0010
1000
0100
1000
0010
1000
0001
0010
0100
1000
0001
0100
0010
1000
,
0100
0010
0100
1000
0001
0100
0010
1000
0010
0100
0001
0100
0010
0100
0001
1000
,
0100
0010
0001
1000
0010
1000
0100
1000
0010
1000
0001
0100
0010
0100
0001
1000
,
0100
0010
0100
1000
0010
1000
0001
0100
0010
1000
0001
0100
0001
1000
0100
1000
,
0001
0010
0001
0100
0001
1000
0001
0100
0001
0010
0100
1000
0001
1000
0100
0010
,
0001
1000
0010
1000
0001
1000
0010
1000
0100
0010
0001
0010
0100
0010
0001
1000
,
0001
0100
0001
0010
0001
0100
0001
1000
0100
1000
0010
1000
0001
0100
0010
1000
,
0100
0010
0001
1000
0001
0100
0010
0100
0001
0010
0001
1000
0001
0010
0100
0010
,
0001
1000
0100
1000
0010
1000
0100
1000
0001
0100
0010
1000
0001
0010
0100
1000
,
0010
0100
0010
1000
0001
0010
0100
1000
0100
0010
0001
0010
0100
0010
0001
1000
,
0010
0100
0001
1000
0100
1000
0010
1000
0100
1000
0001
0010
0100
0010
0001
1000
,
0100
0010
0100
1000
0010
1000
0001
0100
0010
1000
0001
0100
0001
1000
0100
1000
,
0001
0010
0100
1000
0100
0010
0001
1000
0001
0100
0010
1000
0001
1000
0010
0100
,
0001
0010
0100
1000
0001
0010
0100
1000
0010
0100
0001
1000
0010
0100
0001
1000
,
0100
0010
0001
1000
0100
0010
0001
1000
0001
0100
0001
0010
0001
1000
0010
1000
,
0200
0300
0000
0000
;
