#TITLE:Lawn Wake V;
#SUBTITLE:;
#ARTIST:The Flashbulb Feat. Admiral T;
#TITLETRANSLIT:;
#SUBTITLETRANSLIT:;
#ARTISTTRANSLIT:;
#CREDIT:Thx Phenomega for the bg n' bn i couldnt make one original bg for this song;
#BANNER:Lawn Wake V-bn.png;
#BACKGROUND:Lawn Wake V-bg.png;
#LYRICSPATH:;
#CDTITLE:KOMBO.png;
#MUSIC:Lawn wake 5.mp3;
#OFFSET:-0.070;
#SAMPLESTART:6.777;
#SAMPLELENGTH:11.940;
#SELECTABLE:YES;
#BPMS:0.000=214.000;
#STOPS:;
#BGCHANGES:;
// cache tags:
#FIRSTBEAT:0.000;
#LASTBEAT:342.750;
#SONGFILENAME:Songs/Definitive Keyboard Megapack/Lawn Wake V [KOMBO]/Lawn Wake V.sm;
#HASMUSIC:1;
#HASBANNER:1;
#MUSICLENGTH:102.556;
// end cache tags

//---------------dance-single - KOMBO Steps----------------
#NOTES:
     dance-single:
     KOMBO Steps:
     Hard:
     15:
     1.000,1.000,1.000,1.000,1.000,969.000,193.000,105.000,0.000,40.000:

0010
0000
0000
0010
0000
0000
0010
0000
0000
0110
0000
0000
0000
0100
0001
0010
,
0001
0100
1000
0100
0010
0100
0010
0001
0100
0010
0002
0003
0000
0000
0000
0000
,
0010
0000
0000
0010
0000
0000
0010
0000
0000
0110
0000
0000
0000
0100
0001
0010
,
1000
0100
0001
0010
0200
0310
0001
1000
0100
0010
2000
3000
0000
0000
0000
0000
,
0010
0000
0000
0010
0000
0000
0010
0000
0000
0110
0000
0000
0000
0100
0001
0010
,
0001
0100
1000
0100
0010
0100
0010
0001
0100
0010
0002
0003
0000
0000
0000
0000
,
2010
0001
3010
0100
0011
0000
0100
0000
2010
0001
3010
0100
0011
0000
0100
0000
,
2010
0001
3010
0100
1010
0000
1001
0000
1010
0000
0101
0000
0000
0000
1000
0000
,
0001
0000
0000
0000
0100
0000
0000
0000
0011
0000
0000
0000
1000
0000
0001
0000
0100
0000
0010
0000
0100
0000
0010
0000
1000
0100
0010
0001
1000
0100
0010
0001
,
0000
0000
1100
0000
0011
0000
1100
0000
0011
0000
0000
0000
1000
0100
0010
0001
0000
0000
0000
0000
1000
0000
0001
0000
0100
0000
0000
0000
0001
0010
0100
1000
,
0000
0000
0010
0100
1001
0100
0010
1000
0011
0100
0010
0100
0002
0000
0000
0000
,
1103
0000
0000
0000
0000
0000
0010
0000
0000
0000
0000
0000
1000
0000
0000
0000
0000
0000
0001
0000
0000
1000
0000
0000
0011
0000
0000
0000
0000
0000
0110
0000
0000
0000
0000
0000
1000
0100
0010
0001
1000
0100
0010
0001
1000
0100
0010
0001
,
0000
0000
0200
0000
0320
0000
2030
3002
2003
0000
0000
0000
3020
0000
0000
0000
,
1031
0000
0000
0000
1001
0000
0000
0000
0110
0000
0000
0000
1001
0000
0000
0000
1001
0000
0000
0000
0100
0000
0001
0000
0100
0000
0000
0000
1000
0100
0010
0001
,
0000
0000
0000
0000
0001
0000
0000
0000
0100
0000
0000
0000
0001
0000
1000
0000
0100
0000
1000
0000
0010
0000
0000
0000
0001
0010
0100
1000
0001
0010
0100
1000
,
0011
0000
0000
0000
0000
0000
0000
0000
1001
0000
0000
0000
0100
0000
0000
0000
0101
0000
0000
0000
0010
0000
0000
0000
1000
0100
0010
0001
1000
0100
0010
0001
,
1100
0000
0001
0000
1010
0000
0100
0000
0011
0100
1010
0100
0011
0000
1000
0000
,
1001
0000
0001
0000
1100
0000
0010
0000
0101
0010
1001
0010
0101
0000
1000
0000
,
0011
0000
0100
0000
1001
0000
0010
0000
1010
0100
1001
0100
1010
0000
0011
0000
,
1100
0000
0001
0000
0110
0000
1000
0000
0202
0313
1000
0010
1001
0000
0100
0000
,
1100
0000
0001
0000
1010
0000
0100
0000
0011
0100
1010
0100
0011
0000
1000
0000
,
1001
0000
0001
0000
1100
0000
0010
0000
0101
0010
1001
0010
0101
0000
1000
0000
,
0011
0000
0100
0000
1001
0000
0010
0000
1010
0100
1001
0100
1010
0000
0011
0000
,
1100
0000
0001
0000
0110
0001
1000
0001
2200
3300
0001
1000
0001
0000
0110
0000
,
0110
0000
1001
0000
0001
0000
0100
0000
1000
0100
0010
0001
0010
0000
0100
0000
,
0110
0000
0010
0000
0001
0010
0100
0010
0001
1000
0100
0010
0002
0000
0000
0000
,
1103
0000
0000
0000
0101
0000
0000
0000
1010
0000
1010
0000
1010
0100
0011
0000
,
1000
0100
0010
0001
1000
0100
0010
0000
0000
1000
0100
0010
0001
0010
0100
1000
0100
0010
0001
0000
0100
0000
0010
0000
,
2000
0000
3020
0001
0230
0000
0302
2003
3002
0000
0000
0000
0203
0000
0000
0000
,
1301
0000
0000
0000
0101
0000
0000
0000
1001
0000
0000
0000
1010
0000
0000
0000
0100
0000
0000
0000
0010
0000
1000
0000
0010
0000
0000
0000
1000
0100
0010
0001
,
0000
0000
1000
0000
0100
0000
0010
0000
0101
0000
1000
0000
0001
0000
0010
0000
0101
0000
1000
0000
0010
0000
0100
0000
1000
0100
0010
0001
1000
0100
0010
0001
,
1100
0000
0000
0000
0000
0000
0000
0000
1001
0000
0000
0000
0100
0000
0000
0000
1010
0000
0000
0000
0000
0000
0000
0000
1000
0001
0100
0010
1000
0001
0100
0010
,
1001
0000
0100
0000
0010
0000
0001
0000
1000
0100
0010
0001
0000
0000
1000
0000
0001
0000
0010
0000
0100
0000
1000
0000
0100
0000
0010
0000
0001
0000
1000
0000
,
0001
0000
0000
0000
0000
0000
0000
0000
0000
0000
0000
0000
1000
0000
0000
0000
0000
0000
0000
0000
0000
0000
0000
0000
0001
0000
0000
0000
0000
0000
0010
0000
0000
0000
0000
0000
0100
0000
0000
0000
0000
0000
1000
0000
0000
0000
0000
0000
0000
0000
0000
0000
0000
0000
0000
0000
0000
0001
0000
0000
0000
0000
0000
0000
0000
0000
0000
0000
0000
0000
0000
0000
1000
0000
0000
0000
0000
0000
0100
0000
0000
0000
0000
0000
0010
0000
0000
0000
0000
0000
0001
0000
0000
0000
0000
0000
0000
0000
0000
0000
0000
0000
0000
0000
0000
0000
0000
0000
1000
0000
0000
0000
0000
0000
0000
0000
0000
0000
0000
0000
0010
0000
0000
0000
0000
0000
0000
0000
0000
0000
0000
0000
1000
0000
0000
0000
0000
0000
0000
0000
0000
0000
0000
0000
0001
0000
0000
0000
0000
0000
0000
0000
0010
0000
0000
0000
0000
0000
0000
0000
0100
0000
0000
0000
0000
0000
0000
0000
1000
0000
0000
0000
0000
0000
0000
0000
0100
0000
0000
0000
0000
0000
0000
0000
0010
0000
0000
0000
0000
0000
0000
0000
,
0001
0000
0000
0000
0000
0000
0002
0000
0000
0000
0000
0000
1003
0000
0000
0100
0000
0000
0010
0000
0000
0001
0000
0000
1000
0000
0000
0010
0000
0000
0100
0000
0000
0001
0000
0000
1000
0000
0000
0000
0000
0000
0200
0000
0300
0000
0000
0000
,
1001
0000
0000
0000
0000
0000
0000
0000
0000
0000
0000
0000
1000
0000
0000
0000
0010
0000
0000
0000
0000
0000
0000
0000
0100
0000
0000
0000
0001
0000
0000
0000
0010
0000
0000
0000
0100
0000
0000
0000
0010
0000
0000
0000
0000
0000
0000
0000
1000
0100
0010
0001
0000
0000
0000
0000
0001
0010
0100
1000
0000
0000
0000
0000
,
0101
0000
0010
0000
0100
0000
0010
0000
1000
0100
0010
0001
0000
0000
0100
0000
1000
0000
0100
0000
0010
0000
0001
0000
0010
0000
0100
0000
1000
0000
0001
0000
,
1000
0000
0000
0000
0000
0000
0000
0000
0000
0000
0000
0000
0000
0000
0000
0000
0000
0000
0000
0000
0000
0000
0000
0000
1000
0000
0000
0000
0000
0000
0100
0000
0000
0000
0000
0000
0010
0000
0000
0000
0000
0000
0001
0000
0000
0000
0000
0000
0000
0000
0000
0000
0000
0000
0000
0000
0000
1000
0000
0000
0000
0000
0000
0000
0000
0000
0000
0000
0000
0000
0000
0000
0001
0000
0000
0000
0000
0000
0010
0000
0000
0000
0000
0000
0100
0000
0000
0000
0000
0000
1000
0000
0000
0000
0000
0000
0000
0000
0000
0000
0000
0000
0000
0000
0000
0000
0000
0000
0001
0000
0000
0000
0000
0000
0000
0000
0000
0000
0000
0000
1000
0000
0000
0000
0000
0000
0000
0000
0000
0000
0000
0000
0001
0000
0000
0000
0000
0000
0000
0000
0000
0000
0000
0000
1000
0000
0000
0000
0000
0000
0000
0000
0100
0000
0000
0000
0000
0000
0000
0000
0010
0000
0000
0000
0000
0000
0000
0000
0001
0000
0000
0000
0000
0000
0000
0000
0010
0000
0000
0000
0000
0000
0000
0000
0100
0000
0000
0000
0000
0000
0000
0000
,
1000
0000
2000
0000
3001
0010
0100
1000
0001
0100
0010
0001
2000
0000
0000
0000
,
3020
0030
0020
0030
0020
0030
0020
0030
0020
0030
0020
0030
0020
0030
0020
0030
0020
0030
0020
0030
0020
0030
0020
0030
0020
0030
0020
0030
0020
0030
0020
0030
,
2000
3000
0000
0000
0000
0002
0003
0000
0000
0000
0200
0300
0000
0000
0000
0000
1001
0000
0000
0000
0010
0000
0000
0000
0101
0000
0000
0000
0001
0010
0100
0000
,
1010
0100
1001
0100
0011
1000
0101
1000
,
0200
0300
0000
0000
0000
2000
3000
0000
0000
0000
0002
0003
0000
0000
0000
0000
1010
0000
0000
0000
0100
0000
0000
0000
1001
0000
0000
0000
0010
0000
0000
0000
,
1100
0000
0000
0000
0000
0000
0000
0000
1000
0100
0010
0001
0000
0000
0000
0000
0001
0010
0100
1000
0000
0000
0000
0000
1000
0100
0010
0001
0000
0000
0000
0000
0220
0000
0000
0000
0330
0000
0000
0000
1000
0100
0010
0001
0000
0000
0000
0000
0001
0010
0100
1000
0000
0000
0000
0000
0000
0000
0000
0000
0000
0000
0000
0000
,
0002
0003
0000
0000
0000
2000
3000
0000
0000
0000
0020
0030
0000
0000
0000
0000
1001
0000
0000
0000
0000
0000
0000
0000
0011
0000
0000
0000
1000
0000
0000
0000
,
0010
0001
1001
0100
1010
0100
0101
0010
,
0002
0003
0000
0000
0000
0200
0300
0000
0000
0000
0020
0030
0000
0000
0000
0000
1001
0000
0000
0000
0010
0000
0000
0000
1100
0000
0000
0000
0001
0000
0000
0000
,
0110
0000
1000
0000
0101
0000
0010
0000
1000
0010
1000
0010
0100
0001
0100
0001
,
2110
0000
0001
0000
0110
0000
0001
0100
0010
0100
0001
0000
3010
0000
0000
0000
,
0111
0000
0010
0000
0100
0000
0010
0001
0100
1000
0010
0000
0100
0000
0000
0000
,
1102
0000
0110
1100
0000
1100
0113
0000
,
1101
0001
1000
0010
0100
0000
1000
1000
,
0121
1000
0100
0001
1000
0100
0031
0000
,
1011
0000
0001
1000
0010
0100
0010
0000
,
1210
0000
0011
1010
0000
0011
1310
0000
,
1011
0001
1100
0001
0110
0000
1001
0000
,
0110
0000
0000
0000
0000
0000
0000
0000
0001
0000
0000
0000
0000
0000
0000
0000
2220
3000
0300
0030
0000
0000
0000
0000
1000
0000
0000
0000
0010
0000
0000
0000
,
1100
0000
0000
0000
0010
0000
0000
0000
1001
0000
0000
0000
0010
0000
0000
0000
2022
3000
0030
0003
0000
0000
0000
0000
0110
0000
0000
0000
0001
0000
0000
0000
,
1010
0000
0000
0000
0000
0000
0000
0000
0001
0000
0000
0000
0100
0000
0000
0000
2202
0000
0303
3000
0000
0000
0000
0000
1000
0000
0000
0000
0001
0000
0000
0000
,
1000
0000
0001
0000
0100
0000
0001
0000
0100
0010
0100
0010
0001
1000
0010
1000
,
0011
0000
1100
0010
1001
0000
0001
0100
0001
1000
0010
1000
0101
0000
1001
0010
,
1100
0000
0000
0000
0001
0000
0010
0000
0100
0000
0010
0000
0001
0000
1000
0000
0020
0030
0020
0030
0020
0030
0020
0030
0020
0000
0030
0000
0100
0000
0010
0000
,
0100
0000
0000
0000
0000
0000
0000
0000
1000
0100
0010
0001
0000
0000
0000
0000
0001
0010
0100
1000
0000
0000
0000
0000
1000
0100
0010
0001
0000
0000
0000
0000
0001
0010
0100
1000
0000
0000
0000
0000
1000
0100
0010
0001
0000
0000
0000
0000
0001
0010
0100
1000
0000
0000
0000
0000
1000
0100
0010
0001
0000
0000
0000
0000
,
0001
0010
0100
1000
0000
0000
0000
0000
1000
0100
0010
0001
0000
0000
0000
0000
0001
0010
0100
1000
0000
0000
0000
0000
1000
0100
0010
0001
0000
0000
0000
0000
0010
0000
0000
0000
0100
0000
0000
0000
0010
0000
0000
0000
0000
0000
0000
0000
0001
0000
0010
0000
0100
0000
1000
0000
0002
0000
0000
0000
0000
0000
0000
0000
,
0013
0000
0001
0000
1001
0000
0010
0100
0010
1000
0010
0100
0011
0000
0011
0000
,
1001
0000
0001
0000
0002
0023
0230
2300
3011
1000
0100
0010
0002
0000
0000
0000
,
1103
0000
0000
0000
1000
0000
0000
0000
1001
0000
1001
0000
0010
0100
0011
0000
,
1000
0000
0000
0000
0000
0000
0000
0000
0000
0000
0000
0000
0100
0000
0000
0000
0000
0000
0000
0000
0000
0000
0000
0000
1000
0000
0000
0000
0000
0000
0000
0000
0000
0000
0000
0000
0100
0000
0000
0000
0000
0000
0000
0000
0000
0000
0000
0000
0010
0000
0000
0000
0000
0000
0000
0000
0000
0000
0000
0000
0100
0000
0000
0000
0000
0000
0000
0000
0000
0000
0000
0000
0010
0000
0000
0000
0000
0000
0000
0000
0000
0000
0000
0000
0001
0000
0000
0000
0000
0000
0000
0000
0000
0000
0000
0000
0010
0000
0000
0000
0000
0000
0000
0000
0000
0000
0000
0000
0100
0000
0000
0000
0000
0000
0000
0000
0000
0000
0000
0000
1000
0000
0000
0000
0000
0000
0000
0000
0000
0000
0000
0000
0000
0000
0000
0000
0000
0000
0000
0000
0000
0000
0000
0000
0001
0000
0000
0000
1000
0000
0000
0000
0100
0000
0000
0000
0000
0000
0000
0000
0000
0000
0000
0000
0000
0000
0000
0000
0000
0000
0000
0000
0000
0000
0001
0000
0000
0000
0000
0000
0010
0000
0000
0000
0000
0000
1000
0000
0000
0000
0000
0000
,
0000
0000
0000
0000
0000
0000
1000
0100
0001
0000
0000
0000
0000
0000
0000
0000
0000
0000
0001
1000
0010
0000
0000
0000
0000
0000
0000
0000
0000
0000
0010
0100
0001
0000
0000
0000
0000
0000
0000
0000
0000
0000
1000
0100
0010
0000
0000
0000
,
0000
0000
0001
0100
0001
0100
0002
0000
2003
0000
3111
0000
0010
0000
1100
0000
,
0001
0010
0100
1000
0011
0000
1100
0000
0000
0000
0111
0000
0010
0000
1100
0000
,
1000
0100
0010
0001
1100
0000
0010
0000
0000
0000
1011
0000
0000
0000
0100
0000
,
0011
0000
1010
0001
1000
0111
1000
0100
,
0011
1000
0101
0010
0000
1101
0100
1100
,
0001
0010
0100
1000
0011
0000
0100
0000
0000
0000
1110
0000
0001
0000
0100
0000
,
1000
0100
0010
0001
1100
0000
0010
0000
0000
0000
0111
0000
0000
0000
0100
0000
,
0011
0000
0000
0000
1010
0000
0100
0000
1000
0000
0210
0010
0010
0010
0010
0010
,
0010
0000
0000
0000
0000
0000
0000
0000
0000
0000
0000
0000
0010
0000
0000
0000
0000
0000
0000
0000
0000
0000
0000
0000
0010
0000
0000
0000
0000
0000
0000
0000
0000
0000
0000
0000
0010
0000
0000
0000
0000
0000
0000
0000
0000
0000
0000
0000
0010
0000
0000
0000
0000
0000
0000
0000
0000
0000
0000
0000
0010
0000
0000
0000
0000
0000
0000
0000
0000
0000
0000
0000
0010
0000
0000
0000
0000
0000
0000
0000
0000
0000
0000
0000
0010
0000
0000
0000
0000
0000
0000
0000
0000
0000
0000
0000
0020
0000
0000
0000
0000
0000
0000
0000
0000
0000
0000
0000
0000
0000
0000
0000
0000
0000
0000
0000
0000
0000
0000
0300
0131
0000
0000
0000
0000
0000
0000
0000
0000
0000
0000
0000
0000
0000
0000
0000
0000
0000
0000
0000
0000
0000
0000
0000
0101
0000
0000
0000
0000
0000
0000
0000
0000
0000
0000
0000
0000
0000
0000
0000
0000
0000
0000
0000
0000
0000
0000
0000
1010
0000
0000
0000
0000
0000
0000
0000
0000
0000
0000
0000
0000
0000
0000
0000
0000
0000
0000
0000
0000
0000
0000
0000
,
0010
0000
1000
0000
0010
0000
0100
0000
0010
0000
1000
0000
0100
0000
0010
0000
0001
0000
0100
0000
1010
0000
0000
0000
0001
0000
0000
0000
1000
0100
0010
0001
,
0010
0100
1000
0000
0010
0000
0002
0000
1003
0000
0002
0000
0113
0000
0000
0000
0000
0000
0000
0000
1001
0000
0000
0000
0110
0000
0000
0000
1001
0000
0000
0000
,
0010
1000
0010
1000
0200
0010
2302
0000
3000
0000
0203
0000
2302
0000
0003
0000
,
3200
0000
0000
0000
2302
0000
0000
0000
3000
0000
0000
0000
0203
0000
0000
0000
0301
1000
0001
1000
0001
0000
0000
0000
1100
0000
0000
0000
0001
0000
0000
0000
,
0001
0000
0010
0000
0001
0000
1000
0000
0100
0000
1000
0000
0010
0000
0100
0000
0001
0010
0100
1000
0001
0000
0010
0000
0100
0000
0010
0000
0001
0000
0000
0000
,
1010
0100
0010
1000
0002
0000
2023
0000
3000
0000
1030
0001
0100
0001
0010
0000
,
1001
0010
0100
1000
0101
0010
0001
0000
1010
0000
0001
0010
0001
0010
0100
0010
,
0100
1000
0100
1000
0010
1000
0001
0100
0010
0100
2002
3003
0000
0000
0000
0000
;
