#TITLE:Aim Burst;
#SUBTITLE:;
#ARTIST:DJ Sharpnel;
#TITLETRANSLIT:;
#SUBTITLETRANSLIT:;
#ARTISTTRANSLIT:;
#CREDIT:;
#BANNER:aim burst full bn.png;
#BACKGROUND:aim burst full bg.png;
#LYRICSPATH:;
#CDTITLE:;
#MUSIC:Aim Burst.ogg;
#OFFSET:0.004;
#SAMPLESTART:57.335;
#SAMPLELENGTH:20.104;
#SELECTABLE:YES;
#DISPLAYBPM:191.000;
#BPMS:0.000=191.000;
#STOPS:;
#BGCHANGES:;
// cache tags:
#FIRSTBEAT:8.000;
#LASTBEAT:800.000;
#SONGFILENAME:Songs/SHARPNELSTREAMZ v2/Aim Burst/Aim Burst.sm;
#HASMUSIC:1;
#HASBANNER:1;
#MUSICLENGTH:251.525;
// end cache tags

//---------------dance-single - 16+ (TYLR)----------------
#NOTES:
     dance-single:
     16+ (TYLR):
     Challenge:
     16:
     1.000,1.000,0.246,0.227,1.000,2454.000,62.000,57.000,12.000,0.000:
0000
0000
0000
0000
,
0000
0000
0000
0000
,
0001
1000
0010
1000
0001
0010
0100
0010
,
0001
0100
0010
0100
0001
1000
0100
1000
,
0001
0100
0010
0100
0001
0010
0100
0010
,
0001
0000
1000
0000
0010
0000
1000
0000
0001
0000
0010
0000
0100
0000
1000
0100
,
1000
0001
0100
0001
0010
0100
1000
0100
,
0010
0001
1000
0001
0010
0100
1000
0100
,
1000
0001
0100
0001
1000
0100
0010
0001
,
1000
0001
0000
0000
1000
0000
1000
0000
0001
0000
0000
0100
0000
0000
0010
0000
,
1000
0001
1000
0000
0100
0000
0010
0001
0000
0010
0001
0000
1000
0000
0010
0100
,
0000
0010
0100
0000
0001
0000
0100
0010
0000
0100
0010
0000
1000
0000
0001
0010
,
0000
0001
0010
0000
0100
0000
1000
0001
0000
1000
0001
0000
0100
0000
0010
1000
,
0000
0010
1000
0000
0001
0000
0010
0100
0000
0010
0100
0000
1000
0000
0001
1000
,
0010
0100
0001
0000
1000
0000
0100
0010
0000
0100
0010
0000
0001
0000
1000
0010
,
0000
1000
0010
0000
0100
0000
0001
1000
0000
0001
1000
0000
0100
0000
0010
0001
,
0000
0010
0001
0000
1000
0000
0010
0100
0000
0010
0100
0000
0001
0000
1000
0100
,
0010
0001
0000
0000
1000
0000
0001
0000
0010
0000
0000
0100
0000
0000
1000
0001
,
1000
0010
0100
0001
0010
0001
1000
0010
0100
0001
0100
0001
1000
0100
0010
0001
,
1000
0010
1000
0010
0100
0001
1000
0001
0010
0100
0010
0100
1000
0001
1000
0010
,
0100
0001
0100
0001
0010
0100
1000
0001
0100
0010
0100
0010
1000
0001
0010
0100
,
1000
0001
1000
0001
0100
0010
1000
0001
0010
0100
0010
0100
1000
0001
1000
0010
,
0100
0001
0100
0001
0010
0100
1000
0001
0100
0010
0100
0010
1000
0001
0010
0100
,
1000
0001
1000
0001
0100
0010
1000
0100
0010
0001
0010
0001
1000
0010
0100
0001
,
1000
0100
1000
0100
0010
0001
0100
0010
1000
0001
1000
0001
0010
0100
1000
0001
,
0100
0010
0100
0010
1000
0100
0010
0001
1000
0010
1000
0010
0100
0001
1000
0001
,
0100
0010
1000
0001
0010
0001
0010
0001
1000
0010
0100
0001
1000
0010
0100
0001
,
1000
0001
0100
0010
1000
0001
1000
0001
0010
0100
1000
0001
0010
0100
1000
0001
,
0100
0010
1000
0001
0010
0001
0010
0001
1000
0100
0010
0001
1000
0100
0010
0001
,
1000
0010
0100
0001
0010
0100
0010
0100
1000
0001
0100
0010
1000
0001
0100
0010
,
1000
0001
0010
0100
1000
0001
1000
0001
0100
0010
1000
0001
0100
0010
1000
0001
,
0040
0030
0000
0000
0400
0300
0000
0000
4000
3000
0000
0000
0004
0003
0000
0000
0400
0300
0000
0000
0004
0003
0000
0000
4000
3000
0000
0000
0400
0300
0000
0000
0040
0030
0000
0000
0004
0003
0000
0000
4000
3000
0000
0000
0040
0030
0000
0000
0400
0300
0000
0000
0004
0003
0000
0000
0400
0300
0000
0000
0040
0030
0000
0000
,
4000
3000
0000
0000
0400
0300
0000
0000
0040
0030
0000
0000
0004
0003
0000
0000
0400
0300
0000
0000
0004
0003
0000
0000
0040
0030
0000
0000
0400
0300
0000
0000
4000
3000
0000
0000
0004
0003
0000
0000
0400
0300
0000
0000
0004
0003
0000
0000
0040
0030
0000
0000
0400
0300
0000
0000
4000
3000
0000
0000
0040
0030
0000
0000
,
0200
0000
0000
0000
0000
0301
0100
0010
,
1000
0000
0100
0010
0000
0000
0001
0000
1000
0000
0100
0010
0000
0000
0001
0000
,
1000
0000
0100
0010
0000
0000
0001
0000
1000
0000
0010
0000
0100
0000
0001
0000
,
0020
0230
2300
3002
,
0103
0000
0000
0100
0000
0000
0010
0000
0000
0000
1000
0000
0100
0000
0010
0000
,
0001
0000
0100
0010
0000
0000
1000
0000
0001
0000
0100
0010
0000
0000
1000
0000
,
0001
0000
0100
0010
0000
0000
1000
0000
0100
0000
0010
0000
0001
0000
0100
0000
,
0010
0000
0000
0010
0000
0000
1000
0000
0001
0000
0100
0000
0010
0000
1000
0000
,
0002
0003
0001
0000
0020
0030
0010
0000
0200
0300
0100
0000
2000
3000
1000
0000
,
0001
1000
0001
1000
0001
0000
0010
0000
0100
1000
0100
1000
0100
0000
0010
0000
,
0001
1000
0010
0100
0001
1000
0010
0100
0001
1000
0010
0100
0001
1000
0010
0100
,
0001
0000
0000
0000
0000
0000
0000
0000
1000
0004
0010
0000
1000
0000
0100
0000
,
1003
0000
0000
0000
0000
0001
1000
0100
,
0010
0001
0010
0001
1000
0010
0100
0001
1000
0001
1000
0001
0010
0100
1000
0001
,
0100
0010
0100
0010
1000
0001
0010
0100
1000
0004
0100
0000
1000
0000
0010
0000
,
1003
0010
1000
0010
0100
0001
0100
0001
0010
0100
0010
0100
1000
0100
1000
0100
,
0010
0001
0100
0010
1000
0100
0010
0001
0100
0004
0010
0000
1000
0000
0100
0000
,
1003
0010
1000
0010
0100
0001
1000
0100
0010
0001
0010
0001
1000
0010
0100
0001
,
1000
0001
1000
0001
0010
0100
1000
0001
0100
0001
1000
0001
0010
0001
0100
0001
,
1000
0010
1000
0010
0100
0001
1000
0001
0100
0010
1000
0001
0010
0100
1000
0001
,
0200
0302
0203
0320
2030
3002
2003
3020
0430
0304
0043
0430
4300
3040
0430
0304
,
0013
0100
0010
0100
1000
0001
0100
0010
1000
0001
1000
0001
0010
0100
1000
0010
,
0100
0001
0100
0001
1000
0001
0010
0100
1000
0004
1000
0000
0010
0000
0100
0000
,
1003
0010
1000
0010
0100
0001
0100
0001
0010
0100
0010
0100
1000
0001
1000
0001
,
0100
0010
1000
0100
0010
0001
0100
0001
0010
0100
1000
0001
0100
0001
0100
0010
,
1000
0001
1000
0001
0010
0100
1000
0001
0100
0010
0100
0010
1000
0001
0010
0100
,
1000
0001
1000
0001
0100
0001
1000
0100
0010
0001
1000
0001
0100
0001
0010
0001
,
1000
0010
1000
0010
0100
0001
1000
0100
0010
0001
1000
0001
0100
0001
0010
0001
,
1000
0010
1000
0010
0100
0010
0100
0010
0100
0001
0100
0001
1000
0001
1000
0001
,
0010
0001
0010
0001
0010
0000
0100
0000
1000
0001
1000
0001
1000
0000
0010
0000
,
1000
0100
0010
0000
0001
0100
0010
0000
1000
0100
0010
0001
0100
0001
0010
0100
,
1000
0000
0000
0000
0000
0000
0000
0000
0001
4000
0010
0000
0001
0000
0100
0000
,
3001
0000
0000
00M0
0000
00M0
0000
00M0
,
0001
1000
0001
0100
0001
1000
0001
0100
0010
1000
0001
1000
0010
0100
0001
1000
,
0100
0010
0001
0010
0100
0010
0001
0010
0100
1000
0001
1000
0010
0100
0001
0100
,
0010
1000
0001
1000
0010
1000
0001
1000
0010
0100
0001
1000
0100
1000
0001
0100
,
0010
1000
0001
0010
0001
0100
0010
1000
0002
0000
0000
0000
2003
0000
3001
0010
,
0100
1000
0001
1000
0100
1000
0001
1000
0001
0100
0010
0100
0001
1000
0100
0010
,
0001
1000
0100
1000
0001
1000
0100
1000
0001
0100
0010
0100
0001
0010
0100
1000
,
0001
0100
0010
1000
0001
1000
0010
0100
0001
1000
0100
1000
0001
0010
0100
0010
,
0001
1000
0001
0100
0010
1000
0001
1000
0001
0010
0001
1000
0010
1000
0001
0010
,
0100
1000
0100
1000
0001
0010
0100
0010
0001
1000
0100
0010
0001
1000
0001
0100
,
0010
1000
0010
0100
0010
1000
0100
0010
0001
1000
0100
1000
0001
0100
0010
1000
,
0010
0100
0001
1000
0001
0010
0100
1000
0001
0010
0001
1000
0001
0100
0010
1000
,
0001
0010
0001
1000
0010
1000
0100
0010
0100
1000
0001
0100
0010
1000
0001
1000
,
0010
0100
0001
0010
0100
1000
0001
0100
0010
1000
0001
0010
0001
1000
0010
0100
,
0001
1000
0001
0100
0001
1000
0100
0010
0001
1000
0001
0010
0100
1000
0001
0100
,
0001
1000
0001
0100
0010
1000
0010
0100
0001
1000
0100
0010
0100
1000
0001
0100
,
0010
1000
0010
1000
0001
1000
0010
0100
0001
1000
0001
1000
0001
1000
0001
1000
,
0100
0000
0000
0010
0000
0000
0100
0000
1000
0000
0010
0000
0100
0000
0001
0000
,
1000
0100
1000
0100
0010
0001
0100
0001
1000
0001
1000
0001
0010
0100
1000
0001
,
0100
0010
0100
0010
1000
0001
0010
0100
1000
0004
0100
0000
1000
0000
0010
0000
,
1003
0010
1000
0010
0100
0001
0100
0001
0010
0100
0010
0100
1000
0100
1000
0100
,
0010
0001
0100
0010
1000
0100
0010
0001
0100
0004
0010
0000
1000
0000
0100
0000
,
1003
0010
1000
0010
0100
0001
1000
0100
0010
0001
0010
0001
1000
0010
0100
0001
,
1000
0001
1000
0001
0010
0100
1000
0001
0100
0001
1000
0001
0010
0001
0100
0001
,
1000
0010
1000
0010
0100
0001
1000
0001
0100
0010
1000
0001
0010
0100
1000
0001
,
0200
0302
0203
0320
2030
3002
2003
3020
0430
0304
0043
0430
4300
3040
0430
0304
,
0013
0100
0010
0100
1000
0001
0100
0010
1000
0001
1000
0001
0010
0100
1000
0010
,
0100
0001
0100
0001
1000
0001
0010
0100
1000
0004
1000
0000
0010
0000
0100
0000
,
1003
0010
1000
0010
0100
0001
0100
0001
0010
0100
0010
0100
1000
0001
1000
0001
,
0100
0010
1000
0100
0010
0001
0100
0001
0010
0100
1000
0001
0100
0001
0100
0010
,
1000
0001
1000
0001
0010
0100
1000
0001
0100
0010
0100
0010
1000
0001
0010
0100
,
1000
0001
1000
0001
0100
0001
1000
0100
0010
0001
1000
0001
0100
0001
0010
0001
,
1000
0010
1000
0010
0100
0001
1000
0100
0010
0001
1000
0001
0100
0001
0010
0001
,
1000
0010
1000
0010
0100
0010
0100
0010
0100
0001
0100
0001
1000
0001
1000
0001
,
0010
0001
0010
0001
0010
0000
0100
0000
1000
0001
1000
0001
1000
0000
0100
0000
,
1000
0001
0100
0000
0001
0010
0100
0000
1000
0010
0100
0001
0010
0001
0100
0010
,
1000
0000
0000
0000
0000
0000
0000
0000
0001
4000
0010
0000
0001
0000
0100
0000
,
3001
0100
0001
0100
0010
1000
0010
1000
0001
0010
0100
1000
0001
1000
0100
0010
,
0001
1000
0010
0100
0001
1000
0001
1000
0010
0100
0001
1000
0100
1000
0001
0010
,
0001
1000
0010
0100
0001
1000
0001
1000
0100
0010
0001
1000
0010
1000
0001
0010
,
0100
1000
0001
0100
0010
1000
0010
1000
0001
0010
0100
1000
0001
1000
0100
0010
,
0001
1000
0010
0100
0001
1000
0001
1000
0010
0100
0001
1000
0100
1000
0001
0010
,
0100
1000
0001
0100
0010
1000
0010
1000
0001
0010
0100
1000
0001
1000
0100
0010
,
0001
1000
0010
0100
0001
1000
0001
1000
0100
0010
0001
1000
0010
1000
0001
1000
,
0100
0010
0001
1000
0010
0100
0010
0100
0001
0100
0010
1000
0100
0010
0001
0100
,
0001
0010
0100
1000
0001
0100
0001
0100
0010
1000
0001
1000
0100
1000
0001
0010
,
0100
1000
0001
0100
0010
1000
0010
1000
0001
1000
0010
0100
0001
0100
0010
1000
,
0001
0010
0100
1000
0010
0100
0010
0100
0001
0100
0010
1000
0001
1000
0010
0100
,
0001
1000
0100
0010
0001
1000
0001
1000
0010
0100
0001
1000
0100
1000
0001
0100
,
0010
1000
0010
0100
0001
0010
0001
0010
0100
1000
0001
0100
0010
1000
0010
0100
,
0001
1000
0100
0010
0001
0100
0001
0100
0001
1000
0100
0010
0001
0010
0100
1000
,
0001
0100
0010
1000
0100
0010
0100
0010
0001
1000
0010
0100
0001
0100
0010
1000
,
0M01
0000
00M0
M000
0M00
0000
M000
0000
00M0
0000
0M00
00M0
0000
00M0
0000
0000
,
1000
0100
0011
1000
0100
0011
0010
0100
,
1000
0000
0100
0000
0011
0000
0100
0000
0011
0000
0000
1001
0000
0000
0101
0000
,
1000
0010
0101
1000
0010
0101
0100
0010
,
1000
0000
0010
0000
0101
0000
0010
0000
0101
0000
0000
1001
0000
0000
0010
0001
,
1000
0001
0101
1000
0001
0101
0100
0001
,
1000
0000
0001
0000
0011
0000
0001
0000
0011
0000
0000
1100
0000
0000
1001
0000
,
0001
0100
1010
0001
0100
1010
0001
1000
,
0001
1000
0000
0000
1100
0000
1000
0000
1100
0000
0000
0110
0000
0000
1001
0000
,
1000
0010
0101
1000
0010
0101
0100
0010
,
1000
0000
0010
0000
0101
0000
0010
0000
0101
0000
0000
1001
0000
0000
0011
0000
,
1000
0100
0011
1000
0100
0011
0010
0100
,
1000
0000
0100
0000
0011
0000
0100
0000
0011
0000
0000
1001
0000
0000
1000
0010
,
0100
0001
1100
0010
0001
1100
0010
0001
,
1000
0000
0001
0000
1100
0000
0001
0000
1100
0000
0000
0011
0000
0000
1001
0000
,
0001
0100
1010
0001
0100
1010
0001
1000
,
0001
0010
0000
0000
1010
0000
1000
0000
0002
0000
0023
0000
0230
0000
2300
0000
,
3010
0100
0001
0010
0100
1000
0010
0100
0001
0010
0100
1000
0010
0100
0001
1000
,
0100
0010
0001
0100
0010
1000
0100
0010
0001
0100
0010
1000
0100
0010
0100
1000
,
0010
0100
0001
0010
0100
1000
0010
0100
0001
0010
0100
1000
0010
0100
0001
1000
,
0100
0010
0001
0100
0010
1000
0100
0010
0001
0100
0010
1000
0100
0010
0100
1000
,
0010
0100
0001
0010
0100
1000
0010
0100
0001
0010
0100
1000
0010
0100
0001
1000
,
0100
0010
0001
0100
0010
1000
0100
0010
0001
0100
0010
1000
0001
0010
0001
1000
,
0010
0100
0001
0010
0100
1000
0010
0100
0001
0010
0100
1000
0010
0100
0001
1000
,
0100
0010
0001
0100
0010
1000
0100
0010
0001
0100
0010
1000
0100
0010
0100
1000
,
0001
0100
0010
1000
0100
0010
0001
0100
0010
1000
0100
0010
0001
0100
0001
1000
,
0100
0010
0001
0100
0010
1000
0100
0010
0001
0100
0010
1000
0100
0010
0100
1000
,
0010
0100
0001
0010
0100
1000
0010
0100
0001
0010
0100
1000
0010
0100
0001
1000
,
0100
0010
0001
0100
0010
1000
0100
0010
0001
0100
0010
1000
0100
0010
0100
1000
,
0010
0100
0001
0010
0100
1000
0010
0100
0001
0010
0100
1000
0001
0100
0001
1000
,
0100
0010
0001
0100
0010
1000
0100
0010
0001
0100
0010
1000
0100
0010
0100
1000
,
0001
0100
0010
1000
0100
0010
0001
0100
0010
1000
0100
0010
0001
0100
0001
0010
,
0200
0000
0000
0000
0000
1300
0001
0100
,
0010
0000
1000
0100
0000
0000
0010
0000
0001
0000
0100
0010
0000
0000
1000
0000
,
0100
0000
0010
0001
0000
0000
1000
0000
0010
0000
0100
0000
0001
0000
0010
0000
,
0200
2300
3020
0230
,
0301
0000
0000
0001
0000
0000
0010
0000
0000
0000
0001
0000
0100
0000
0010
0000
,
1000
0000
0100
0010
0000
0000
0001
0000
1000
0000
0100
0010
0000
0000
0001
0000
,
1000
0000
0100
0010
0000
0000
0001
0000
0100
0000
0010
0000
1000
0000
0100
0000
,
0010
0000
0000
0010
0000
0000
0001
0000
1000
0000
0010
0000
0100
0000
0001
0000
,
2000
3000
1000
0000
0200
0300
0100
0000
0020
0030
0010
0000
0002
0003
0001
0000
,
1000
0001
1000
0001
1000
0000
0100
0000
0010
0001
0010
0001
0010
0000
0001
0000
,
1000
0010
0100
0001
1000
0010
0100
0001
1000
0010
0100
0001
1000
0010
0100
0001
,
1000
0000
0000
0000
0000
0001
1000
0010
,
0100
0001
0100
0001
1000
0100
0010
0001
1000
0001
1000
0001
0100
0010
1000
0001
,
0010
0100
0010
0100
1000
0001
0100
0010
1000
0004
0010
0000
1000
0000
0100
0000
,
1003
0100
1000
0100
0010
0001
0010
0001
0100
0010
0100
0010
1000
0010
1000
0010
,
0100
0001
0010
0100
1000
0010
0100
0001
0010
0004
0100
0000
1000
0000
0010
0000
,
1003
0100
1000
0100
0010
0001
1000
0010
0100
0001
0100
0001
1000
0100
0010
0001
,
1000
0001
1000
0001
0100
0010
1000
0001
0010
0001
1000
0001
0100
0001
0010
0001
,
1000
0100
1000
0100
0010
0001
1000
0001
0010
0100
1000
0001
0100
0010
1000
0001
,
0020
0032
0023
0230
2300
3002
2003
3200
0340
0034
0403
0340
4030
3400
0340
0034
,
0103
0010
0100
0010
1000
0001
0010
0100
1000
0001
1000
0001
0100
0010
1000
0100
,
0010
0001
0010
0001
1000
0001
0100
0010
1000
0004
1000
0000
0100
0000
0010
0000
,
1003
0100
1000
0100
0010
0001
0010
0001
0100
0010
0100
0010
1000
0001
1000
0001
,
0010
0100
1000
0010
0100
0001
0010
0001
0100
0010
1000
0001
0010
0001
0010
0100
,
1000
0001
1000
0001
0100
0010
1000
0001
0010
0100
0010
0100
1000
0001
0100
0010
,
1000
0001
1000
0001
0010
0001
1000
0010
0100
0001
1000
0001
0010
0001
0100
0001
,
1000
0100
1000
0100
0010
0001
1000
0010
0100
0001
1000
0001
0010
0001
0100
0001
,
1000
0100
1000
0100
0010
0100
0010
0100
0010
0001
0010
0001
1000
0001
1000
0001
,
1000
0010
1000
0010
0100
0001
1000
0001
0010
0001
0010
0001
1000
0001
0100
0010
,
1000
0001
1000
0001
0010
0100
0010
0001
1000
0004
0100
0000
1000
0000
0010
0000
,
1003
0010
1000
0010
0100
0001
0100
0001
0010
0100
0010
0100
1000
0100
1000
0100
,
0010
0001
0100
0010
1000
0100
0010
0001
0100
0004
0010
0000
1000
0000
0100
0000
,
1003
0010
1000
0010
0100
0001
1000
0100
0010
0001
0010
0001
1000
0010
0100
0001
,
1000
0001
1000
0001
0010
0100
1000
0001
0100
0001
1000
0001
0010
0001
0100
0001
,
1000
0010
1000
0010
0100
0001
1000
0001
0100
0010
1000
0001
0010
0100
1000
0001
,
0200
0302
0203
0320
2030
3002
2003
3020
0430
0304
0043
0430
4300
3040
0430
0304
,
0013
0100
0010
0100
1000
0001
0100
0010
1000
0001
1000
0001
0010
0100
1000
0010
,
0100
0001
0100
0001
1000
0001
0010
0100
1000
0004
1000
0000
0010
0000
0100
0000
,
1003
0010
1000
0010
0100
0001
0100
0001
0010
0100
0010
0100
1000
0001
1000
0001
,
0100
0010
1000
0100
0010
0001
0100
0001
0010
0100
1000
0001
0100
0001
0100
0010
,
1000
0001
1000
0001
0010
0100
1000
0001
0100
0010
0100
0010
1000
0001
0010
0100
,
1000
0001
1000
0001
0100
0001
1000
0100
0010
0001
1000
0001
0100
0001
0010
0001
,
1000
0010
1000
0010
0100
0001
1000
0100
0010
0001
1000
0001
0100
0001
0010
0001
,
1000
0010
1000
0010
0100
0010
0100
0010
0100
0001
0100
0001
1000
0001
1000
0001
,
0010
0001
0010
0001
0010
0000
0100
0000
1000
0001
1000
0001
1000
0000
0010
0000
,
1000
0100
0010
0000
0001
0100
0010
0000
1000
0100
0010
0001
0100
0001
0010
0100
,
1000
0010
0100
0000
0001
0010
0100
0000
1000
0100
0010
0001
0100
0010
1000
0100
,
0020
0000
0000
0000
,
0000
0000
0000
0000
,
0000
0000
0000
0000
,
0000
0000
0000
0000
,
0030
0000
0000
0000
;

//---------------dance-single - 11 (TYLR)----------------
#NOTES:
     dance-single:
     11 (TYLR):
     Easy:
     11:
     0.913,1.000,0.147,0.600,0.686,1411.000,37.000,151.000,184.000,0.000:
0000
0000
0000
0000
,
0000
0000
0000
0000
,
1000
0011
0100
1001
,
0100
1010
0001
0110
,
1000
0101
0010
1001
,
0010
0000
0000
0000
1100
0000
0000
0000
0001
0000
0000
0000
1010
0000
1000
0001
,
1000
0011
0100
1001
,
0100
1010
0001
0110
,
1000
0101
0010
1001
,
1000
0100
0000
0000
0011
0000
0001
0000
1000
0000
0000
0010
0000
0000
0100
0000
,
0001
1000
0100
1000
0001
0010
0100
0010
,
0001
1000
0100
1000
0001
0010
0100
1000
,
0001
0100
0010
0100
0001
1000
0010
1000
,
0001
0000
0100
0000
0010
0000
0100
0000
0001
0000
1000
0000
0010
0000
1000
0001
,
1000
0100
0010
0100
1000
0001
0010
0001
,
1000
0100
0010
0100
1000
0001
0010
0001
,
1000
0001
0100
0001
1000
0010
0100
0010
,
1000
0001
0000
0000
0100
0000
0001
0000
1000
0000
0000
0100
0000
0000
0010
0001
,
1000
0001
1000
0000
0010
0000
0010
0000
0100
0001
0100
0000
0010
0000
1000
0001
,
0010
0001
0010
0000
0100
0000
0100
0000
1000
0001
1000
0000
0001
0000
0100
0010
,
1000
0010
1000
0000
0001
0000
0001
0000
0010
0001
0010
0000
0100
0000
1000
0001
,
1000
0001
1000
0000
0010
0000
0010
0000
0100
0001
0100
0000
0010
0000
1000
0001
,
0010
0001
0010
0000
0100
0000
0100
0000
1000
0100
1000
0000
0001
0000
1000
0010
,
0100
0001
0100
0000
0010
0000
0010
0000
1000
0001
1000
0000
0100
0000
0010
0001
,
1000
0001
1000
0000
0010
0000
0010
0000
1000
0001
1000
0000
0100
0000
0010
0001
,
0100
0001
0000
0000
1000
0000
0010
0000
0100
0000
0000
0001
0000
0000
1000
0000
,
0100
0010
0100
0000
1000
0000
1000
0000
0001
0100
0001
0000
1000
0000
0001
0100
,
0010
1000
0001
0000
0010
0000
0010
0000
0100
1000
0001
0000
0010
0000
0001
1000
,
0100
0010
0001
0000
1000
0000
1000
0000
0010
0100
0001
0000
1000
0000
0001
0100
,
0010
1000
0001
0000
0010
0000
0010
0000
0100
1000
0001
0000
0010
0000
0001
1000
,
0010
0100
0001
0000
0010
0000
0010
0000
0100
1000
0001
0000
0010
0000
0001
1000
,
001M
010M
001M
000M
100M
000M
100M
000M
010M
001M
010M
000M
100M
000M
001M
100M
,
001M
010M
001M
000M
100M
000M
100M
000M
010M
001M
010M
000M
100M
000M
001M
010M
,
002M
000M
000M
000M
000M
000M
000M
000M
000M
000M
103M
0000
0010
0000
0100
0000
,
0001
0000
0010
0100
0000
0000
1000
0000
0001
0000
0010
0100
0000
0000
1000
0000
,
0001
0000
0010
0100
0000
0000
1000
0000
0001
0000
0100
0000
0010
0000
1000
0000
,
0200
0320
0032
2003
,
3010
0000
0000
0010
0000
0000
0100
0000
0000
0000
0001
0000
0010
0000
0100
0000
,
1000
0000
0010
0100
0000
0000
0001
0000
1000
0000
0010
0100
0000
0000
0001
0000
,
1000
0000
0010
0100
0000
0000
0001
0000
0010
0000
0100
0000
1000
0000
0010
0000
,
0100
0000
0000
0100
0000
0000
0001
0000
1000
0000
0100
0000
0010
0000
0001
0000
,
2000
3020
0230
0302
,
1003
0000
0001
1000
0000
0000
0100
0000
0010
0000
0001
0000
0100
0000
0010
0000
,
1000
0000
0002
2000
0000
0000
0000
0000
0000
0000
0000
0000
0000
0000
0000
0000
,
0003
0000
0000
0000
3004
0043
0430
4300
,
3001
0000
0000
00M0
0000
0M01
0010
0100
,
1000
0000
0010
0100
0000
M00M
0100
0000
1000
0000
0010
0100
0000
M00M
0100
0000
,
1000
0000
0010
0100
0000
M00M
0100
0000
1000
0000
0010
0000
0100
0000
0001
0000
,
2000
3200
0302
0203
,
0310
0000
0000
0011
0000
0000
1001
0000
0000
0000
0010
0000
1000
0000
0100
0000
,
0010
0000
0001
0100
0000
M00M
0100
0000
0010
0000
0001
0100
0000
M00M
0100
0000
,
0010
0000
0001
0100
0000
M00M
0100
0000
1000
0000
0010
0000
0100
0000
0001
0000
,
2000
0000
3100
0000
1000
0010
0100
0001
,
1000
0001
0000
0010
0000
0000
0100
0000
1000
0000
0010
0000
0100
0000
0001
0000
,
1000
0000
0100
0010
0000
M00M
0010
0000
1000
0000
0100
0010
0000
M00M
0010
0000
,
1000
0000
0100
0010
0000
M00M
0010
0000
0100
0000
0001
0000
0010
0000
0100
0000
,
2000
3020
0032
0023
,
1030
0000
0000
1010
0000
0000
1100
0000
0000
0000
0010
0000
0100
0000
1000
0000
,
0001
0000
0100
0010
0000
M00M
0010
0000
0001
0000
0100
0010
0000
M00M
0010
0000
,
0001
0000
0100
0010
0000
M00M
0010
0000
0001
0000
0100
0000
0010
0000
1000
0000
,
0002
0000
0013
0000
1000
0010
0100
0001
,
2000
3200
0320
0032
,
0103
0000
0001
0100
0000
0000
0010
0000
1000
0000
0100
0000
0010
0000
0001
0000
,
1000
0000
0002
2000
0000
0000
0000
0000
0000
0000
0000
0000
0000
0000
0000
0000
,
0003
0000
0000
0000
3004
0043
0430
4300
,
3001
0000
0000
0M00
0000
0M00
0000
0M00
,
2010
0000
3001
0000
1000
0100
0010
0001
,
0200
0000
0301
0000
1000
0100
1000
0010
,
0200
0000
0301
0000
1000
0010
1000
0100
,
0010
0000
0000
0100
0000
0000
1000
0000
0002
0000
0000
0000
0203
0000
0000
0000
,
0320
1030
0010
1000
0001
0010
0001
0100
,
0020
1030
0010
1000
0001
0010
0001
0100
,
2000
0000
3200
0000
0301
1000
0001
1000
,
0200
0000
0310
0001
0002
0000
0000
0000
,
1003
0001
1000
0001
1000
0000
0001
1000
0000
0000
0010
0000
0100
0000
0001
0000
,
1000
0000
0000
0000
1000
0000
0100
0020
0000
0000
0000
0000
0031
0000
0010
0100
,
0010
0000
0001
0000
1000
0000
0010
0000
0100
0001
0000
1000
0000
0000
0100
0000
,
0010
0000
0000
0010
0000
0000
0001
0000
0200
0000
0000
0000
0310
0000
0000
0000
,
0100
0001
0100
0001
0000
0100
0001
0000
0000
0000
1000
0000
0100
0000
0010
0000
,
0001
0000
0000
0000
0001
0000
0100
0002
0000
0000
0000
0000
1003
0000
0010
0100
,
0002
0000
0000
0003
0001
0000
0100
0000
0001
0000
0010
0100
0000
0000
1000
0000
,
2000
0000
0000
0000
0000
0000
3001
0100
0002
0000
0000
0000
0000
0000
0000
0000
,
0103
0000
0000
0010
0000
0000
1000
0000
00M0
0000
0001
0000
0010
0000
0100
0000
,
1000
0000
0010
0100
0000
M00M
0100
0000
1000
0000
0010
0100
0000
M00M
0100
0000
,
1000
0000
0010
0100
0000
M00M
0100
0000
1000
0000
0010
0000
0100
0000
0001
0000
,
0020
0230
0302
0203
,
0310
0000
0000
0011
0000
0000
0101
0000
0000
0000
0010
0000
1000
0000
0100
0000
,
0010
0000
0001
0100
0000
M00M
0100
0000
0010
0000
0001
0100
0000
M00M
0100
0000
,
0010
0000
0001
0100
0000
M00M
0100
0000
1000
0000
0010
0000
0100
0000
0001
0000
,
2000
0000
3100
0000
1000
0010
0100
0001
,
0010
0000
0000
0100
0000
0000
1000
0000
0000
0000
0001
0000
1000
0000
0100
0000
,
0010
0000
0001
0100
0000
M00M
0100
0000
0010
0000
0001
0100
0000
M00M
0100
0000
,
0010
0000
0001
0100
0000
M00M
0100
0000
0010
0000
0001
0000
0100
0000
0010
0000
,
2000
3200
0302
0203
,
0310
0000
0000
0011
0000
0000
1001
0000
0000
0000
0001
0000
0010
0000
0100
0000
,
1000
0000
0010
0100
0000
M00M
0100
0000
1000
0000
0010
0100
0000
M00M
0100
0000
,
1000
0000
0010
0100
0000
M00M
0100
0000
0010
0000
0001
0000
0100
0000
0010
0000
,
2000
0000
3100
0000
0010
0001
0100
0010
,
2000
3200
0320
0032
,
1003
0000
0001
1000
0000
0000
0010
0000
1000
0000
0100
0000
0010
0000
0001
0000
,
0100
0000
0020
2000
0000
0000
0000
0000
0000
0000
0000
0000
0000
0000
0000
0000
,
0030
0000
0000
0000
3004
0043
0430
4300
,
3001
0000
0100
0100
0001
0000
1000
0000
,
0100
0000
0010
0010
0100
0000
1000
0000
,
0001
0000
0010
0010
0001
0000
0100
0000
,
0010
0000
1000
1000
0010
0000
0100
0000
,
0001
0000
0010
0010
0001
0000
0100
0000
,
0010
0000
1000
1000
0010
0000
0100
0000
,
0010
0000
0001
0001
0010
0000
0100
0000
,
0001
0100
0000
0000
0010
0000
1000
0000
0001
0000
0000
0001
0000
0000
0010
0000
,
0100
1000
0001
0001
1000
0100
0010
0001
,
1000
0010
0100
0100
0001
1000
0100
1000
,
0001
1000
0010
0010
0100
0001
1000
0001
,
0100
0010
1000
1000
0100
0010
0001
0010
,
0100
1000
0010
0010
0100
0001
0010
0001
,
0100
0010
1000
1000
0100
0010
0001
0010
,
0100
1000
0010
0010
0100
0001
0010
0001
,
0100
0000
0000
0000
,
0001
0010
0200
1300
0010
0200
0301
0100
,
0010
0000
1000
0000
0200
0000
0310
0000
0200
0000
0300
0002
0000
0003
0200
0000
,
1300
0001
0020
0031
1000
0020
1030
0001
,
0100
0000
0001
0000
0020
0000
0130
0000
0020
0000
0030
0020
0000
0030
2000
0000
,
3010
0001
0200
0301
0010
0200
0310
0001
,
1000
0000
0010
0000
0200
0000
0310
0000
0200
0000
0300
2000
0000
3000
0200
0000
,
0301
1000
0020
1030
0001
0020
0130
1000
,
0001
1000
0000
0000
0020
0000
1030
0000
0020
0000
0030
0020
0000
0030
0002
0000
,
0013
1000
0200
0310
0001
0200
0301
1000
,
0010
0000
1000
0000
0200
0000
0310
0000
0200
0000
0300
0002
0000
0003
0200
0000
,
1300
0001
0020
0031
1000
0020
1030
0001
,
0100
0000
0001
0000
0020
0000
0130
0000
0020
0000
0030
0020
0000
0030
2000
0000
,
3010
0001
0200
0310
1000
0200
1300
0001
,
0010
0000
0001
0000
0200
0000
0310
0000
0200
0000
0300
2000
0000
3000
0200
0000
,
0301
1000
0020
1030
0001
0020
0031
1000
,
0001
0100
0000
0000
0020
0000
0130
0000
0002
0000
0023
0000
0230
0000
2300
0000
,
3001
0100
0000
0001
1000
0000
0001
0100
0000
0001
1000
0000
0001
0100
0010
1000
,
0001
0100
0000
0001
1000
0000
0001
0100
0000
0001
1000
0000
0001
0010
0100
1000
,
0001
0010
0000
0001
1000
0000
0001
0010
0000
0001
1000
0000
0001
0010
0100
1000
,
0001
0010
0000
0001
1000
0000
0001
0010
0000
0001
1000
0000
0010
0100
0001
0010
,
0100
1000
0000
0100
0010
0000
0100
1000
0000
0100
0010
0000
0100
1000
0001
0010
,
0100
1000
0000
0100
0010
0000
0100
1000
0000
0100
0010
0000
0100
1000
0001
0100
,
0010
1000
0000
0010
0100
0000
0010
1000
0000
0010
0100
0000
0010
1000
0001
0100
,
0010
1000
0000
0010
0100
0000
0010
1000
0000
0010
0100
0001
0000
1000
0100
0000
,
0010
0001
0000
0010
0100
0000
0010
0001
0000
0010
0100
0000
0010
0001
1000
0100
,
0010
0001
0000
0010
0100
0000
0010
0001
0000
0010
0100
0000
1000
0010
0100
0001
,
1000
0100
0000
1000
0001
0000
1000
0100
0000
1000
0001
0000
1000
0100
0010
0001
,
1000
0100
0000
1000
0001
0000
1000
0100
0000
1000
0001
0000
0100
0010
1000
0100
,
0010
0001
0000
0010
0100
0000
0010
0001
0000
0010
0100
0000
0010
0001
1000
0100
,
0010
0001
0000
0010
0100
0000
0010
0001
0000
0010
0100
0000
1000
0001
0100
0010
,
1M00
0M01
0M00
1M00
0M10
0M00
1M00
0M01
0M00
1M00
0M10
0M00
1M00
0M01
0M10
0M01
,
2M00
0M00
0M00
0M00
0M00
0M00
0M00
0M00
0M00
0M00
3M01
0000
0010
0000
0100
0000
,
1000
0000
0010
0100
0000
M00M
0100
0000
1000
0000
0010
0100
0000
M00M
0100
0000
,
1000
0000
0010
0100
0000
M00M
0100
0000
1000
0000
0010
0000
0100
0000
0001
0000
,
2000
3200
0302
0203
,
0310
0000
0000
0110
0000
0000
1100
0000
0000
0000
0001
0000
1000
0000
0100
0000
,
0010
0000
0001
0100
0000
M00M
0100
0000
0010
0000
0001
0100
0000
M00M
0100
0000
,
0010
0000
0001
0100
0000
M00M
0100
0000
1000
0000
0010
0000
0100
0000
0001
0000
,
2000
0000
3000
2000
0000
0000
3001
0000
1000
0000
0010
0000
0100
0000
0001
0000
,
2000
3000
1000
0000
0200
0300
0100
0000
0020
0030
0010
0000
0002
0003
0001
0000
,
1000
0000
0001
1000
0000
0000
0010
0000
0100
0000
0001
0000
0010
0000
0100
0000
,
1000
0000
0002
2000
0000
0000
0000
0000
0000
0000
0000
0000
0000
0000
0000
0000
,
0000
0000
0000
0000
3003
0001
0100
0010
,
1000
0000
0100
0010
0000
M00M
0010
0000
1000
0000
0100
0010
0000
M00M
0010
0000
,
1000
0000
0100
0010
0000
M00M
0010
0000
0100
0000
0001
0000
0010
0000
0100
0000
,
2000
3020
0032
0023
,
0130
0000
0000
0101
0000
0000
1001
0000
0000
0000
0100
0000
1000
0000
0010
0000
,
0100
0000
0001
0010
0000
M00M
0010
0000
0100
0000
0001
0010
0000
M00M
0010
0000
,
0100
0000
0001
0010
0000
M00M
0010
0000
1000
0000
0100
0000
0010
0000
0001
0000
,
2000
0000
3001
0000
1000
0100
0010
0001
,
1000
0001
0000
0100
0000
0000
0010
0000
1000
0000
0100
0000
0010
0000
0001
0000
,
1000
0000
0100
0010
0000
M00M
0010
0000
1000
0000
0100
0010
0000
M00M
0010
0000
,
1000
0000
0100
0010
0000
M00M
0010
0000
0100
0000
0001
0000
0010
0000
0100
0000
,
2000
3020
0032
0023
,
1030
0000
0000
1010
0000
0000
1100
0000
0000
0000
0010
0000
0100
0000
1000
0000
,
0001
0000
0100
0010
0000
M00M
0010
0000
0001
0000
0100
0010
0000
M00M
0010
0000
,
0001
0000
0100
0010
0000
M00M
0010
0000
0001
0000
0100
0000
0010
0000
1000
0000
,
0002
0000
0013
0000
0001
0100
0010
1000
,
0002
0023
0230
2300
,
3001
0000
0100
0010
0000
M00M
0010
0000
0001
0000
0100
0010
0000
M00M
0010
0000
,
0001
0000
0100
0010
0000
M00M
0010
0000
0100
0000
1000
0000
0010
0000
0100
0000
,
0002
0023
2030
3020
,
0130
0000
0000
1100
0000
0000
1001
0000
0000
0000
0001
0000
0100
0000
0010
0000
,
1000
0000
0100
0010
0000
M00M
0010
0000
1000
0000
0100
0010
0000
M00M
0010
0000
,
1000
0000
0100
0010
0000
M00M
0010
0000
1000
0000
0100
0000
0010
0000
0001
0000
,
0200
0000
0310
0000
0001
1000
0100
0010
,
0001
1000
0000
0010
0000
0000
0100
0000
0001
0000
0010
0000
0100
0000
1000
0000
,
0001
0000
0100
0010
0000
M00M
0010
0000
0001
0000
0100
0010
0000
M00M
0010
0000
,
0001
0000
0100
0010
0000
M00M
0010
0000
0100
0000
1000
0000
0010
0000
0100
0000
,
0002
0023
2030
3020
,
1030
0000
0000
0011
0000
0000
0101
0000
0000
0000
0010
0000
0100
0000
0001
0000
,
1000
0000
0100
0010
0000
M00M
0010
0000
1000
0000
0100
0010
0000
M00M
0010
0000
,
1000
0000
0100
0010
0000
M00M
0010
0000
1000
0000
0100
0000
0010
0000
0001
0000
,
2000
0000
3010
0000
0001
0010
0100
1000
,
0002
0203
0320
2030
,
3100
0000
1000
0100
0000
0000
0010
0000
0100
0000
1000
0000
0010
0000
0100
0000
,
0001
0100
0001
0000
1000
0010
1000
0000
0001
0100
0001
0100
0010
1000
0001
1000
,
0100
1000
0100
0000
0010
0001
0010
0000
0100
1000
0100
1000
0001
0010
0100
1000
,
0002
0000
0000
0000
,
0000
0000
0000
0000
,
0000
0000
0000
0000
,
0000
0000
0000
0000
,
0003
0000
0000
0000
;

//---------------dance-single - 14+ (TYLR)----------------
#NOTES:
     dance-single:
     14+ (TYLR):
     Medium:
     14:
     1.000,1.000,0.747,0.243,1.000,1837.000,188.000,61.000,144.000,0.000:
0000
0000
0000
0000
,
0000
0000
0000
0000
,
0001
1100
0010
1001
,
0010
0101
1000
0110
,
0001
1010
0100
1001
,
0100
0000
0000
0000
0011
0000
0000
0000
1000
0000
0000
0000
0101
0000
0001
1000
,
0001
1100
0010
1001
,
0010
0101
1000
0110
,
0001
1010
0100
1001
,
0001
0010
0000
0000
1100
0000
1000
0000
0001
0000
0000
0100
0000
0000
0010
0000
,
1000
0001
0010
0001
1000
0100
0010
0100
,
1000
0001
0010
0001
1000
0100
0010
0001
,
1000
0010
0100
0010
1000
0001
0100
0001
,
1000
0000
0010
0000
0100
0000
0010
0000
1000
0000
0001
0000
0100
0000
0001
1000
,
0001
0010
0100
0010
0001
1000
0100
1000
,
0001
0010
0100
0010
0001
1000
0100
1000
,
0001
1000
0010
1000
0001
0100
0010
0100
,
0001
1000
0000
0000
0010
0000
1000
0000
0001
0000
0000
0010
0000
0000
0100
1000
,
0001
1000
0001
1000
0010
0000
0100
0001
1000
0001
1000
0001
0010
0000
0100
1000
,
0001
1000
0001
1000
0010
0000
0100
0001
1000
0001
1000
0001
0010
0000
0100
1000
,
0001
1000
0001
1000
0010
0000
0100
0001
1000
0001
1000
0001
0010
0000
0100
1000
,
0001
1000
0001
1000
0010
0000
0100
0001
1000
0001
1000
0001
0010
0000
0100
1000
,
0001
0100
0001
0100
0010
0000
0100
0001
1000
0001
1000
0001
0010
0000
0100
1000
,
0001
0010
0001
0010
0100
0000
0010
0001
1000
0001
1000
0001
0100
0000
0010
1000
,
0001
1000
0001
1000
0100
0000
1000
0100
0010
0001
0010
0001
1000
0000
0001
0010
,
0100
1000
0000
0000
0001
0000
1000
0000
0100
0000
0000
0010
0000
0000
0001
1000
,
0010
0100
0001
1000
0100
1000
0100
0000
0010
0001
1000
0001
0100
0000
0010
1000
,
0001
1000
0010
0100
0001
1000
0001
0000
1000
0100
0010
0001
1000
0000
0001
0010
,
0100
1000
0001
0100
0010
1000
0010
0000
0100
0001
1000
0001
0010
0000
0001
1000
,
0010
0100
0001
1000
0100
0010
0100
0000
1000
0001
0100
0010
1000
0000
0010
0100
,
0001
1000
0100
0010
0001
1000
0001
0000
1000
0010
0100
0001
1000
0000
0001
1000
,
0400
0300
0000
0000
0040
0030
0000
0000
0004
0003
0000
0000
4000
3000
0000
0000
0040
0030
0000
0000
4000
3000
0000
0000
0004
0003
0000
0000
0040
0030
0000
0000
0400
0300
0000
0000
4000
3000
0000
0000
0004
0003
0000
0000
0400
0300
0000
0000
0040
0030
0000
0000
4000
3000
0000
0000
0040
0030
0000
0000
0400
0300
0000
0000
,
0004
0003
0000
0000
0040
0030
0000
0000
0400
0300
0000
0000
4000
3000
0000
0000
0040
0030
0000
0000
4000
3000
0000
0000
0400
0300
0000
0000
0040
0030
0000
0000
0004
0003
0000
0000
4000
3000
0000
0000
0400
0000
0300
0000
4000
3000
0000
0000
0040
0000
0030
0000
0400
0000
0300
0000
0004
0003
0000
0000
0040
0000
0030
0000
,
0200
0000
0000
0000
0000
1300
0100
0010
,
0001
0000
0000
0000
0100
M00M
0100
0000
0000
0000
0000
0000
1000
0000
0000
0000
0001
0000
0000
0000
0100
M00M
0100
0000
0000
0000
0000
0000
1000
0000
0000
0000
,
0001
0000
0000
0000
0100
M00M
0100
0000
0000
0000
0000
0000
1000
0000
0000
0000
0001
0000
0000
0000
0100
0000
0000
0000
0010
0000
0000
0000
1000
0000
0000
0000
,
0200
0320
0032
2003
,
3010
0000
0000
0010
0000
0000
0100
0000
0000
0000
0001
0000
0100
0000
0010
0000
,
1000
0000
0000
0000
0100
M00M
0100
0000
0000
0000
0000
0000
0001
0000
0000
0000
1000
0000
0000
0000
0100
M00M
0100
0000
0000
0000
0000
0000
0001
0000
0000
0000
,
1000
0000
0000
0000
0100
M00M
0100
0000
0000
0000
0000
0000
0001
0000
0000
0000
0010
0000
0000
0000
0100
0000
0000
0000
1000
0000
0000
0000
0010
0000
0000
0000
,
0100
0000
0000
0100
0000
0000
0001
0000
1000
0000
0010
0000
0100
0000
0001
0000
,
2000
0000
0000
0000
0000
0000
0000
3000
2000
0000
0000
0000
0000
0000
0000
0000
3200
0000
0000
0000
0000
0000
0000
0300
0200
0000
0000
0000
0000
0000
0000
0000
0320
0000
0000
0000
0000
0000
0000
0030
0020
0000
0000
0000
0000
0000
0000
0000
0032
0000
0000
0000
0000
0000
0000
0003
0002
0000
0000
0000
0000
0000
0000
0000
,
4003
0004
0000
0003
3000
0000
0100
0000
0040
0004
0000
0003
0030
0000
0001
0000
,
1000
0010
0100
0001
1000
0010
0100
0001
1000
0010
0100
0001
1000
0010
0100
0001
,
1000
0000
0000
0000
0000
0000
0000
0000
0001
4000
0100
0000
0001
0000
0010
0000
,
3001
0000
0000
0000
0000
1000
0100
0010
,
0001
0100
0001
0100
M00M
0100
1000
0000
0001
0100
0001
0100
M00M
0100
1000
0000
,
0001
0100
0001
0100
M00M
0100
1000
0000
01M1
0000
1001
0000
1100
0000
0110
0000
,
0001
0010
0001
0000
1000
0100
1000
0000
0010
0100
0010
0000
0100
0001
0100
0000
,
0001
1000
0100
1000
0001
0100
0010
0000
100M
0000
0011
0000
0110
0000
1100
0000
,
1000
0010
1000
0010
M00M
0010
0001
0000
1000
0010
1000
0010
M00M
0010
0001
0000
,
1000
0010
1000
0010
M00M
0010
0001
0000
1001
0000
0101
0000
0110
0000
1010
0000
,
2001
0000
3100
0000
0011
1001
0101
0110
,
2000
3002
0000
0023
0000
0000
0230
0000
4300
3004
0403
0340
4030
3400
0340
0034
,
1003
0010
1000
0010
M00M
0010
0001
0000
1000
0010
1000
0010
M00M
0010
0001
0000
,
1000
0010
1000
0010
M00M
0010
0001
0000
M101
0000
0110
0000
1010
0000
1001
0000
,
0001
0010
0001
0000
1000
0100
1000
0000
0010
0100
0010
0000
1000
0010
1000
0000
,
0001
0010
0100
1000
0001
0100
0010
0000
1000
0000
1001
0000
1100
0000
0110
0000
,
0001
0100
0001
0100
M00M
0100
1000
0000
0001
0100
0001
0100
M00M
0100
1000
0000
,
0001
0100
0001
0100
M00M
0100
1000
0000
1001
0000
0011
0000
0110
0000
1100
0000
,
1002
0000
0103
0000
0101
0110
1010
1001
,
0001
0010
0001
0000
0010
0100
0010
0000
0100
1000
0100
0000
1000
0001
1000
0000
,
0004
0400
0000
0300
0003
0000
0010
0000
0400
4000
0000
3000
0300
0000
0010
0000
,
0001
1000
0010
0000
0100
0001
1000
0000
0100
0010
0001
1000
0010
0100
0001
1000
,
0100
0000
0000
0000
0000
0000
0000
0000
1000
0004
0100
0000
1000
0000
0010
0000
,
1003
0000
0000
0M00
0000
0M00
0000
0M00
,
1000
0001
1000
0000
0001
1000
0001
0000
1000
0000
0010
0000
0100
0000
0001
0000
,
1000
0001
1000
0000
0001
1000
0001
0000
1000
0000
0100
0000
0010
0000
0001
0000
,
0100
0001
0100
0000
0001
0100
0001
0000
1000
0000
0100
0000
1000
0000
0010
0000
,
0100
0000
0001
0010
0100
1000
0010
0100
0002
0000
0000
0000
2003
0000
3001
1000
,
0100
0010
0001
0000
0010
0100
1000
0000
0001
0000
1000
0000
0010
0000
0100
0000
,
0001
1000
0010
0000
1000
0010
0100
0000
0001
0000
1000
0000
0100
0000
0010
0000
,
0001
1000
0010
0000
0100
0001
1000
0000
0001
0000
0100
0000
0010
0000
0100
0000
,
0001
1000
0000
0000
0001
0000
0010
0000
0100
0000
0000
1000
0000
0000
0001
0000
,
1000
0010
0100
0001
1000
0000
0001
1000
0000
0000
0100
0000
0010
0000
0001
0000
,
1000
0000
0001
0000
1000
0000
0010
0100
0000
0000
0000
0000
0001
0000
0100
0010
,
1000
0000
0001
0000
0010
0000
0100
0000
1000
0100
0000
0010
0000
0000
0001
0000
,
1000
0000
0000
1000
0000
0000
0010
0000
0100
0000
0000
0000
1001
0000
0000
0000
,
0001
0100
0010
1000
0000
0010
1000
0000
0000
0000
0001
0000
0010
0000
0100
0000
,
1000
0000
0100
0000
1000
0000
0001
1000
0000
0000
0000
0000
0010
0000
0100
0001
,
1000
0000
0000
0000
0001
0000
0100
0000
0010
0000
1000
0001
0000
0000
0010
0000
,
0002
0000
0000
0000
0000
0000
1003
0010
0100
0001
0100
0001
0100
0001
0100
0001
,
1000
0000
0000
0100
0000
0000
0010
0000
0001
0000
1000
0000
0010
0000
0100
0000
,
0001
0010
0001
0010
M00M
0010
1000
0000
0001
0010
0001
0010
M00M
0010
1000
0000
,
0001
0010
0001
0010
M00M
0010
1000
0000
0M11
0000
1001
0000
1010
0000
0110
0000
,
0001
0100
0001
0000
1000
0010
1000
0000
0100
0010
0100
0000
0010
0001
0010
0000
,
0001
1000
0010
1000
0001
0010
0100
0000
100M
0000
1001
0000
0101
0000
1010
0000
,
1000
0100
1000
0100
M00M
0100
0001
0000
1000
0100
1000
0100
M00M
0100
0001
0000
,
1000
0100
1000
0100
M00M
0100
0001
0000
1001
0000
0011
0000
0110
0000
1100
0000
,
2001
0000
3010
0000
0101
1001
0011
0110
,
2000
3002
0000
0203
0000
0000
0320
0000
4030
3004
0043
0430
4300
3040
0430
0304
,
1003
0100
1000
0100
M00M
0100
0001
0000
1000
0100
1000
0100
M00M
0100
0001
0000
,
1000
0100
1000
0100
M00M
0100
0001
0000
M011
0000
0110
0000
1100
0000
1001
0000
,
0001
0100
0001
0000
1000
0010
1000
0000
0100
0010
0100
0000
1000
0100
1000
0000
,
0001
0100
0010
1000
0001
0010
0100
0000
1000
0000
1001
0000
1010
0000
0110
0000
,
0001
0010
0001
0010
M00M
0010
1000
0000
0001
0010
0001
0010
M00M
0010
1000
0000
,
0001
0010
0001
0010
M00M
0010
1000
0000
1001
0000
0101
0000
0110
0000
1010
0000
,
1002
0000
0013
0000
0011
0110
1100
1001
,
0001
0100
0001
0000
0100
0010
0100
0000
0010
1000
0010
0000
1000
0001
1000
0000
,
0004
0400
0000
0300
0003
0000
0010
0000
0400
4000
0000
3000
0300
0000
0010
0000
,
0001
1000
0010
0000
0100
0001
1000
0000
0100
0010
0001
1000
0010
0100
0001
1000
,
0001
0000
0000
0000
0000
0000
0000
0000
1000
0004
0100
0000
1000
0000
0010
0000
,
1003
0010
1000
0010
0100
0000
0100
0000
0001
0100
0010
1000
0001
1000
0010
0100
,
0001
1000
0100
0010
0001
0000
0001
0000
0010
0100
1000
0001
0100
0001
1000
0010
,
1000
0001
0010
0100
1000
0000
1000
0000
0100
0010
0001
1000
0010
1000
0001
0010
,
0100
1000
0001
0100
0010
0000
0010
0000
1000
0010
0100
0001
1000
0001
0100
0010
,
1000
0001
0010
0100
1000
0001
1000
0000
0100
0010
0001
1000
0010
1000
0001
0100
,
0010
1000
0001
0010
0100
1000
0100
0000
0010
0001
1000
0001
0100
0010
1000
0001
,
0010
0100
1000
0001
0100
0001
0100
0000
0001
0010
0100
1000
0010
0100
0001
0010
,
0100
1000
0000
0000
0100
0000
0010
0000
0001
0000
0000
0001
0000
0000
1000
0000
,
0001
0010
0100
1000
0001
0100
0001
0100
0010
1000
0001
1000
0100
1000
0001
0010
,
0100
1000
0001
0100
0010
1000
0010
1000
0001
1000
0010
0100
0001
0100
0010
1000
,
0001
0010
0100
1000
0010
0100
0010
0100
0001
0100
0010
1000
0001
1000
0010
0100
,
0001
1000
0100
0010
0001
1000
0001
1000
0010
0100
0001
1000
0100
1000
0001
0100
,
0010
1000
0010
0100
0001
0010
0001
0010
0100
1000
0001
0100
0010
1000
0010
0100
,
0001
1000
0100
0010
0001
0100
0001
0100
0001
1000
0100
0010
0001
0010
0100
1000
,
0001
0100
0010
1000
0100
0010
0100
0010
0001
1000
0010
0100
0001
0100
0010
1000
,
0M01
0000
00M0
M000
0M00
0000
M000
0000
00M0
0000
0M00
00M0
0000
00M0
0000
0000
,
0001
0010
1100
0001
0010
1100
0100
0010
,
0001
0000
0010
0000
1100
0000
0010
0000
1100
0000
0000
1001
0000
0000
1010
0000
,
0001
0100
1010
0001
0100
1010
0010
0100
,
0001
0000
0100
0000
1010
0000
0100
0000
1010
0000
0000
1001
0000
0000
0001
0010
,
0100
1000
0101
0010
1000
0101
0010
1000
,
0100
0000
0010
0000
0101
0000
1000
0000
0101
0000
0000
1010
0000
0000
1100
0000
,
0010
0001
1100
0010
0001
1100
1000
0001
,
0010
0001
0000
0000
1100
0000
1000
0000
1100
0000
0000
0110
0000
0000
1001
0000
,
0001
0100
1010
0001
0100
1010
0010
0100
,
0001
0000
0100
0000
1010
0000
0100
0000
1010
0000
0000
1001
0000
0000
1100
0000
,
0001
0010
1100
0001
0010
1100
0100
0010
,
0001
0000
0010
0000
1100
0000
0010
0000
1100
0000
0000
1001
0000
0000
0010
1000
,
0001
1000
0110
0001
1000
0110
1000
0001
,
1000
0000
0001
0000
0110
0000
1000
0000
0110
0000
0000
1001
0000
0000
1010
0000
,
0100
0001
1010
0100
0001
1010
1000
0001
,
0100
0001
0000
0000
1010
0000
0010
0000
2000
0000
3200
0000
0320
0000
0032
0000
,
0103
0010
0000
0100
0001
0000
0100
0010
0000
0100
0001
0000
0100
0010
1000
0001
,
0010
0100
0000
0010
0001
0000
0010
0100
0000
0010
0001
0000
0010
0100
1000
0010
,
0100
0001
0000
0100
0010
0000
0100
0001
0000
0100
0010
0000
0100
0001
0010
0100
,
1000
0001
0000
1000
0100
0000
1000
0001
0000
1000
0100
0000
0010
0001
0100
0010
,
1000
0001
0000
1000
0010
0000
1000
0001
0000
1000
0010
0000
1000
0001
0010
0100
,
1000
0010
0000
1000
0001
0000
1000
0010
0000
1000
0001
0000
1000
0010
0100
0001
,
0010
0100
0000
0010
0001
0000
0010
0100
0000
0010
0001
0000
0010
0100
1000
0001
,
0100
0010
0000
0100
0001
0000
0100
0010
0000
0100
0001
1000
0000
0100
0010
0000
,
0001
1000
0000
0001
0010
0000
0001
1000
0000
0001
0010
0000
0001
1000
0010
1000
,
0001
0100
0000
0001
1000
0000
0001
0100
0000
0001
1000
0000
0001
0100
0010
1000
,
0100
0010
0000
0100
1000
0000
0100
0010
0000
0100
1000
0000
0100
0010
0001
1000
,
0010
0100
0000
0010
1000
0000
0010
0100
0000
0010
1000
0000
0001
0010
0100
1000
,
0010
0100
0000
0010
1000
0000
0010
0100
0000
0010
1000
0000
0010
0100
0001
0010
,
0100
1000
0000
0100
0010
0000
0100
1000
0000
0100
0010
0000
0100
1000
0010
0100
,
0001
1000
0000
0001
0010
0000
0001
1000
0000
0001
0010
0000
0100
1000
0010
0100
,
0002
0000
0000
0000
0000
1003
0100
0010
,
0001
0000
0000
0000
0100
M00M
0100
0000
0000
0000
0000
0000
1000
0000
0000
0000
0001
0000
0000
0000
0100
M00M
0100
0000
0000
0000
0000
0000
1000
0000
0000
0000
,
0001
0000
0000
0000
0100
M00M
0100
0000
0000
0000
0000
0000
1000
0000
0000
0000
0001
0000
0000
0000
0100
0000
0000
0000
0010
0000
0000
0000
1000
0000
0000
0000
,
0200
0320
0032
2003
,
3010
0000
0000
0010
0000
0000
0100
0000
0000
0000
0001
0000
0100
0000
0010
0000
,
1000
0000
0000
0000
0100
M00M
0100
0000
0000
0000
0000
0000
0001
0000
0000
0000
1000
0000
0000
0000
0100
M00M
0100
0000
0000
0000
0000
0000
0001
0000
0000
0000
,
1000
0000
0000
0000
0100
M00M
0100
0000
0000
0000
0000
0000
0001
0000
0000
0000
0010
0000
0000
0000
0100
0000
0000
0000
1000
0000
0000
0000
0010
0000
0000
0000
,
0100
0000
0000
0100
0000
0000
0001
0000
1000
0000
0010
0000
0100
0000
0001
0000
,
2000
0000
0000
0000
0000
0000
0000
3000
2000
0000
0000
0000
0000
0000
0000
0000
3200
0000
0000
0000
0000
0000
0000
0300
0200
0000
0000
0000
0000
0000
0000
0000
0320
0000
0000
0000
0000
0000
0000
0030
0020
0000
0000
0000
0000
0000
0000
0000
0032
0000
0000
0000
0000
0000
0000
0003
0002
0000
0000
0000
0000
0000
0000
0000
,
4003
0004
0000
0003
3000
0000
0100
0000
0040
0004
0000
0003
0030
0000
0001
0000
,
1000
0010
0100
0001
1000
0010
0100
0001
1000
0010
0100
0001
1000
0010
0100
0001
,
1000
0000
0000
0000
0000
0001
0010
0100
,
1000
0100
1000
0100
M00M
0100
0001
0000
1000
0100
1000
0100
M00M
0100
0001
0000
,
1000
0100
1000
0100
M00M
0100
0001
0000
11M0
0000
1001
0000
0101
0000
0110
0000
,
1000
0010
1000
0000
0001
0100
0001
0000
0010
0100
0010
0000
0100
1000
0100
0000
,
1000
0001
0100
0001
1000
0100
0010
0000
M001
0000
1000
0000
0010
0000
0100
0000
,
0001
0010
0001
0010
M00M
0010
1000
0000
0001
0010
0001
0010
M00M
0010
1000
0000
,
0001
0010
0001
0010
M00M
0010
1000
0000
1001
0000
1100
0000
0110
0000
0011
0000
,
2001
0000
3100
0000
1010
1001
1100
0110
,
0002
2003
0000
3020
0000
0000
0230
0000
0304
4003
3400
0340
0034
0403
0340
4030
,
3001
0010
0001
0010
M00M
0010
1000
0000
0001
0010
0001
0010
M00M
0010
1000
0000
,
0001
0010
0001
0010
M00M
0010
1000
0000
110M
0000
0110
0000
0011
0000
1001
0000
,
1000
0010
1000
0000
0001
0100
0001
0000
0010
0100
0010
0000
0001
0010
0001
0000
,
1000
0010
0100
0001
1000
0100
0010
0000
0001
0000
1001
0000
0101
0000
0110
0000
,
1000
0100
1000
0100
M00M
0100
0001
0000
1000
0100
1000
0100
M00M
0100
0001
0000
,
1000
0100
1000
0100
M00M
0100
0001
0000
1001
0000
1010
0000
0110
0000
0101
0000
,
1002
0000
0103
0000
1100
0110
0011
1001
,
1000
0010
1000
0000
0010
0100
0010
0000
0200
0000
0000
0302
0000
0000
2003
0000
,
3001
0010
0001
0010
M00M
0010
1000
0000
0001
0010
0001
0010
M00M
0010
1000
0000
,
0001
0010
0001
0010
M00M
0010
1000
0000
0M11
0000
1001
0000
1010
0000
0110
0000
,
0001
0100
0001
0000
1000
0010
1000
0000
0100
0010
0100
0000
0010
0001
0010
0000
,
0001
1000
0010
1000
0001
0010
0100
0000
100M
0000
0001
0000
0100
0000
0010
0000
,
1000
0100
1000
0100
M00M
0100
0001
0000
1000
0100
1000
0100
M00M
0100
0001
0000
,
1000
0100
1000
0100
M00M
0100
0001
0000
1001
0000
0011
0000
0110
0000
1100
0000
,
2001
0000
3010
0000
0101
1001
0011
0110
,
2000
3002
0000
0203
0000
0000
0320
0000
4030
3004
0043
0430
4300
3040
0430
0304
,
1003
0100
1000
0100
M00M
0100
0001
0000
1000
0100
1000
0100
M00M
0100
0001
0000
,
1000
0100
1000
0100
M00M
0100
0001
0000
M011
0000
0110
0000
1100
0000
1001
0000
,
0001
0100
0001
0000
1000
0010
1000
0000
0100
0010
0100
0000
1000
0100
1000
0000
,
0001
0100
0010
1000
0001
0010
0100
0000
1000
0000
1001
0000
1010
0000
0110
0000
,
0001
0010
0001
0010
M00M
0010
1000
0000
0001
0010
0001
0010
M00M
0010
1000
0000
,
0001
0010
0001
0010
M00M
0010
1000
0000
1001
0000
0101
0000
0110
0000
1010
0000
,
1002
0000
0013
0000
0011
0110
1100
1001
,
0001
0100
0000
0000
0010
0000
1000
0000
0100
0000
0000
0010
0000
0000
0001
0000
,
0400
0004
0000
0003
0300
0000
0010
0000
4000
0004
0000
0003
3000
0000
0010
0000
,
1000
0100
0010
0000
0001
0100
0010
0000
1000
0100
0010
0001
0100
0001
0010
0100
,
1000
0010
0100
0000
0001
0010
0100
0000
1000
0010
0100
0001
0010
0001
0100
0010
,
2000
0000
0000
0000
,
0000
0000
0000
0000
,
0000
0000
0000
0000
,
0000
0000
0000
0000
,
3000
0000
0000
0000
;

//---------------dance-single - 15+ (TYLR)----------------
#NOTES:
     dance-single:
     15+ (TYLR):
     Hard:
     15:
     1.000,1.000,0.310,0.231,1.000,2171.000,78.000,58.000,12.000,0.000:
0000
0000
0000
0000
,
0000
0000
0000
0000
,
1000
0011
0100
1001
,
0100
1010
0001
0110
,
1000
0101
0010
1001
,
0010
0000
0000
0000
1100
0000
0000
0000
0001
0000
0000
0000
1010
0000
1000
0001
,
1000
0011
0100
1001
,
0100
1010
0001
0110
,
1000
0101
0010
1001
,
1000
0100
0000
0000
0011
0000
0001
0000
1000
0000
0000
0010
0000
0000
0100
0000
,
0001
1000
0100
1000
0001
0010
0100
0010
,
0001
1000
0100
1000
0001
0010
0100
1000
,
0001
0100
0010
0100
0001
1000
0010
1000
,
0001
0000
0100
0000
0010
0000
0100
0000
0001
0000
1000
0000
0010
0000
1000
0001
,
1000
0100
0010
0100
1000
0001
0010
0001
,
1000
0100
0010
0100
1000
0001
0010
0001
,
1000
0001
0100
0001
1000
0010
0100
0010
,
1000
0001
0000
0000
0100
0000
0001
0000
1000
0000
0000
0100
0000
0000
0010
0001
,
1000
0001
1000
0001
0100
0000
0010
1000
0001
1000
0001
1000
0100
0000
0010
0001
,
1000
0001
1000
0001
0100
0000
0010
1000
0001
1000
0001
1000
0100
0000
0010
0001
,
1000
0001
1000
0001
0100
0000
0010
1000
0001
1000
0001
1000
0100
0000
0010
0001
,
1000
0001
1000
0001
0100
0000
0010
1000
0001
1000
0001
1000
0100
0000
0010
0001
,
1000
0010
1000
0010
0100
0000
0010
1000
0001
1000
0001
1000
0100
0000
0010
0001
,
1000
0100
1000
0100
0010
0000
0100
1000
0001
1000
0001
1000
0010
0000
0100
0001
,
1000
0001
1000
0001
0010
0000
0001
0010
0100
1000
0100
1000
0001
0000
1000
0100
,
0010
0001
0000
0000
1000
0000
0001
0000
0010
0000
0000
0100
0000
0000
1000
0001
,
0100
0010
1000
0001
0010
0001
0010
0001
1000
0010
0100
0001
1000
0010
0100
0001
,
1000
0001
0100
0010
1000
0001
1000
0001
0010
0100
1000
0001
0010
0100
1000
0001
,
0100
0010
1000
0001
0010
0001
0010
0001
1000
0100
0010
0001
1000
0100
0010
0001
,
1000
0010
0100
0001
0010
0100
0010
0100
1000
0001
0100
0010
1000
0001
0100
0010
,
1000
0001
0010
0100
1000
0001
1000
0001
0100
0010
1000
0001
0100
0010
1000
0001
,
0040
0030
0000
0000
0400
0300
0000
0000
4000
3000
0000
0000
0004
0003
0000
0000
0400
0300
0000
0000
0004
0003
0000
0000
4000
3000
0000
0000
0400
0300
0000
0000
0040
0030
0000
0000
0004
0003
0000
0000
4000
3000
0000
0000
0040
0030
0000
0000
0400
0300
0000
0000
0004
0003
0000
0000
0400
0300
0000
0000
0040
0030
0000
0000
,
4000
3000
0000
0000
0400
0300
0000
0000
0040
0030
0000
0000
0004
0003
0000
0000
0400
0300
0000
0000
0004
0003
0000
0000
0040
0030
0000
0000
0400
0300
0000
0000
4000
3000
0000
0000
0004
0003
0000
0000
0400
0300
0000
0000
0004
0003
0000
0000
0040
0030
0000
0000
0400
0300
0000
0000
4000
3000
0000
0000
0040
0030
0000
0000
,
0200
0000
0000
0000
0000
0301
0100
0010
,
1000
0000
0100
0010
0000
0000
0001
0000
1000
0000
0100
0010
0000
0000
0001
0000
,
1000
0000
0100
0010
0000
0000
0001
0000
1000
0000
0010
0000
0100
0000
0001
0000
,
0020
0230
2300
3002
,
0103
0000
0000
0100
0000
0000
0010
0000
0000
0000
1000
0000
0100
0000
0010
0000
,
0001
0000
0100
0010
0000
0000
1000
0000
0001
0000
0100
0010
0000
0000
1000
0000
,
0001
0000
0100
0010
0000
0000
1000
0000
0100
0000
0010
0000
0001
0000
0100
0000
,
0010
0000
0000
0010
0000
0000
1000
0000
0001
0000
0100
0000
0010
0000
1000
0000
,
0002
0003
0001
0000
0020
0030
0010
0000
0200
0300
0100
0000
2000
3000
1000
0000
,
0004
4000
0000
3000
0003
0000
0010
0000
0400
4000
0000
3000
0300
0000
1000
0000
,
0001
0100
0010
1000
0001
0100
0010
1000
0001
0100
0010
1000
0001
0100
0010
1000
,
0001
0000
0000
0000
0000
0000
0000
0000
1000
0004
0010
0000
1000
0000
0100
0000
,
1003
0000
0000
0000
0000
0001
1000
0100
,
0010
0001
0010
0001
1000
0010
0100
0001
1000
0001
1000
0001
0010
0100
1000
0001
,
0100
0010
0100
0010
1000
0001
0010
0100
1000
0004
0100
0000
1000
0000
0010
0000
,
1003
0010
1000
0010
0100
0001
0100
0001
0010
0100
0010
0100
1000
0100
1000
0100
,
0010
0001
0100
0010
1000
0100
0010
0001
0100
0004
0010
0000
1000
0000
0100
0000
,
1003
0010
1000
0010
0100
0001
1000
0100
0010
0001
0010
0001
1000
0010
0100
0001
,
1000
0001
1000
0001
0010
0100
1000
0001
0100
0001
1000
0001
0010
0001
0100
0001
,
1000
0010
1000
0010
0100
0001
1000
0001
0100
0010
1000
0001
0010
0100
1000
0001
,
0200
0302
0203
0320
2030
3002
2003
3020
0430
0304
0043
0430
4300
3040
0430
0304
,
0013
0100
0010
0100
1000
0001
0100
0010
1000
0001
1000
0001
0010
0100
1000
0010
,
0100
0001
0100
0001
1000
0001
0010
0100
1000
0004
1000
0000
0010
0000
0100
0000
,
1003
0010
1000
0010
0100
0001
0100
0001
0010
0100
0010
0100
1000
0001
1000
0001
,
0100
0010
1000
0100
0010
0001
0100
0001
0010
0100
1000
0001
0100
0001
0100
0010
,
1000
0001
1000
0001
0010
0100
1000
0001
0100
0010
0100
0010
1000
0001
0010
0100
,
1000
0001
1000
0001
0100
0001
1000
0100
0010
0001
1000
0001
0100
0001
0010
0001
,
1000
0010
1000
0010
0100
0001
1000
0100
0010
0001
1000
0001
0100
0001
0010
0001
,
1000
0010
1000
0010
0100
0010
0100
0010
0100
0001
0100
0001
1000
0001
1000
0001
,
0040
0004
0000
0003
0030
0000
0100
0000
4000
0004
0000
0003
3000
0000
0010
0000
,
1000
0100
0010
0000
0001
0100
0010
0000
1000
0100
0010
0001
0100
0001
0010
0100
,
1000
0000
0000
0000
0000
0000
0000
0000
0001
4000
0010
0000
0001
0000
0100
0000
,
3001
0000
0000
00M0
0000
00M0
0000
00M0
,
0001
1000
0001
0000
1000
0001
1000
0000
0001
0000
0100
0000
0010
0000
1000
0000
,
0001
1000
0001
0000
1000
0001
1000
0000
0001
0000
0010
0000
0100
0000
1000
0000
,
0010
1000
0010
0000
1000
0010
1000
0000
0001
0000
0010
0000
0001
0000
0100
0000
,
0010
0000
1000
0100
0010
0001
0100
0010
2000
0000
0000
0000
3002
0000
1003
0001
,
0010
0100
1000
0000
0100
0010
0001
0000
1000
0000
0001
0000
0100
0000
0010
0000
,
1000
0001
0100
0000
0001
0100
0010
0000
1000
0000
0001
0000
0010
0000
0100
0000
,
1000
0001
0100
0000
0010
1000
0001
0000
1000
0000
0010
0000
0100
0000
0010
0000
,
1000
0001
0000
0000
1000
0000
0100
0000
0010
0000
0000
0001
0000
0000
1000
0000
,
0001
0100
0010
1000
0001
0000
1000
0001
0000
0000
0010
0000
0100
0000
1000
0000
,
0001
0000
1000
0000
0001
0000
0100
0010
0000
0000
0000
0000
1000
0000
0010
0100
,
0001
0000
1000
0000
0100
0000
0010
0000
0001
0010
0000
0100
0000
0000
1000
0000
,
0001
0000
0000
0001
0000
0000
0100
0000
0010
0000
0000
0000
1001
0000
0000
0000
,
1000
0010
0100
0001
0000
0100
0001
0000
0000
0000
1000
0000
0100
0000
0010
0000
,
0001
0000
0010
0000
0001
0000
1000
0001
0000
0000
0000
0000
0100
0000
0010
1000
,
0001
0000
0000
0000
1000
0000
0010
0000
0100
0000
0001
1000
0000
0000
0100
0000
,
2000
0000
0000
0000
0000
0000
3001
0100
0010
1000
0010
1000
0010
1000
0010
1000
,
0001
0000
0000
0010
0000
0000
0100
0000
1000
0000
0001
0000
1000
0000
0100
0000
,
0010
0001
0010
0001
1000
0010
0100
0001
1000
0001
1000
0001
0010
0100
1000
0001
,
0100
0010
0100
0010
1000
0001
0010
0100
1000
0004
0100
0000
1000
0000
0010
0000
,
1003
0010
1000
0010
0100
0001
0100
0001
0010
0100
0010
0100
1000
0100
1000
0100
,
0010
0001
0100
0010
1000
0100
0010
0001
0100
0004
0010
0000
1000
0000
0100
0000
,
1003
0010
1000
0010
0100
0001
1000
0100
0010
0001
0010
0001
1000
0010
0100
0001
,
1000
0001
1000
0001
0010
0100
1000
0001
0100
0001
1000
0001
0010
0001
0100
0001
,
1000
0010
1000
0010
0100
0001
1000
0001
0100
0010
1000
0001
0010
0100
1000
0001
,
0200
0302
0203
0320
2030
3002
2003
3020
0430
0304
0043
0430
4300
3040
0430
0304
,
0013
0100
0010
0100
1000
0001
0100
0010
1000
0001
1000
0001
0010
0100
1000
0010
,
0100
0001
0100
0001
1000
0001
0010
0100
1000
0004
1000
0000
0010
0000
0100
0000
,
1003
0010
1000
0010
0100
0001
0100
0001
0010
0100
0010
0100
1000
0001
1000
0001
,
0100
0010
1000
0100
0010
0001
0100
0001
0010
0100
1000
0001
0100
0001
0100
0010
,
1000
0001
1000
0001
0010
0100
1000
0001
0100
0010
0100
0010
1000
0001
0010
0100
,
1000
0001
1000
0001
0100
0001
1000
0100
0010
0001
1000
0001
0100
0001
0010
0001
,
1000
0010
1000
0010
0100
0001
1000
0100
0010
0001
1000
0001
0100
0001
0010
0001
,
1000
0010
1000
0010
0100
0010
0100
0010
0100
0001
0100
0001
1000
0001
1000
0001
,
0040
0004
0000
0003
0030
0000
0100
0000
4000
0004
0000
0003
3000
0000
0100
0000
,
1000
0010
0100
0000
0001
0010
0100
0000
1000
0010
0100
0001
0010
0001
0100
0010
,
1000
0000
0000
0000
0000
0000
0000
0000
0001
4000
0010
0000
0001
0000
0100
0000
,
3001
0100
0001
0100
0010
1000
0010
1000
0001
0010
0100
1000
0001
1000
0100
0010
,
0001
1000
0010
0100
0001
1000
0001
1000
0010
0100
0001
1000
0100
1000
0001
0010
,
0001
1000
0010
0100
0001
1000
0001
1000
0100
0010
0001
1000
0010
1000
0001
0010
,
0100
1000
0001
0100
0010
1000
0010
1000
0001
0010
0100
1000
0001
1000
0100
0010
,
0001
1000
0010
0100
0001
1000
0001
1000
0010
0100
0001
1000
0100
1000
0001
0010
,
0100
1000
0001
0100
0010
1000
0010
1000
0001
0010
0100
1000
0001
1000
0100
0010
,
0001
1000
0010
0100
0001
1000
0001
1000
0100
0010
0001
1000
0010
1000
0001
1000
,
0100
0010
0001
1000
0010
0100
0010
0100
0001
0100
0010
1000
0100
0010
0001
0100
,
0001
0010
0100
1000
0001
0100
0001
0100
0010
1000
0001
1000
0100
1000
0001
0010
,
0100
1000
0001
0100
0010
1000
0010
1000
0001
1000
0010
0100
0001
0100
0010
1000
,
0001
0010
0100
1000
0010
0100
0010
0100
0001
0100
0010
1000
0001
1000
0010
0100
,
0001
1000
0100
0010
0001
1000
0001
1000
0010
0100
0001
1000
0100
1000
0001
0100
,
0010
1000
0010
0100
0001
0010
0001
0010
0100
1000
0001
0100
0010
1000
0010
0100
,
0001
1000
0100
0010
0001
0100
0001
0100
0001
1000
0100
0010
0001
0010
0100
1000
,
0001
0100
0010
1000
0100
0010
0100
0010
0001
1000
0010
0100
0001
0100
0010
1000
,
0M01
0000
00M0
M000
0M00
0000
M000
0000
00M0
0000
0M00
00M0
0000
00M0
0000
0000
,
1000
0100
0011
1000
0100
0011
0010
0100
,
1000
0000
0100
0000
0011
0000
0100
0000
0011
0000
0000
1001
0000
0000
0101
0000
,
1000
0010
0101
1000
0010
0101
0100
0010
,
1000
0000
0010
0000
0101
0000
0010
0000
0101
0000
0000
1001
0000
0000
0010
0001
,
1000
0001
0110
1000
0001
0110
0100
0001
,
1000
0000
0001
0000
0110
0000
0001
0000
0110
0000
0000
1001
0000
0000
0011
0000
,
0100
1000
0011
0100
1000
0011
0001
1000
,
0100
1000
0000
0000
0011
0000
0001
0000
0011
0000
0000
0110
0000
0000
1001
0000
,
1000
0010
0101
1000
0010
0101
0100
0010
,
1000
0000
0010
0000
0101
0000
0010
0000
0101
0000
0000
1001
0000
0000
0011
0000
,
1000
0100
0011
1000
0100
0011
0010
0100
,
1000
0000
0100
0000
0011
0000
0100
0000
0011
0000
0000
1001
0000
0000
1000
0010
,
0100
0001
1100
0010
0001
1100
0010
0001
,
1000
0000
0001
0000
1100
0000
0001
0000
1100
0000
0000
0011
0000
0000
1001
0000
,
0001
0100
1010
0001
0100
1010
0001
1000
,
0001
0010
0000
0000
1010
0000
1000
0000
0002
0000
0023
0000
0230
0000
2300
0000
,
3010
0100
0000
0010
1000
0000
0010
0100
0000
0010
1000
0000
0010
0100
0001
1000
,
0100
0010
0000
0100
1000
0000
0100
0010
0000
0100
1000
0000
0100
0010
0001
0100
,
0010
1000
0000
0010
0100
0000
0010
1000
0000
0010
0100
0000
0010
1000
0100
0010
,
0001
1000
0000
0001
0010
0000
0001
1000
0000
0001
0010
0000
0100
1000
0010
0100
,
0001
1000
0000
0001
0100
0000
0001
1000
0000
0001
0100
0000
0001
1000
0100
0010
,
0001
0100
0000
0001
1000
0000
0001
0100
0000
0001
1000
0000
0001
0100
0010
1000
,
0100
0010
0000
0100
1000
0000
0100
0010
0000
0100
1000
0000
0100
0010
0001
1000
,
0010
0100
0000
0010
1000
0000
0010
0100
0000
0010
1000
0001
0000
0010
0100
0000
,
1000
0001
0000
1000
0100
0000
1000
0001
0000
1000
0100
0000
1000
0001
0100
0001
,
1000
0010
0000
1000
0001
0000
1000
0010
0000
1000
0001
0000
1000
0010
0100
0001
,
0010
0100
0000
0010
0001
0000
0010
0100
0000
0010
0001
0000
0010
0100
1000
0001
,
0100
0010
0000
0100
0001
0000
0100
0010
0000
0100
0001
0000
1000
0100
0010
0001
,
0100
0010
0000
0100
0001
0000
0100
0010
0000
0100
0001
0000
0100
0010
1000
0100
,
0010
0001
0000
0010
0100
0000
0010
0001
0000
0010
0100
0000
0010
0001
0100
0010
,
1000
0001
0000
1000
0100
0000
1000
0001
0000
1000
0100
0000
0010
0001
0100
0010
,
2000
0000
0000
0000
0000
3001
0100
0010
,
1000
0000
0100
0010
0000
0000
0001
0000
1000
0000
0100
0010
0000
0000
0001
0000
,
1000
0000
0100
0010
0000
0000
0001
0000
1000
0000
0010
0000
0100
0000
0001
0000
,
0020
0230
2300
3002
,
0103
0000
0000
0100
0000
0000
0010
0000
0000
0000
1000
0000
0010
0000
0100
0000
,
0001
0000
0010
0100
0000
0000
1000
0000
0001
0000
0010
0100
0000
0000
1000
0000
,
0001
0000
0010
0100
0000
0000
1000
0000
0010
0000
0100
0000
0001
0000
0010
0000
,
0100
0000
0000
0100
0000
0000
1000
0000
0001
0000
0100
0000
0010
0000
1000
0000
,
0002
0003
0001
0000
0020
0030
0010
0000
0200
0300
0100
0000
2000
3000
1000
0000
,
0004
4000
0000
3000
0003
0000
0010
0000
0400
4000
0000
3000
0300
0000
1000
0000
,
0001
0100
0010
1000
0001
0100
0010
1000
0001
0100
0010
1000
0001
0100
0010
1000
,
0001
0000
0000
0000
0000
1000
0001
0100
,
0010
1000
0010
1000
0001
0010
0100
1000
0001
1000
0001
1000
0010
0100
0001
1000
,
0100
0010
0100
0010
0001
1000
0010
0100
0001
4000
0100
0000
0001
0000
0010
0000
,
3001
0010
0001
0010
0100
1000
0100
1000
0010
0100
0010
0100
0001
0100
0001
0100
,
0010
1000
0100
0010
0001
0100
0010
1000
0100
4000
0010
0000
0001
0000
0100
0000
,
3001
0010
0001
0010
0100
1000
0001
0100
0010
1000
0010
1000
0001
0010
0100
1000
,
0001
1000
0001
1000
0010
0100
0001
1000
0100
1000
0001
1000
0010
1000
0100
1000
,
0001
0010
0001
0010
0100
1000
0001
1000
0100
0010
0001
1000
0010
0100
0001
1000
,
0200
2300
3200
0320
0032
2003
3002
0023
0430
4300
3040
0430
0304
0043
0430
4300
,
3010
0100
0010
0100
0001
1000
0100
0010
0001
1000
0001
1000
0010
0100
0001
0010
,
0100
1000
0100
1000
0001
1000
0010
0100
0001
4000
0001
0000
0010
0000
0100
0000
,
3001
0010
0001
0010
0100
1000
0100
1000
0010
0100
0010
0100
0001
1000
0001
1000
,
0100
0010
0001
0100
0010
1000
0100
1000
0010
0100
0001
1000
0100
1000
0100
0010
,
0001
1000
0001
1000
0010
0100
0001
1000
0100
0010
0100
0010
0001
1000
0010
0100
,
0001
1000
0001
1000
0100
1000
0001
0100
0010
1000
0001
1000
0100
1000
0010
1000
,
0001
0010
0001
0010
0100
1000
0001
0100
0010
1000
0001
1000
0100
1000
0010
1000
,
0001
0010
0001
0010
0100
0010
0100
0010
0100
1000
0100
1000
0001
1000
0001
1000
,
0001
0100
0001
0100
0010
1000
0001
1000
0100
1000
0100
1000
0001
1000
0010
0100
,
0001
1000
0001
1000
0100
0010
0100
1000
0001
4000
0010
0000
0001
0000
0100
0000
,
3001
0100
0001
0100
0010
1000
0010
1000
0100
0010
0100
0010
0001
0010
0001
0010
,
0100
1000
0010
0100
0001
0010
0100
1000
0010
4000
0100
0000
0001
0000
0010
0000
,
3001
0100
0001
0100
0010
1000
0001
0010
0100
1000
0100
1000
0001
0100
0010
1000
,
0001
1000
0001
1000
0100
0010
0001
1000
0010
1000
0001
1000
0100
1000
0010
1000
,
0001
0100
0001
0100
0010
1000
0001
1000
0010
0100
0001
1000
0100
0010
0001
1000
,
0020
2030
3020
0230
0302
2003
3002
0203
0340
4030
3400
0340
0034
0403
0340
4030
,
3100
0010
0100
0010
0001
1000
0010
0100
0001
1000
0001
1000
0100
0010
0001
0100
,
0010
1000
0010
1000
0001
1000
0100
0010
0001
4000
0001
0000
0100
0000
0010
0000
,
3001
0100
0001
0100
0010
1000
0010
1000
0100
0010
0100
0010
0001
1000
0001
1000
,
0010
0100
0001
0010
0100
1000
0010
1000
0100
0010
0001
1000
0010
1000
0010
0100
,
0001
1000
0001
1000
0100
0010
0001
1000
0010
0100
0010
0100
0001
1000
0100
0010
,
0001
1000
0001
1000
0010
1000
0001
0010
0100
1000
0001
1000
0010
1000
0100
1000
,
0001
0100
0001
0100
0010
1000
0001
0010
0100
1000
0001
1000
0010
1000
0100
1000
,
0001
0100
0001
0100
0010
0100
0010
0100
0010
1000
0010
1000
0001
1000
0001
1000
,
0400
4000
0000
3000
0300
0000
0010
0000
0004
4000
0000
3000
0003
0000
0100
0000
,
0001
0010
0100
0000
1000
0010
0100
0000
0001
0010
0100
1000
0010
1000
0100
0010
,
0001
0100
0010
0000
1000
0100
0010
0000
0001
0010
0100
1000
0010
0100
0001
0010
,
0200
0000
0000
0000
,
0000
0000
0000
0000
,
0000
0000
0000
0000
,
0000
0000
0000
0000
,
0300
0000
0000
0000
;

//---------------dance-single - 1 (TYLR)----------------
#NOTES:
     dance-single:
     1 (TYLR):
     Beginner:
     1:
     0.111,0.117,0.000,0.000,0.000,195.000,0.000,0.000,0.000,0.000:
0000
0000
0000
0000
,
0000
0000
0000
0000
,
1000
0000
0000
0000
,
0001
0000
0000
0000
,
0100
0000
0000
0000
,
0010
0000
0000
0000
,
1000
0000
0000
0000
,
0100
0000
0000
0000
,
0010
0000
0000
0000
,
0001
0000
0000
0000
,
1000
0000
0000
0000
,
0010
0000
0000
0000
,
0100
0000
0000
0000
,
0001
0000
0000
0000
,
0010
0000
0000
0000
,
0100
0000
0000
0000
,
1000
0000
0000
0000
,
0010
0000
0000
0000
,
0100
0000
0000
0000
,
0001
0000
0000
0000
,
1000
0000
0000
0000
,
0100
0000
0000
0000
,
0010
0000
0000
0000
,
0001
0000
0000
0000
,
1000
0000
0000
0000
,
0010
0000
0000
0000
,
0100
0000
0000
0000
,
0001
0000
0000
0000
,
0010
0000
0000
0000
,
0001
0000
0000
0000
,
0100
0000
0000
0000
,
0010
0000
0000
0000
,
1000
0000
0000
0000
,
0100
0000
0000
0000
,
0010
0000
0000
0000
,
0001
0000
0000
0000
,
1000
0000
0000
0000
,
0001
0000
0000
0000
,
0100
0000
0000
0000
,
0010
0000
0000
0000
,
1000
0000
0000
0000
,
0100
0000
0000
0000
,
1000
0000
0000
0000
,
0010
0000
0000
0000
,
0100
0000
0000
0000
,
0001
0000
0000
0000
,
0010
0000
0000
0000
,
1000
0000
0000
0000
,
0001
0000
0000
0000
,
0100
0000
0000
0000
,
0010
0000
0000
0000
,
1000
0000
0000
0000
,
0100
0000
0000
0000
,
0010
0000
0000
0000
,
0001
0000
0000
0000
,
1000
0000
0000
0000
,
0010
0000
0000
0000
,
0100
0000
0000
0000
,
0001
0000
0000
0000
,
0010
0000
0000
0000
,
0100
0000
0000
0000
,
1000
0000
0000
0000
,
0010
0000
0000
0000
,
0100
0000
0000
0000
,
0001
0000
0000
0000
,
1000
0000
0000
0000
,
0100
0000
0000
0000
,
0010
0000
0000
0000
,
0001
0000
0000
0000
,
1000
0000
0000
0000
,
0010
0000
0000
0000
,
0100
0000
0000
0000
,
0001
0000
0000
0000
,
0010
0000
0000
0000
,
0001
0000
0000
0000
,
0100
0000
0000
0000
,
0010
0000
0000
0000
,
1000
0000
0000
0000
,
0100
0000
0000
0000
,
0010
0000
0000
0000
,
0001
0000
0000
0000
,
1000
0000
0000
0000
,
0001
0000
0000
0000
,
0100
0000
0000
0000
,
0010
0000
0000
0000
,
1000
0000
0000
0000
,
0100
0000
0000
0000
,
1000
0000
0000
0000
,
0010
0000
0000
0000
,
0100
0000
0000
0000
,
0001
0000
0000
0000
,
1000
0000
0000
0000
,
0001
0000
0000
0000
,
0100
0000
0000
0000
,
0010
0000
0000
0000
,
1000
0000
0000
0000
,
0100
0000
0000
0000
,
0010
0000
0000
0000
,
0001
0000
0000
0000
,
1000
0000
0000
0000
,
0010
0000
0000
0000
,
0100
0000
0000
0000
,
0001
0000
0000
0000
,
0010
0000
0000
0000
,
0100
0000
0000
0000
,
1000
0000
0000
0000
,
0010
0000
0000
0000
,
0100
0000
0000
0000
,
0001
0000
0000
0000
,
1000
0000
0000
0000
,
0100
0000
0000
0000
,
0010
0000
0000
0000
,
0001
0000
0000
0000
,
1000
0000
0000
0000
,
0010
0000
0000
0000
,
0100
0000
0000
0000
,
0001
0000
0000
0000
,
0010
0000
0000
0000
,
0001
0000
0000
0000
,
0100
0000
0000
0000
,
0010
0000
0000
0000
,
1000
0000
0000
0000
,
0100
0000
0000
0000
,
0010
0000
0000
0000
,
0001
0000
0000
0000
,
1000
0000
0000
0000
,
0001
0000
0000
0000
,
0100
0000
0000
0000
,
0010
0000
0000
0000
,
1000
0000
0000
0000
,
0100
0000
0000
0000
,
1000
0000
0000
0000
,
0010
0000
0000
0000
,
0100
0000
0000
0000
,
0001
0000
0000
0000
,
1000
0000
0000
0000
,
0001
0000
0000
0000
,
0100
0000
0000
0000
,
0010
0000
0000
0000
,
1000
0000
0000
0000
,
0100
0000
0000
0000
,
0010
0000
0000
0000
,
0001
0000
0000
0000
,
1000
0000
0000
0000
,
0010
0000
0000
0000
,
0100
0000
0000
0000
,
0001
0000
0000
0000
,
0010
0000
0000
0000
,
0100
0000
0000
0000
,
1000
0000
0000
0000
,
0010
0000
0000
0000
,
0100
0000
0000
0000
,
0001
0000
0000
0000
,
1000
0000
0000
0000
,
0100
0000
0000
0000
,
0010
0000
0000
0000
,
0001
0000
0000
0000
,
1000
0000
0000
0000
,
0010
0000
0000
0000
,
0100
0000
0000
0000
,
0001
0000
0000
0000
,
0010
0000
0000
0000
,
0001
0000
0000
0000
,
0100
0000
0000
0000
,
0010
0000
0000
0000
,
1000
0000
0000
0000
,
0100
0000
0000
0000
,
0010
0000
0000
0000
,
0001
0000
0000
0000
,
1000
0000
0000
0000
,
0001
0000
0000
0000
,
0100
0000
0000
0000
,
0010
0000
0000
0000
,
1000
0000
0000
0000
,
0100
0000
0000
0000
,
1000
0000
0000
0000
,
0010
0000
0000
0000
,
0100
0000
0000
0000
,
0001
0000
0000
0000
,
0010
0000
0000
0000
,
0100
0000
0000
0000
,
1000
0000
0000
0000
,
0001
0000
0000
0000
,
0100
0000
0000
0000
,
0010
0000
0000
0000
,
1000
0000
0000
0000
,
0100
0000
0000
0000
,
0010
0000
0000
0000
,
0001
0000
0000
0000
,
1000
0000
0000
0000
,
0010
0000
0000
0000
,
0100
0000
0000
0000
,
0001
0000
0000
0000
,
1000
0000
0000
0000
,
0100
0000
0000
0000
,
0010
0000
0000
0000
,
0001
0000
0000
0000
;

//---------------dance-single - Switches----------------
#NOTES:
     dance-single:
     Switches:
     Edit:
     16:
     1.000,1.000,0.310,0.231,1.000,2241.000,78.000,58.000,36.000,0.000:
0000
0000
0000
0000
,
0000
0000
0000
0000
,
1000
0011
0100
1001
,
0100
1010
0001
0110
,
1000
0101
0010
1001
,
0010
0000
0000
0000
1100
0000
0000
0000
0001
0000
0000
0000
1010
0000
1000
0001
,
1000
0011
0100
1001
,
0100
1010
0001
0110
,
1000
0101
0010
1001
,
1000
0100
0000
0000
0011
0000
0001
0000
1000
0000
0000
0010
0000
0000
0100
0000
,
0001
1000
0100
1000
0001
0010
0100
0010
,
0001
1000
0100
1000
0001
0010
0100
1000
,
0001
0100
0010
0100
0001
1000
0010
1000
,
0001
0000
0100
0000
0010
0000
0100
0000
0001
0000
1000
0000
0010
0000
1000
0001
,
1000
0100
0010
0100
1000
0001
0010
0001
,
1000
0100
0010
0100
1000
0001
0010
0001
,
1000
0001
0100
0001
1000
0010
0100
0010
,
1000
0001
0000
0000
0100
0000
0001
0000
1000
0000
0000
0100
0000
0000
0010
0001
,
1000
0001
1000
0001
0100
0000
0010
1000
0001
1000
0001
1000
0100
0000
0010
0001
,
1000
0001
1000
0001
0100
0000
0010
1000
0001
1000
0001
1000
0100
0000
0010
0001
,
1000
0001
1000
0001
0100
0000
0010
1000
0001
1000
0001
1000
0100
0000
0010
0001
,
1000
0001
1000
0001
0100
0000
0010
1000
0001
1000
0001
1000
0100
0000
0010
0001
,
1000
0010
1000
0010
0100
0000
0010
1000
0001
1000
0001
1000
0100
0000
0010
0001
,
1000
0100
1000
0100
0010
0000
0100
1000
0001
1000
0001
1000
0010
0000
0100
0001
,
1000
0001
1000
0001
0010
0000
0001
0010
0100
1000
0100
1000
0001
0000
1000
0100
,
0010
0001
0000
0000
1000
0000
0001
0000
0010
0000
0000
0100
0000
0000
1000
0001
,
0100
0010
1000
0001
0010
0001
0010
0001
1000
0010
0100
0001
1000
0010
0100
0001
,
1000
0001
0100
0010
1000
0001
1000
0001
0010
0100
1000
0001
0010
0100
1000
0001
,
0100
0010
1000
0001
0010
0001
0010
0001
1000
0100
0010
0001
1000
0100
0010
0001
,
1000
0010
0100
0001
0010
0100
0010
0100
1000
0001
0100
0010
1000
0001
0100
0010
,
1000
0001
0010
0100
1000
0001
1000
0001
0100
0010
1000
0001
0100
0010
1000
0001
,
0040
0030
0000
0000
0400
0300
0000
0000
4000
3000
0000
0000
0004
0003
0000
0000
0400
0300
0000
0000
0004
0003
0000
0000
4000
3000
0000
0000
0400
0300
0000
0000
0040
0030
0000
0000
0004
0003
0000
0000
4000
3000
0000
0000
0040
0030
0000
0000
0400
0300
0000
0000
0004
0003
0000
0000
0400
0300
0000
0000
0040
0030
0000
0000
,
4000
3000
0000
0000
0400
0300
0000
0000
0040
0030
0000
0000
0004
0003
0000
0000
0400
0300
0000
0000
0004
0003
0000
0000
0040
0030
0000
0000
0400
0300
0000
0000
4000
3000
0000
0000
0004
0003
0000
0000
0400
0300
0000
0000
0004
0003
0000
0000
0040
0030
0000
0000
0400
0300
0000
0000
4000
3000
0000
0000
0040
0030
0000
0000
,
0200
0000
0000
0000
0000
0301
0100
0010
,
1000
0000
0000
0000
0100
M00M
0100
0000
0000
0000
0000
0000
0001
0000
0000
0000
1000
0000
0000
0000
0100
M00M
0100
0000
0000
0000
0000
0000
0001
0000
0000
0000
,
1000
0000
0000
0000
0100
M00M
0100
0000
0000
0000
0000
0000
0010
0000
0000
0000
1000
0000
0000
0000
0100
0000
0000
0000
0010
0000
0000
0000
0001
0000
0000
0000
,
0200
0320
2030
3002
,
0013
0000
0000
0010
0000
0000
0100
0000
0000
0000
1000
0000
0100
0000
0010
0000
,
0001
0000
0000
0000
0100
M00M
0100
0000
0000
0000
0000
0000
1000
0000
0000
0000
0001
0000
0000
0000
0100
M00M
0100
0000
0000
0000
0000
0000
1000
0000
0000
0000
,
0001
0000
0000
0000
0100
M00M
0100
0000
0000
0000
0000
0000
1000
0000
0000
0000
0010
0000
0000
0000
0100
0000
0000
0000
0001
0000
0000
0000
0010
0000
0000
0000
,
0100
0000
0000
0100
0000
0000
1000
0000
0001
0000
0100
0000
0010
0000
1000
0000
,
0002
0003
0001
0000
0020
0030
0010
0000
0200
0300
0100
0000
2000
3000
1000
0000
,
0001
1000
0001
1000
0001
1000
0001
0000
0000
0010
0000
0000
0100
1000
0100
1000
0100
1000
0100
0000
0000
1000
0000
0000
,
0001
0100
0010
1000
0001
0100
0010
1000
0001
0100
0010
1000
0001
0100
0010
1000
,
0001
0000
0000
0000
0000
0000
0000
0000
1000
0004
0010
0000
1000
0000
0100
0000
,
1003
0000
0000
0000
0000
0001
1000
0100
,
0010
0001
0100
0100
1000
0001
1000
0100
0010
0001
0100
0100
1000
0001
1000
0100
,
0010
0001
0100
0100
1000
0001
1000
0010
0100
0004
0100
0000
1000
0000
0010
0000
,
1003
0010
1000
0010
0100
0001
0100
0001
0010
0100
0010
0100
1000
0100
1000
0100
,
0010
0001
0100
0010
1000
0100
0010
0001
0100
0004
0010
0000
1000
0000
0100
0000
,
1003
0010
0100
0100
1000
0010
0100
0001
1000
0010
0100
0100
1000
0010
0100
0001
,
1000
0010
0100
0100
1000
0010
0100
0001
0010
0001
0010
0001
1000
0001
0100
0001
,
1000
0010
1000
0010
0100
0001
1000
0001
0100
0010
1000
0001
0010
0100
1000
0001
,
0200
0302
0203
0320
2030
3002
2003
3020
0430
0304
0043
0430
4300
3040
0430
0304
,
1003
0010
0100
0100
1000
0001
0010
0100
1000
0010
0100
0100
1000
0001
0010
0100
,
1000
0010
0100
0100
1000
0001
0010
0100
1000
0004
1000
0000
0010
0000
0100
0000
,
1003
0010
1000
0010
0100
0001
0100
0001
0010
0100
0010
0100
1000
0001
1000
0001
,
0100
0010
1000
0100
0010
0001
0100
0001
0010
0100
1000
0001
0100
0001
0100
0010
,
1000
0001
0100
0100
1000
0001
0100
0010
1000
0001
0100
0100
1000
0001
0100
0010
,
1000
0001
0100
0100
1000
0001
0100
0010
1000
0001
1000
0001
0010
0100
1000
0001
,
0100
0001
0100
0001
1000
0001
0100
0010
1000
0001
1000
0001
0010
0100
1000
0001
,
0100
0001
0100
0001
1000
0001
1000
0001
1000
0100
1000
0100
0010
0001
0010
0001
,
1000
0001
1000
0001
1000
0001
1000
0000
0000
0010
0000
0000
0100
0001
0100
0001
0100
0001
0100
0000
0000
0010
0000
0000
,
1000
0100
0010
0000
0001
0100
0010
0000
1000
0100
0010
0001
0100
0001
0010
0100
,
1000
0000
0000
0000
0000
0000
0000
0000
0001
4000
0010
0000
0001
0000
0100
0000
,
3001
0000
0000
00M0
0000
00M0
0000
00M0
,
0001
1000
0001
0000
1000
0001
1000
0000
0001
0000
0100
0000
0010
0000
1000
0000
,
0001
1000
0001
0000
1000
0001
1000
0000
0001
0000
0010
0000
0100
0000
1000
0000
,
0010
1000
0010
0000
1000
0010
1000
0000
0001
0000
0010
0000
0001
0000
0100
0000
,
0010
0000
1000
0100
0010
0001
0100
0010
2000
0000
0000
0000
3002
0000
1003
0001
,
0010
0100
1000
0000
0100
0010
0001
0000
1000
0000
0001
0000
0100
0000
0010
0000
,
1000
0001
0100
0000
0001
0100
0010
0000
1000
0000
0001
0000
0010
0000
0100
0000
,
1000
0001
0100
0000
0010
1000
0001
0000
1000
0000
0010
0000
0100
0000
0010
0000
,
1000
0001
0000
0000
1000
0000
0100
0000
0010
0000
0000
0001
0000
0000
1000
0000
,
0001
0100
0010
1000
0001
0000
1000
0001
0000
0000
0010
0000
0100
0000
1000
0000
,
0001
0000
1000
0000
0001
0000
0100
0010
0000
0000
0000
0000
1000
0000
0010
0100
,
0001
0000
1000
0000
0100
0000
0010
0000
0001
0010
0000
0100
0000
0000
1000
0000
,
0001
0000
0000
0001
0000
0000
0100
0000
0010
0000
0000
0000
1001
0000
0000
0000
,
1000
0010
0100
0001
0000
0100
0001
0000
0000
0000
1000
0000
0100
0000
0010
0000
,
0001
0000
0010
0000
0001
0000
1000
0001
0000
0000
0000
0000
0100
0000
0010
1000
,
0001
0000
0000
0000
1000
0000
0010
0000
0100
0000
0001
1000
0000
0000
0100
0000
,
2000
0000
0000
0000
0000
0000
3001
0100
0010
1000
0010
1000
0010
1000
0010
1000
,
0001
0000
0000
0010
0000
0000
0100
0000
1000
0000
0001
0000
1000
0000
0100
0000
,
0010
0001
0100
0100
1000
0001
1000
0100
0010
0001
0100
0100
1000
0001
1000
0100
,
0010
0001
0100
0100
1000
0001
1000
0010
0100
0004
0100
0000
1000
0000
0010
0000
,
1003
0010
1000
0010
0100
0001
0100
0001
0010
0100
0010
0100
1000
0100
1000
0100
,
0010
0001
0100
0010
1000
0100
0010
0001
0100
0004
0010
0000
1000
0000
0100
0000
,
1003
0010
0100
0100
1000
0010
0100
0001
1000
0010
0100
0100
1000
0010
0100
0001
,
1000
0010
0100
0100
1000
0010
0100
0001
0010
0001
0010
0001
1000
0001
0100
0001
,
1000
0010
1000
0010
0100
0001
1000
0001
0100
0010
1000
0001
0010
0100
1000
0001
,
0200
0302
0203
0320
2030
3002
2003
3020
0430
0304
0043
0430
4300
3040
0430
0304
,
1003
0010
0100
0100
1000
0001
0010
0100
1000
0010
0100
0100
1000
0001
0010
0100
,
1000
0010
0100
0100
1000
0001
0010
0100
1000
0004
1000
0000
0010
0000
0100
0000
,
1003
0010
1000
0010
0100
0001
0100
0001
0010
0100
0010
0100
1000
0001
1000
0001
,
0100
0010
1000
0100
0010
0001
0100
0001
0010
0100
1000
0001
0100
0001
0100
0010
,
1000
0001
0100
0100
1000
0001
0100
0010
1000
0001
0100
0100
1000
0001
0100
0010
,
1000
0001
0100
0100
1000
0001
0100
0010
1000
0001
1000
0001
0010
0100
1000
0001
,
0100
0001
0100
0001
1000
0001
0100
0010
1000
0001
1000
0001
0010
0100
1000
0001
,
0100
0001
0100
0001
1000
0001
1000
0001
1000
0100
1000
0100
0010
0001
0010
0001
,
1000
0001
1000
0001
1000
0001
1000
0000
0000
0010
0000
0000
0100
0001
0100
0001
0100
0001
0100
0000
0000
0010
0000
0000
,
1000
0100
0010
0000
0001
0100
0010
0000
1000
0100
0010
0001
0100
0001
0010
0100
,
1000
0000
0000
0000
0000
0000
0000
0000
0001
4000
0010
0000
0001
0000
0100
0000
,
3001
0100
0001
0100
0010
1000
0010
1000
0001
0010
0100
1000
0001
1000
0100
0010
,
0001
1000
0010
0100
0001
1000
0001
1000
0010
0100
0001
1000
0100
1000
0001
0010
,
0001
1000
0010
0100
0001
1000
0001
1000
0100
0010
0001
1000
0010
1000
0001
0010
,
0100
1000
0001
0100
0010
1000
0010
1000
0001
0010
0100
1000
0001
1000
0100
0010
,
0001
1000
0010
0100
0001
1000
0001
1000
0010
0100
0001
1000
0100
1000
0001
0010
,
0100
1000
0001
0100
0010
1000
0010
1000
0001
0010
0100
1000
0001
1000
0100
0010
,
0001
1000
0010
0100
0001
1000
0001
1000
0100
0010
0001
1000
0010
1000
0001
1000
,
0100
0010
0001
1000
0010
0100
0010
0100
0001
0100
0010
1000
0100
0010
0001
0100
,
0001
0010
0100
1000
0001
0100
0001
0100
0010
1000
0001
1000
0100
1000
0001
0010
,
0100
1000
0001
0100
0010
1000
0010
1000
0001
1000
0010
0100
0001
0100
0010
1000
,
0001
0010
0100
1000
0010
0100
0010
0100
0001
0100
0010
1000
0001
1000
0010
0100
,
0001
1000
0100
0010
0001
1000
0001
1000
0010
0100
0001
1000
0100
1000
0001
0100
,
0010
1000
0010
0100
0001
0010
0001
0010
0100
1000
0001
0100
0010
1000
0010
0100
,
0001
1000
0100
0010
0001
0100
0001
0100
0001
1000
0100
0010
0001
0010
0100
1000
,
0001
0100
0010
1000
0100
0010
0100
0010
0001
1000
0010
0100
0001
0100
0010
1000
,
0M01
0000
00M0
M000
0M00
0000
M000
0000
00M0
0000
0M00
00M0
0000
00M0
0000
0000
,
1000
0100
0011
1000
0100
0011
0010
0100
,
1000
0000
0100
0000
0011
0000
0001
0000
0011
0000
0000
1001
0000
0000
0101
0000
,
1000
0010
0101
1000
0010
0101
0100
0010
,
1000
0000
0010
0000
0101
0000
0010
0000
0101
0000
0000
0101
0000
0000
1000
0100
,
0010
0001
1001
0100
0010
1001
1000
0010
,
0100
0000
0010
0000
1001
0000
1000
0000
1001
0000
0000
0011
0000
0000
1100
0000
,
0001
0100
1010
0001
0100
1010
0001
0100
,
0010
1000
0000
0000
1010
0000
1000
0000
1010
0000
0000
1010
0000
0000
1001
0000
,
1000
0100
0011
1000
0100
0011
0010
0100
,
1000
0000
0100
0000
0011
0000
0001
0000
0011
0000
0000
0011
0000
0000
1001
0000
,
1000
0010
0101
1000
0010
0101
0100
0001
,
1000
0000
0010
0000
0101
0000
0001
0000
0101
0000
0000
0101
0000
0000
1000
0100
,
0010
0001
1100
0010
0001
1100
1000
0100
,
0010
0000
0001
0000
1100
0000
1000
0000
1100
0000
0000
0011
0000
0000
1001
0000
,
1000
0010
0101
1000
0010
0101
0100
0010
,
1000
0001
0000
0000
1001
0000
1000
0000
0002
0000
0023
0000
0230
0000
2300
0000
,
3010
0100
0000
0010
1000
0000
0010
0100
0000
0010
1000
0000
0010
0100
0001
1000
,
0100
0010
0000
0100
1000
0000
0100
0010
0000
0100
1000
0000
0100
0010
0001
0100
,
0010
1000
0000
0010
0100
0000
0010
1000
0000
0010
0100
0000
0010
1000
0100
0010
,
0001
1000
0000
0001
0010
0000
0001
1000
0000
0001
0010
0000
0100
1000
0010
0100
,
0001
1000
0000
0001
0100
0000
0001
1000
0000
0001
0100
0000
0001
1000
0100
0010
,
0001
0100
0000
0001
1000
0000
0001
0100
0000
0001
1000
0000
0001
0100
0010
1000
,
0100
0010
0000
0100
1000
0000
0100
0010
0000
0100
1000
0000
0100
0010
0001
1000
,
0010
0100
0000
0010
1000
0000
0010
0100
0000
0010
1000
0001
0000
0010
0100
0000
,
1000
0001
0000
1000
0100
0000
1000
0001
0000
1000
0100
0000
1000
0001
0100
0001
,
1000
0010
0000
1000
0001
0000
1000
0010
0000
1000
0001
0000
1000
0010
0100
0001
,
0010
0100
0000
0010
0001
0000
0010
0100
0000
0010
0001
0000
0010
0100
1000
0001
,
0100
0010
0000
0100
0001
0000
0100
0010
0000
0100
0001
0000
1000
0100
0010
0001
,
0100
0010
0000
0100
0001
0000
0100
0010
0000
0100
0001
0000
0100
0010
1000
0100
,
0010
0001
0000
0010
0100
0000
0010
0001
0000
0010
0100
0000
0010
0001
0100
0010
,
1000
0001
0000
1000
0100
0000
1000
0001
0000
1000
0100
0000
0010
0001
0100
0010
,
2000
0000
0000
0000
0000
3001
0100
0010
,
1000
0000
0000
0000
0100
M00M
0100
0000
0000
0000
0000
0000
0001
0000
0000
0000
1000
0000
0000
0000
0100
M00M
0100
0000
0000
0000
0000
0000
0001
0000
0000
0000
,
1000
0000
0000
0000
0100
M00M
0100
0000
0000
0000
0000
0000
0010
0000
0000
0000
1000
0000
0000
0000
0100
0000
0000
0000
0010
0000
0000
0000
0001
0000
0000
0000
,
0200
0320
2030
3002
,
0013
0000
0000
0010
0000
0000
0100
0000
0000
0000
1000
0000
0100
0000
0010
0000
,
0001
0000
0000
0000
0100
M00M
0100
0000
0000
0000
0000
0000
1000
0000
0000
0000
0001
0000
0000
0000
0100
M00M
0100
0000
0000
0000
0000
0000
1000
0000
0000
0000
,
0001
0000
0000
0000
0100
M00M
0100
0000
0000
0000
0000
0000
1000
0000
0000
0000
0010
0000
0000
0000
0100
0000
0000
0000
0001
0000
0000
0000
0010
0000
0000
0000
,
0100
0000
0000
0100
0000
0000
1000
0000
0001
0000
0100
0000
0010
0000
1000
0000
,
0002
0003
0001
0000
0020
0030
0010
0000
0200
0300
0100
0000
2000
3000
1000
0000
,
0001
1000
0001
1000
0001
1000
0001
0000
0000
0010
0000
0000
0100
1000
0100
1000
0100
1000
0100
0000
0000
1000
0000
0000
,
0001
0100
0010
1000
0001
0100
0010
1000
0001
0100
0010
1000
0001
0100
0010
1000
,
0001
0000
0000
0000
0000
1000
0001
0100
,
0010
1000
0100
0100
0001
1000
0001
0100
0010
1000
0100
0100
0001
1000
0001
0100
,
0010
1000
0100
0100
0001
1000
0001
0010
0100
4000
0100
0000
0001
0000
0010
0000
,
3001
0010
0001
0010
0100
1000
0100
1000
0010
0100
0010
0100
0001
0100
0001
0100
,
0010
1000
0100
0010
0001
0100
0010
1000
0100
4000
0010
0000
0001
0000
0100
0000
,
3001
0010
0100
0100
0001
0010
0100
1000
0001
0010
0100
0100
0001
0010
0100
1000
,
0001
0010
0100
0100
0001
0010
0100
1000
0010
1000
0010
1000
0001
1000
0100
1000
,
0001
0010
0001
0010
0100
1000
0001
1000
0100
0010
0001
1000
0010
0100
0001
1000
,
0200
2300
3200
0320
0032
2003
3002
0023
0430
4300
3040
0430
0304
0043
0430
4300
,
3001
0010
0100
0100
0001
1000
0010
0100
0001
0010
0100
0100
0001
1000
0010
0100
,
0001
0010
0100
0100
0001
1000
0010
0100
0001
4000
0001
0000
0010
0000
0100
0000
,
3001
0010
0001
0010
0100
1000
0100
1000
0010
0100
0010
0100
0001
1000
0001
1000
,
0100
0010
0001
0100
0010
1000
0100
1000
0010
0100
0001
1000
0100
1000
0100
0010
,
0001
1000
0100
0100
0001
1000
0100
0010
0001
1000
0100
0100
0001
1000
0100
0010
,
0001
1000
0100
0100
0001
1000
0100
0010
0001
1000
0001
1000
0010
0100
0001
1000
,
0100
1000
0100
1000
0001
1000
0100
0010
0001
1000
0001
1000
0010
0100
0001
1000
,
0100
1000
0100
1000
0001
1000
0001
1000
0001
0100
0001
0010
0100
0010
0001
1000
,
0001
0010
0100
0100
0001
1000
0100
1000
0001
0010
0100
0100
0001
1000
0100
1000
,
0001
0010
0100
0100
0001
1000
0100
1000
0010
4000
0010
0000
0001
0000
0100
0000
,
3001
0100
0001
0100
0010
1000
0010
1000
0100
0010
0100
0010
0001
0010
0001
0010
,
0100
1000
0010
0100
0001
0010
0100
1000
0010
4000
0100
0000
0001
0000
0010
0000
,
3001
0010
0100
0100
0010
1000
0100
1000
0001
0010
0100
0100
0010
1000
0100
1000
,
0001
0010
0100
0100
0001
0010
0100
1000
0010
1000
0010
1000
0001
1000
0100
1000
,
0001
0100
0001
0100
0010
1000
0001
1000
0010
0100
0001
1000
0100
0010
0001
1000
,
0020
2030
3020
0230
0302
2003
3002
0203
0340
4030
3400
0340
0034
0403
0340
4030
,
3001
0010
0100
0100
0001
1000
0010
0100
0001
0010
0100
0100
0001
1000
0010
0100
,
0001
0010
0100
0100
0001
1000
0010
0100
0001
4000
0001
0000
0010
0000
0100
0000
,
3001
0010
0001
0010
0100
1000
0100
1000
0010
0100
0010
0100
0001
1000
0001
1000
,
0100
0010
0001
0100
0010
1000
0100
1000
0010
0100
0001
1000
0100
1000
0100
0010
,
0001
1000
0100
0100
0001
1000
0100
0010
0001
1000
0100
0100
0001
1000
0100
0010
,
0001
1000
0100
0100
0001
1000
0100
0010
0001
1000
0001
1000
0010
0100
0001
1000
,
0100
1000
0100
1000
0001
1000
0100
0010
0001
1000
0001
1000
0010
0100
0001
1000
,
0100
1000
0100
1000
0001
1000
0001
1000
0001
0100
0001
0100
0010
1000
0010
1000
,
0001
1000
0001
1000
0001
1000
0001
0000
0000
0010
0000
0000
0100
1000
0100
1000
0100
1000
0100
0000
0000
1000
0000
0000
,
0001
0100
0010
0000
1000
0010
0100
0000
0001
0010
0100
1000
0010
0100
0001
1000
,
0100
0010
0001
0000
1000
0010
0100
0000
0001
0010
0100
1000
0010
0100
0001
0010
,
0200
0000
0000
0000
,
0000
0000
0000
0000
,
0000
0000
0000
0000
,
0000
0000
0000
0000
,
0300
0000
0000
0000
;
