#TITLE:gigadelic;
#SUBTITLE:;
#ARTIST:teranoid feat. MC Natsack;
#TITLETRANSLIT:;
#SUBTITLETRANSLIT:;
#ARTISTTRANSLIT:;
#CREDIT:;
#BANNER:gigadelic-banner.png;
#BACKGROUND:gigadelic-bg.png;
#LYRICSPATH:;
#CDTITLE:!arsimCDtitle.png;
#MUSIC:gigadelic.mp3;
#OFFSET:1.000;
#SAMPLESTART:100.000;
#SAMPLELENGTH:12.000;
#SELECTABLE:YES;
#BPMS:0.000=172.700,82.500=172.700,127.000=172.700,145.000=172.700;
#STOPS:;
#BGCHANGES:;
// cache tags:
#FIRSTBEAT:4.000;
#LASTBEAT:356.000;
#SONGFILENAME:Songs/Fabulously Fresh Flock of Fantastic Files F5/(Arsim) gigadelic/gigadelic.sm;
#HASMUSIC:1;
#HASBANNER:1;
#MUSICLENGTH:129.026;
// end cache tags

//---------------dance-single - Blank----------------
#NOTES:
     dance-single:
     Blank:
     Hard:
     12:
     1.000,1.000,1.000,0.101,1.000,839.000,235.000,13.000,0.000,8.000:

0000
0000
0000
0000
,
1000
0000
0100
0010
0000
0001
0010
0000
0000
1000
0000
0000
,
1000
0000
0010
0100
0000
0100
0001
0000
0000
1000
0000
0000
,
1000
0000
0001
0100
0000
0010
0100
0000
0000
1000
0000
0100
,
0010
0001
0010
0100
0000
0010
0100
0000
0010
0001
0000
0000
,
1000
0000
0001
0010
0000
0100
0010
0000
0000
1000
0000
0000
,
1000
0000
0010
0100
0001
0010
0100
0010
1000
0010
0100
0010
,
0001
1000
0001
0010
0100
0010
0001
1000
0100
0010
0100
1000
,
0001
0010
0001
1000
0100
0010
0001
0000
0000
0100
0000
0000
,
1100
0000
0000
0101
0000
0000
1010
0100
0001
0110
0000
0000
,
1010
0100
0001
0110
1000
0001
1010
0000
0000
0011
0000
0000
,
0110
0000
0000
1001
0000
0000
0011
0100
1000
0110
0000
0000
,
1010
0100
0010
0101
0000
0100
1010
0000
0000
0001
0000
0000
,
1100
0000
0000
0110
0000
0000
1001
0010
0100
0011
0000
0000
,
1010
0100
0001
1100
0000
0010
0101
0000
0001
1100
0000
0000
,
0110
0000
0000
0101
0000
0000
1100
0010
0100
1001
0000
0000
,
0110
0001
0010
1100
0000
0010
2100
0000
0000
0000
0000
0000
,
3011
0000
0000
1100
0000
0000
0011
1000
0001
0110
0000
0000
,
1100
0000
0010
1100
0000
0000
0011
1000
0100
1010
0001
1000
,
0110
0000
0001
1100
0000
0000
0110
0001
1000
0101
0000
0000
,
1010
0100
0001
0110
1000
0100
0011
0100
0001
1010
0000
0000
,
0101
0000
1000
0110
0000
0000
0101
0010
0001
1100
0000
0000
,
0110
0000
1000
0011
0100
1000
0110
0001
0010
1100
0010
0001
,
0110
0000
0010
1001
0000
0000
0011
1000
0100
1010
0000
0000
,
1010
0001
0010
0101
0010
0100
2010
0000
0000
0000
0000
0000
,
3011
0000
0100
1010
0001
0100
0011
1000
0001
1100
0000
0010
,
1100
0000
0000
0101
1000
0001
0110
0001
1000
0011
0100
1000
,
0110
0000
0010
1100
0001
0100
0011
1000
0100
1001
0000
0000
,
1010
0001
0100
0011
1000
0100
1010
0001
1000
0110
0001
1000
,
0011
0000
1000
0101
1000
0010
1100
0010
0001
0110
1000
0001
,
1100
0000
0010
1001
0100
0010
1100
0001
1000
0101
0010
1000
,
0011
0000
0010
1100
0001
1000
0011
0100
0001
1100
0010
0001
,
1000
0100
0010
0001
0010
0100
0010
0001
0100
0010
0000
0000
,
1100
0000
0001
0110
1000
0001
1100
0010
0001
0110
1000
0100
,
0011
0000
0001
1100
0010
1000
0101
1000
0010
1100
0010
0100
,
0011
0000
0100
1010
0001
0100
0011
1000
0100
1001
0010
0100
,
1010
0000
0000
0011
0100
0001
1010
0100
1000
0101
1000
0000
,
1100
0000
0010
0101
1000
0010
1100
0010
0001
0110
1000
0001
,
1100
0010
0001
0110
0001
1000
0101
1000
0010
1100
0010
1000
,
0011
0000
1000
0110
0001
1000
0101
0010
0100
1010
0000
0000
,
0101
0010
0001
1010
0001
0010
2100
0000
0000
0000
0000
0000
,
3011
0000
0100
1010
0001
0100
0011
1000
0010
1100
0000
0000
,
0101
0000
1000
0011
0100
0001
1100
0010
0001
0110
1000
0001
,
1100
0000
0100
1001
0010
1000
0101
0010
1000
0011
0000
0000
,
1100
0010
0001
0110
0001
1000
0011
1000
0100
1010
0001
0100
,
2000
0000
0000
0000
,
0000
0000
3002
0000
,
0203
0000
0000
0000
,
0320
0000
0000
0000
,
0031
0001
1000
0010
0100
0001
0100
0010
1000
0001
0100
0001
,
0010
0100
1000
0010
0100
0001
1000
0100
0010
0001
0010
0100
,
0010
0010
0010
0010
0100
0010
0001
0010
0100
0010
0100
1000
,
1000
0001
0001
0010
0100
0010
0001
1000
0100
0010
0001
1000
,
0100
0100
0010
0001
0010
0001
1000
0100
0010
0100
1000
0001
,
0010
0100
1000
0001
0010
0001
1000
0001
1000
0001
0010
0100
,
0100
0100
0100
0100
1000
0010
0001
1000
0100
0010
0001
0100
,
0010
1000
1000
0001
0010
0100
0010
0001
1000
0001
1000
0010
,
1001
0001
0010
0001
1000
0001
1000
0010
0100
0010
1000
0100
,
0010
0100
0010
0001
1000
0001
0100
0010
0001
1000
0001
1000
,
1000
1000
1000
1000
0010
0100
0001
1000
0100
0010
0001
0010
,
0100
0100
0001
0100
1000
0010
1000
0001
0010
0100
0010
0001
,
1000
1000
0001
1000
0100
0010
0100
0010
0001
1000
0010
0100
,
1000
0001
0010
0100
0010
0001
1000
0100
0010
0100
1000
0001
,
0001
0001
0001
0001
0001
0100
0010
1000
0100
0010
0100
0010
,
0001
0001
1000
1000
0001
1000
0100
0000
0000
0000
0000
0000
,
1100
0100
0010
0101
1000
0010
1001
0010
0100
1010
0001
1000
,
0101
0010
1000
0110
0001
0100
1010
0100
0010
0101
1000
0010
,
0011
0010
0010
0110
1000
0010
0101
1000
0010
1100
0010
0001
,
1010
1000
0001
0110
1000
0100
1001
0001
1000
0110
1000
0001
,
1010
0010
1000
0101
1000
0001
0110
0010
0100
1010
0001
0100
,
1001
0100
0001
1100
0010
0100
1001
0001
1000
0110
0001
0100
,
1100
0100
0100
0110
0001
0010
1100
0010
0001
1010
0001
1000
,
0101
0010
0100
1000
0001
0010
0200
0000
0000
0000
0000
0000
,
0311
0001
1000
0101
0010
1000
0110
1000
0001
1010
0100
1000
,
1001
0100
0010
0101
1000
0010
1100
0010
1000
0101
0001
0010
,
0011
0010
0010
0110
1000
0100
0011
0100
0010
1100
0010
0001
,
1010
1000
0001
0110
0001
1000
0011
1000
0001
0110
1000
0010
,
1010
0100
0001
1100
0010
0001
0110
0001
1000
0101
0010
0100
,
1010
0010
1000
0101
1000
0001
0110
0100
1000
0101
0100
0001
,
1001
0001
0001
0101
0010
1000
0110
1000
0001
1010
0100
0010
,
1100
0001
0010
0100
0010
0100
2000
0000
0000
0000
0000
0000
,
3011
0001
1000
0110
1000
0001
1100
0001
0010
0110
1000
0010
,
0101
0010
0001
0010
0000
0100
2000
0000
0000
0000
0000
0000
,
3011
0010
0010
0110
1000
0100
0011
0100
1000
0101
0010
1000
,
1001
0110
0011
0110
0001
1000
0011
0110
1100
0220
0000
0000
,
1331
1000
0010
0101
0010
1000
0110
0001
0100
1010
0001
0010
,
1100
0000
0011
1100
0000
1100
0011
0000
0000
0110
0000
1001
,
0110
0100
0100
1100
0100
0010
0101
0010
1000
0110
0001
0010
,
1100
0011
0110
0011
1100
0110
1002
0000
0000
0000
0000
0000
,
1103
0000
0000
0000
;
