#TITLE:Quickman Rave;
#SUBTITLE:;
#ARTIST:Rushjet1;
#TITLETRANSLIT:;
#SUBTITLETRANSLIT:;
#ARTISTTRANSLIT:;
#CREDIT:Mad Matt;
#BANNER:../BN.png;
#BACKGROUND:../BG.png;
#LYRICSPATH:;
#CDTITLE:../CDTitle_Pixel.png;
#MUSIC:Quickman Rave.ogg;
#OFFSET:-0.451;
#SAMPLESTART:42.672;
#SAMPLELENGTH:12.000;
#SELECTABLE:YES;
#DISPLAYBPM:150.500;
#BPMS:0.000=150.500,76.000=150.400,80.000=150.500,94.000=150.600,98.000=150.500,124.000=150.680,128.000=150.640,129.000=150.620,132.000=150.600,165.000=150.000,166.000=151.500,168.000=151.000,172.000=150.500,188.000=150.400,191.000=150.200,193.000=150.000,194.000=149.880,196.000=149.890,200.000=150.500,228.000=150.400,232.000=150.500,241.000=150.400,248.000=150.500,256.000=150.600;
#STOPS:;
#BGCHANGES:;
// cache tags:
#FIRSTBEAT:16.000;
#LASTBEAT:264.000;
#SONGFILENAME:Songs/Index Gradation/Quickman Rave - [Pixel]/Quickman Rave.sm;
#HASMUSIC:1;
#HASBANNER:1;
#MUSICLENGTH:105.000;
// end cache tags

//---------------dance-single - ----------------
#NOTES:
     dance-single:
     :
     Challenge:
     13:
     0.914,1.000,0.048,0.019,0.890,665.000,5.000,2.000,0.000,0.000:

0000
0000
0000
0000
,
0000
0000
0000
0000
,
0000
0000
0000
0000
,
0000
0000
0000
0000
,
1000
0010
0100
0001
1000
0100
1000
0010
,
0100
0010
1000
0100
0010
0001
0100
0001
,
0010
0100
1000
0010
0100
0010
0100
0001
,
0010
0000
0000
0000
0000
0000
0000
0000
0000
0000
0000
0000
0000
0000
0000
0000
0000
0000
0000
0000
0000
0000
0000
0000
0000
0000
0000
0000
0000
0000
0000
0000
0010
0000
0000
0000
0000
0000
0000
0000
0000
0000
0100
0000
0000
0000
0000
0000
0000
0000
0000
0000
0000
0000
0000
0000
0000
0000
0000
0000
0000
0000
0000
0000
1000
0000
0000
0000
0000
0000
0000
0000
0000
0000
0000
0000
0000
0000
0000
0000
0100
0000
0000
0000
0000
0000
0000
0000
0010
0000
0000
0000
0000
0000
0000
0000
0000
0000
0000
0000
0000
0000
0000
0000
0000
0000
0000
0000
0000
0000
0000
0000
0000
0000
0000
0000
0000
0000
0000
0000
0000
0000
0000
0000
0000
0000
0000
0000
0000
0000
0000
0000
0000
0000
0000
0000
0000
0000
0000
0000
0000
0000
0000
0000
0000
0000
0000
0000
0000
0000
0000
0000
0000
0000
0000
0000
0000
0000
0000
0000
0000
0000
0000
0000
0000
0000
0000
0000
0000
0000
0000
0000
0000
0000
0000
0000
0000
0000
0000
0000
0000
0000
0000
0000
0000
0000
0000
0000
0000
0000
0000
0000
,
1000
0100
0010
0001
1000
0100
1000
0100
1000
0100
0010
0001
0010
0001
0100
0010
,
1000
0100
0010
0001
1000
0100
0010
0001
1000
0001
0010
0100
1000
0001
0010
0100
,
1000
0100
1000
0001
0010
0100
1000
0100
1000
0010
0100
0001
0100
0010
1000
0010
,
1000
0010
0100
0001
0010
0100
1000
0100
0010
0001
0010
0001
0010
0001
0100
0010
,
1000
0100
0010
0001
0010
0100
1000
0100
0010
0001
0100
0001
0010
0100
1000
0100
,
0010
0001
0010
0001
1000
0100
1000
0100
1000
0001
0010
0100
1000
0001
0010
0100
,
1000
0001
0010
0001
0010
0001
0100
0001
0100
0010
0100
0010
0100
0001
1000
0001
,
1000
0000
0010
0100
0001
1000
0001
0100
0010
0000
1000
0001
0010
0001
0100
0010
,
1000
0100
0010
0001
1000
0100
0010
0001
1000
0100
0010
0001
1000
0100
0010
0001
,
1000
0100
1000
0100
0010
0001
0010
0001
,
1000
0010
1000
0010
0100
0010
0100
0010
,
1000
0001
1000
0001
1000
0100
1000
0100
,
0010
0001
0010
0001
0010
0100
0010
0100
,
1000
0100
0010
0001
0010
0100
1000
0010
,
0100
0010
1000
0100
1000
0100
1000
0010
,
0100
0000
0001
0000
0010
0000
0001
0000
1000
0100
1000
0010
1000
0010
0100
0001
,
0010
0100
0010
0100
1000
0100
0010
0001
0100
0001
1000
0010
0100
0010
0100
0001
,
0100
0010
1000
0100
0100
0010
0001
0100
,
0010
0100
0010
1000
0100
0010
0001
0010
,
0100
0010
0001
0010
0001
0100
0001
0010
,
0001
1000
0010
0100
0001
0010
0100
1000
,
0010
0100
0001
1000
0100
0010
0001
0100
,
0010
1000
0001
0000
0100
0010
0100
0001
,
1000
0100
0010
0001
0010
0100
0010
0100
1000
0010
0100
0001
1000
0010
1000
0010
,
0200
0000
1000
0010
1000
0010
1000
0010
,
1300
0100
0010
0100
1000
0010
0100
0001
,
0010
0000
0001
0000
0010
0000
0001
0010
0100
0000
0010
0000
0100
0000
1000
0000
,
0100
0010
1000
0010
1000
0100
0010
0100
,
0010
0000
0001
0000
1000
0000
0100
0010
0001
0000
1000
0000
0100
0000
0010
0000
,
0001
0100
0001
0100
0010
1000
0100
0010
,
0001
0000
0010
0000
0100
0000
0010
1000
0001
0000
0100
0000
0010
0000
0100
0000
,
1000
0010
0100
0001
0010
0100
1000
0010
,
1000
0000
0100
0000
0010
0000
0001
0100
0010
0000
0100
0000
0001
0000
0010
0000
,
0001
0000
2000
0100
,
3010
0001
1000
0001
0100
0010
0100
0001
,
0010
1000
0010
0001
0100
0010
0100
0010
,
1000
0100
0010
0001
1000
0010
0100
0010
,
1000
0100
0010
0000
0010
0000
0100
0000
0001
0000
1000
0000
0010
0000
0100
0000
,
0001
0010
0100
1000
0100
0010
0001
0010
,
0001
0100
0010
1000
0100
0010
0100
0010
,
0100
0000
0010
0000
1000
0000
0100
0000
1000
0100
0010
0001
0010
0100
1000
0010
,
0100
0010
0100
0001
1000
0100
1000
0100
0010
0001
1000
0001
0010
0100
0010
0001
,
0110
1000
0010
1000
0100
0001
1010
0100
,
0001
1001
1000
0010
0100
0001
0010
0101
,
1000
0010
0100
0010
0101
1000
0010
0100
,
0001
0010
0100
1000
0100
0010
0001
0010
,
0001
0100
1000
0100
0010
0001
0010
0100
,
1000
0010
0100
0001
0100
0000
0010
0000
,
1000
0010
0100
0001
1000
0100
0010
0100
0010
0001
0100
0001
0010
0100
1000
0010
,
1000
0000
0000
0000
0010
0000
0000
0010
0000
0100
0001
0000
1000
0000
0100
0010
,
0001
0010
0100
1000
0010
1000
0001
0100
0001
1000
0010
0100
0010
0100
0010
1000
,
0001
0010
0001
0010
0100
1000
0100
1000
0100
0010
0001
1000
0100
0010
0001
0100
,
0001
0010
0100
1000
0100
0010
0001
1000
0100
1000
0100
0010
0001
0010
0001
0100
,
0010
1000
0001
0010
0100
1000
0001
0010
0001
0010
0100
0001
0100
1000
0010
0100
,
0001
0100
0010
1000
0010
1000
0100
0010
0001
0010
0100
1000
0100
1000
0100
1000
,
0001
0010
0100
1000
0010
0100
0010
0100
0001
0100
0010
1000
0001
0100
0001
0100
,
0001
1000
0010
0100
0001
0100
0010
1000
0100
0010
0001
1000
0010
0100
0001
0100
,
0010
1000
0100
0010
0001
0100
0010
1000
0001
0100
0010
1000
0001
0100
0010
1000
,
0010
0000
0000
0000
;
