#TITLE:Winter;
#SUBTITLE:(Full Version);
#ARTIST:Banya;
#TITLETRANSLIT:;
#SUBTITLETRANSLIT:;
#ARTISTTRANSLIT:;
#CREDIT:;
#BANNER:winter-bn.png;
#BACKGROUND:winter.png;
#LYRICSPATH:;
#CDTITLE:;
#MUSIC:banya_winter_full_version.mp3;
#OFFSET:-0.293;
#SAMPLESTART:104.570;
#SAMPLELENGTH:12.000;
#SELECTABLE:YES;
#BPMS:0.000=168.000;
#STOPS:;
#BGCHANGES:;
// cache tags:
#FIRSTBEAT:0.000;
#LASTBEAT:499.000;
#SONGFILENAME:Songs/IzzySM Keyboard Mega Pack/Winter/winter.sm;
#HASMUSIC:1;
#HASBANNER:1;
#MUSICLENGTH:179.887;
// end cache tags

//---------------dance-single - ----------------
#NOTES:
     dance-single:
     :
     Hard:
     10:
     1.000,1.000,0.489,0.289,1.000,1226.000,88.000,52.000,0.000,0.000:  // measure 1
2000
3000
0020
0030
,  // measure 2
1000
0100
0010
0001
0010
0100
1000
0100
0010
0001
0010
1000
0100
0010
0001
0000
,  // measure 3
1001
0000
0000
0000
0000
0000
0000
0000
0001
0000
0010
0100
1000
0000
1000
0100
,  // measure 4
0010
0001
1000
0100
1000
0100
1000
0100
1000
0100
1000
0100
1000
0000
0000
1000
,  // measure 5
0100
0010
1000
0100
0010
0001
0100
0010
1000
0100
0010
0001
0100
0010
0100
0010
,  // measure 6
1001
1001
1001
1001
,  // measure 7
1001
1001
1001
1001
,  // measure 8
1001
0000
2000
3200
0300
0000
0020
0032
0023
0032
0003
0000
0000
0000
1000
0100
,  // measure 9
1000
0100
0010
0001
0010
0001
0010
0100
1000
0100
0010
0001
0010
0100
0010
0100
,  // measure 10
0010
2000
3001
2000
3001
2000
3001
2000
3001
2000
3001
2000
3001
2000
3001
1000
,  // measure 11
1001
1001
1001
1001
,  // measure 12
1001
0000
1001
0100
1000
0100
0001
1000
,  // measure 13
2002
0000
0000
3003
0000
0000
2002
0000
0000
3003
0000
0000
0000
0000
2000
3100
,  // measure 14
0010
0001
1000
0100
0010
0001
1000
0001
1000
0001
1000
0001
1000
0001
1000
0001
,  // measure 15
0010
0010
0100
0100
1000
1000
0001
0001
1000
1000
0100
0010
0001
1000
0100
0010
,  // measure 16
0002
0000
0000
0000
0000
0003
0000
0000
,  // measure 17
0110
1001
0011
1100
,  // measure 18
1001
0110
0110
1001
,  // measure 19
0110
0110
0011
1100
,  // measure 20
0011
1100
0101
1010
,  // measure 21
0011
0011
0011
1100
,  // measure 22
1001
0101
1010
1001
,  // measure 23
0110
0110
0110
0110
,  // measure 24
0110
1000
0001
1000
0001
1000
0100
0010
0001
0010
0100
1000
0100
0010
0001
0000
,  // measure 25
1000
1001
0001
0110
,  // measure 26
0110
0010
0100
0010
0100
0010
0100
0010
0100
0010
0100
1000
0100
0010
0001
0000
,  // measure 27
0001
0001
1000
1000
,  // measure 28
1000
0100
1000
0100
0001
0010
0100
1000
0100
1000
0100
1000
0100
1000
0100
1000
,  // measure 29
1001
1001
0110
0110
,  // measure 30
0100
0010
0100
0010
0100
0001
1000
0001
1000
0001
1000
0100
1000
0100
1000
0000
,  // measure 31
1001
0110
0011
1100
,  // measure 32
1000
0100
0010
0001
1000
0100
0010
0001
0001
1000
0001
1000
0100
0010
0100
0010
,  // measure 33
1000
0100
0010
0001
0001
0010
0100
1000
0100
0010
0001
0100
0010
1000
0100
0010
,  // measure 34
1000
0100
0000
0000
1000
0100
0010
0001
1000
0001
1000
0001
1000
0001
1000
0001
,  // measure 35
1000
0001
1000
0001
1000
0001
1000
0001
1000
0001
1000
0001
1000
0001
1000
0100
,  // measure 36
0010
0001
0010
0001
0010
0100
1000
0100
1000
0100
0010
0001
0010
0001
0010
0100
,  // measure 37
1000
0000
0000
0000
1000
0100
0010
0100
0001
0010
0100
0010
1000
0100
0010
1000
,  // measure 38
0100
0010
0001
1000
0100
0010
0001
1000
0100
0010
0001
1000
0100
0010
0001
0001
,  // measure 39
0010
0100
1000
0001
0010
0100
1000
0001
0010
0100
1000
0100
0010
0001
0010
0100
,  // measure 40
1000
0000
0000
0000
0100
1000
0100
1000
0010
0100
0010
0100
0001
0010
0001
0010
,  // measure 41
1000
0100
0010
0001
0010
0100
1000
0100
0010
0001
0010
0100
1000
0100
0010
0001
,  // measure 42
1000
0100
0010
0001
0010
0001
0010
0001
0010
0100
1000
0100
1000
0100
1000
0100
,  // measure 43
1001
0001
1000
0001
1000
0001
1000
0001
1000
0001
1000
0100
0010
0001
1000
0100
,  // measure 44
0010
0001
0010
0100
1000
0100
0010
0001
0100
0010
0001
1000
0100
0010
0001
1000
,  // measure 45
0100
0010
0001
1000
0100
0010
0001
0010
0100
1000
0100
0010
0001
0010
0100
1000
,  // measure 46
0200
0000
0000
0000
0000
0000
0000
0000
0000
0000
0000
0000
0300
0000
0000
0100
,  // measure 47
1000
0001
0010
0100
1000
0100
0010
0001
1000
0100
0010
0001
0010
0100
1000
0000
,  // measure 48
0010
0010
1000
0100
0010
0001
0010
0100
1000
0100
0010
0001
0010
0100
1000
0010
,  // measure 49
2002
0000
0000
0000
0000
0000
0000
3003
,  // measure 50
0010
0100
1000
0001
0010
0100
1000
1000
0001
1000
0001
1000
0001
1000
1000
1000
,  // measure 51
2000
0000
0000
0000
0000
0000
0000
3000
,  // measure 52
0100
0010
0001
1000
0100
0010
0001
1000
0100
0010
0001
1000
0100
0010
0001
1000
,  // measure 53
0100
1000
0001
0000
1000
0001
0000
1000
0001
0000
1000
0001
0000
1000
0001
0000
,  // measure 54
1000
0001
1000
0001
1000
0001
1000
0001
1000
0001
1000
0001
1000
0001
1000
0000
,  // measure 55
0001
0010
0001
0010
0001
0010
0001
0010
0001
0010
0001
0010
0001
0010
0001
0000
,  // measure 56
0001
0010
0100
1000
0100
0010
0001
0010
0100
1000
0100
0010
0001
1000
0100
0010
,  // measure 57
0202
0303
0000
0000
0000
0000
0000
0000
,  // measure 58
1001
1000
0010
0100
0001
1000
0100
0010
,  // measure 59
0100
0001
1000
0100
0010
0001
1000
0100
,  // measure 60
0010
1000
0100
0001
0010
1000
0100
0001
,  // measure 61
1000
0001
1000
0001
1000
0010
0101
0010
,  // measure 62
0100
0001
1000
0100
0010
0001
1000
0001
,  // measure 63
0100
0010
1000
0001
0100
0010
1000
0100
,  // measure 64
0001
0010
0001
1000
0100
0001
1000
0100
,  // measure 65
0001
1000
0001
1000
0010
0100
0001
0100
,  // measure 66
0002
0000
0000
0000
0003
0010
0100
2000
,  // measure 67
0000
0000
0000
3000
0020
0230
0302
2003
,  // measure 68
0000
0000
0000
3000
0200
0320
2030
3002
,  // measure 69
0000
0000
0000
0003
0020
0230
0320
0230
,  // measure 70
0000
0000
0000
0000
0000
0000
0000
0000
0300
0000
0000
0000
2000
0000
3200
0300
,  // measure 71
1000
0100
0010
0001
1000
0100
0010
0001
0100
0010
0001
1000
0100
0010
0001
2000
,  // measure 72
0000
0000
0000
0000
0000
0000
0000
0000
0000
0000
0000
0000
0000
0000
0000
3000
,  // measure 73
2000
0000
0000
0000
0000
3000
0000
0000
,  // measure 74
1001
0010
0100
1000
0010
0100
1000
0010
,  // measure 75
1000
1000
0010
0001
1000
0001
0010
0001
,  // measure 76
1000
0010
0010
0001
0010
0001
1000
0100
,  // measure 77
0010
0100
0010
0100
0010
0100
0010
0100
,  // measure 78
0010
1000
0100
0001
0010
0100
0010
0010
,  // measure 79
0100
1000
0001
0001
1000
1000
0001
1000
,  // measure 80
0001
0001
1000
1000
1000
1000
1000
1000
,  // measure 81
1000
0010
0100
0000
0100
0000
0100
0000
0100
0000
0100
0000
0100
0000
0100
0000
,  // measure 82
0100
0010
0001
0000
0001
0000
0001
0000
0001
0000
0001
0000
0001
0000
0001
0000
,  // measure 83
0001
0010
0100
0000
0100
0000
0100
0000
0100
0000
0100
0000
0100
0000
0100
0000
,  // measure 84
0100
0010
0001
1000
0100
0001
0010
1100
,  // measure 85
0011
1100
0110
1001
0110
1010
0101
0110
,  // measure 86
1000
0100
0010
0001
1000
0100
0010
0001
,  // measure 87
0001
0010
0100
1000
1000
0100
0010
0001
,  // measure 88
1000
0001
1000
0001
1000
0010
0100
0001
,  // measure 89
1000
0000
0010
0000
0100
0000
0001
0000
1000
0000
0100
0000
0100
0001
0100
1000
,  // measure 90
0100
1000
0100
0010
0001
0010
0100
1000
0100
0010
0001
1000
0100
0010
0001
0000
,  // measure 91
1001
0110
1001
0110
,  // measure 92
0110
1000
0100
0010
0001
1000
0100
0010
0001
0010
0100
0100
0010
0001
0001
0010
,  // measure 93
0001
1000
1010
0101
,  // measure 94
1001
0010
0100
0010
0001
0001
1000
1000
0100
0100
0010
0001
1000
0100
0010
0001
,  // measure 95
1001
0011
1100
0110
,  // measure 96
0101
0001
0001
0010
0010
0001
0001
0010
0001
0010
0010
0001
0010
0001
0010
0001
,  // measure 97
0010
0010
0100
0100
,  // measure 98
1000
0100
0010
0001
1000
0100
0010
0001
0010
0100
0010
0100
1000
0100
0010
0100
,  // measure 99
0010
0001
0010
0001
0010
0100
1000
0100
0010
0001
1000
0001
1000
0100
0010
0100
,  // measure 100
0010
0000
0000
0000
1000
0100
0010
0001
0001
0010
0100
1000
1000
0100
0010
0001
,  // measure 101
0010
1000
0100
0010
0001
0100
0010
0001
0100
0010
0001
0010
0100
1000
0010
0100
,  // measure 102
1000
0010
0100
1000
0001
0010
0100
1000
0010
0100
0010
0001
0010
0100
0100
0100
,  // measure 103
0010
0000
0000
0000
0001
0010
0001
0010
1000
0100
1000
0100
0010
0001
0010
0001
,  // measure 104
0100
1000
0100
1000
0100
1000
0100
1000
0100
1000
0100
1000
0100
1000
0100
1000
,  // measure 105
0100
0001
0010
0100
1000
0100
0001
0010
0100
1000
0100
1000
0100
0010
0001
0010
,  // measure 106
1000
0000
0000
0000
0001
1000
0001
1000
0001
1000
0001
1000
0001
1000
0001
1000
,  // measure 107
0100
0010
1000
0100
1000
0010
0001
0010
0001
1000
0100
0010
0001
0010
0100
1000
,  // measure 108
0100
1000
0100
0010
0001
1000
0100
0010
0001
1000
0100
0010
0001
1000
0100
0010
,  // measure 109
0001
1000
0001
1000
0100
0010
0001
1000
0100
0010
0001
0010
0100
0010
0100
0010
,  // measure 110
0100
1000
0100
1000
0100
0010
0001
1000
0001
1000
0001
1000
0001
1000
0001
1000
,  // measure 111
0001
1000
0001
1000
0001
1000
0010
0100
0010
0100
1000
0100
0010
0001
1000
0100
,  // measure 112
0020
0000
0000
0000
0000
0000
0000
0030
,  // measure 113
0010
0010
0010
0100
0010
0001
0100
0010
0001
0100
0010
0001
0100
0010
0001
0100
,  // measure 114
0010
1000
0001
1000
0001
1000
0001
1000
0001
1000
0001
1000
0001
1000
0001
1000
,  // measure 115
0002
0000
0000
0000
0000
0000
0000
0003
,  // measure 116
1000
0100
0010
0001
1000
0100
0010
0001
1000
0100
0010
0001
1000
0100
0010
0001
,  // measure 117
2000
0000
0000
0000
0000
0000
0000
3000
,  // measure 118
0100
0001
1000
0001
1000
0100
0010
0001
1000
0100
0010
0001
0010
0001
0010
1000
,  // measure 119
0200
0000
0000
0000
0000
0000
0000
0300
,  // measure 120
0010
0001
0100
0010
0001
0010
0001
0100
0010
0100
0010
1000
0001
1000
0001
0010
,  // measure 121
0200
0000
0000
0000
0000
0000
0000
0300
,  // measure 122
1000
0100
0010
0001
1000
0100
0010
0001
1000
0100
0010
0001
1000
0100
0010
0001
,  // measure 123
1001
0220
0000
0000
0000
0000
0000
0000
,  // measure 124
0000
0000
0000
0000
,  // measure 125
0000
0000
0000
0330
;
