#TITLE:Fantazindy [SHD] LvL 199;
#SUBTITLE:;
#ARTIST:Ryo;
#TITLETRANSLIT:;
#SUBTITLETRANSLIT:;
#ARTISTTRANSLIT:;
#CREDIT:;
#BANNER:fantazindy-bn.png;
#BACKGROUND:fantazindy-bg.png;
#LYRICSPATH:;
#CDTITLE:;
#MUSIC:Fantazindy.mp3;
#OFFSET:-0.040;
#SAMPLESTART:100.000;
#SAMPLELENGTH:12.000;
#SELECTABLE:YES;
#BPMS:0.000=122.100,3.000=150.000,4.000=122.100,35.000=70.000,35.667=284.521,36.000=123.000,99.667=84.160,100.000=245.001,160.000=492.197,168.000=270.000,200.000=292.380,216.000=584.995,240.000=1336.985,260.000=999.989,260.333=899.990,260.667=799.992,261.000=599.995,261.333=499.996,261.667=449.996,262.000=399.997,262.333=349.997,262.667=299.998,263.000=199.998,263.333=99.998,263.667=49.998,264.000=23.278,265.000=174.818,276.000=318.997,396.000=637.992,399.000=159.997,400.000=79.997,401.000=640.012,657.000=615.172,657.333=595.972,657.667=573.573,658.000=552.773,658.333=531.973,658.667=511.974,659.000=491.974,659.333=471.174,659.667=450.374,660.000=428.775,660.333=387.975,660.667=347.176,661.000=305.577,661.333=265.577,661.667=224.777,662.000=183.177,662.333=143.177,662.667=101.577,663.000=59.997,670.000=49.997,670.125=39.997,670.250=29.997,670.375=19.997,670.500=9.997,670.667=999.986;
#STOPS:399.000=0.100
,670.500=0.000
,672.000=0.200
;
#BGCHANGES:;
// cache tags:
#FIRSTBEAT:3.438;
#LASTBEAT:672.063;
#SONGFILENAME:Songs/new cedric/Fantazindy  [SHD] LvL 199/fantazindyv3.sm;
#HASMUSIC:1;
#HASBANNER:1;
#MUSICLENGTH:152.502;
// end cache tags

//---------------dance-single - Copied from----------------
#NOTES:
     dance-single:
     Copied from:
     Challenge:
     199:
     1.000,1.000,1.000,1.000,1.000,2778.000,1475.000,836.000,36.000,1707.000:
0000
0000
0000
0000
0000
0000
0000
0000
0000
0000
0000
0000
0000
0000
0000
0000
0000
0000
0000
0000
0000
0000
0000
0000
0000
0000
0000
0000
0000
0000
0000
0000
0000
0000
0000
0000
0000
0000
0000
0000
0000
0000
0000
0000
0000
0000
0000
0000
0000
0000
0000
0000
0000
0000
0000
0100
0100
0010
0010
0100
0100
0010
0010
0000
,
2002
0000
0000
0000
0000
0000
0000
0000
0000
0000
0000
0000
0000
0000
0000
0000
0000
0000
0000
0000
0000
0000
0000
0000
0000
0000
0000
0000
0000
0000
0000
0000
0000
0000
0000
0000
0000
0000
0000
0000
0000
0000
0000
0000
0000
0000
0000
0000
0100
0000
0000
0000
0000
0000
0000
0000
0000
0000
0000
0000
0000
0000
0000
0000
0010
0000
0000
0000
0000
0000
0000
0000
0000
0000
0000
0000
0000
0000
0000
0000
0100
0000
0000
0000
0000
0000
0000
0000
0000
0000
0000
0000
0000
0000
0000
0000
0010
0000
0000
0000
0000
0000
0000
0000
0000
0000
0000
0000
0000
0000
0000
0000
0000
0000
0000
0000
0000
0000
0000
0000
0000
0000
0000
0000
0000
0000
0000
0000
0000
0000
0000
0000
0000
0000
0000
0000
0000
0000
0000
0000
0000
0000
0000
0000
0100
0000
0000
0000
0000
0000
0000
0000
0000
0000
0000
0000
0000
0000
0000
0000
0000
0000
0000
0000
0000
0000
0000
0000
0000
0000
0000
0000
0000
0000
0100
0000
0000
0000
0000
0000
3010
0000
0000
0000
0000
0000
0100
0000
0000
0000
0000
0000
,
2003
0000
0000
0000
0011
0000
0000
0000
0011
0000
0000
0000
0011
0000
0000
0000
0000
0000
0000
0000
0000
0000
0000
0000
3002
0000
0000
0000
1010
0000
0000
0000
1010
0000
0000
0000
2003
0000
0000
0000
0000
0000
0000
0000
0000
0100
0000
0000
,
3021
0000
0000
1001
1001
1001
1001
0000
0000
2131
0000
0010
,
0001
0000
0000
0000
0000
0000
0000
0000
0000
0000
0000
0000
0000
0000
0000
0000
0100
0000
0000
0000
0000
0000
0000
0000
0000
0000
0000
0000
0000
0000
0000
0000
0100
0000
0000
0000
0000
0000
0000
0000
0000
0000
0000
0000
0000
0000
0000
0000
3102
0000
0000
0000
0000
0000
0000
0000
0000
0000
0000
0000
0000
0000
0000
0000
0000
0000
0000
0000
0000
0000
0000
0000
0000
0000
0000
0000
0000
0000
0000
0000
0100
0000
0000
0000
0000
0000
0000
0000
0000
0000
0000
0000
0000
0000
0000
0000
1000
0000
0000
0000
0000
0000
0000
0000
0000
0000
0000
0000
0000
0000
0000
0000
0010
0000
0000
0000
0000
0000
0000
0000
0000
0000
0000
0000
0000
0000
0000
0000
0013
0000
0000
0000
0000
0000
0000
0000
0000
0000
0000
0000
0000
0000
0000
0000
2000
0000
0000
0000
0000
0000
0000
0000
0000
0000
0000
0000
0000
0000
0000
0000
0000
0000
0000
0000
0000
0000
0000
0000
0000
0000
0000
0000
0000
0000
0010
0000
0000
0000
0000
0000
0001
0000
0000
0000
0000
0000
0010
0000
0000
0000
0000
0000
,
3101
0000
1100
0000
0000
0000
0011
0000
1001
0000
0110
1000
0000
0100
0011
0000
,
0101
0000
0000
0000
1100
0000
0010
0000
0000
0000
0010
0000
0101
0000
0000
0000
0110
0000
0000
0000
1001
0000
0100
0000
0000
0000
0010
0000
0110
0001
1000
0001
,
1100
0000
0101
1010
0000
0110
1001
0000
1100
0000
0110
1010
0000
0110
1001
0000
,
0011
0000
0000
0000
0000
0000
0000
0000
0000
0000
0000
0000
0000
0000
0000
0000
0000
0000
0000
0000
0000
0000
0000
0000
0110
0000
0000
0000
0000
0000
0000
0000
0000
0000
0000
0000
1100
0000
0000
0000
0000
0000
0000
0000
0000
0000
0000
0000
0000
0000
0000
0000
0000
0000
0000
0000
0000
0000
0000
0000
0011
0000
0000
0000
0000
0000
0000
0000
0000
0000
0000
0000
1001
0000
0000
0000
0000
0000
0000
0000
0000
0000
0000
0000
0000
0000
0000
0000
0000
0000
0000
0000
0000
0000
0000
0000
0110
0000
0000
0000
0000
0000
0000
0000
0000
0000
0000
0000
0000
0000
0000
0000
1100
0000
0000
0000
0000
0000
0000
0000
0000
0000
0000
0000
0000
0000
0000
0000
0110
0000
0000
0000
0000
0000
0000
0000
0000
0000
0000
0000
0000
0000
0000
0000
1001
0000
0000
0000
0000
0000
00M0
0000
0000
0000
0000
0000
0100
0000
0000
0000
0000
0000
M00M
0000
0010
0000
0000
0000
0MM0
0000
0000
0000
0000
0000
M001
0000
0000
0000
0000
0000
0110
0000
0000
0000
0000
0000
0000
0000
0000
0000
0000
0000
,
1112
0000
0000
0000
0000
0000
0000
0000
0000
0000
0000
0000
0000
0000
0000
0000
0010
0000
0000
0000
0000
0000
0000
0000
0000
0000
0000
0000
0000
0000
0000
0000
0100
0000
0000
0000
0000
0000
0000
0000
0000
0000
0000
0000
0000
0000
0000
0000
0223
0000
0000
0000
0000
0000
0000
0000
0000
0000
0000
0000
0000
0000
0000
0000
0000
0000
0000
0000
0000
0000
0000
0000
0000
0000
0000
0000
0000
0000
0000
0000
0000
0000
0000
0000
0000
0000
0000
0000
0000
0000
0000
0000
0300
0030
0000
0000
0111
0000
0000
0000
0220
0000
0000
0000
0000
0000
0000
0000
0330
0000
0000
0000
1011
0000
0000
0000
0220
0000
0000
0000
0000
0000
0000
0000
0330
0000
0000
0000
1101
0000
0000
0000
0220
0000
0000
0000
0000
0000
0000
0000
0330
0000
0000
0000
1110
0000
0000
0000
0220
0000
0000
0000
0000
0000
0000
0000
0000
0000
0000
0000
0000
0000
0000
0000
0000
0000
0000
0000
0000
0000
0000
0000
0000
0000
0000
0000
0000
0000
0000
0000
0000
0000
0000
0000
0000
0000
0000
0000
0000
0000
0000
0000
,
0332
0000
0000
0003
0111
0002
0000
0003
0111
0002
0000
0000
2023
0000
0000
3030
1110
2020
0000
3030
1110
2020
0000
0030
3012
0000
0000
0000
0110
0110
0000
0000
0110
0110
0000
0000
2103
0000
0000
0000
0000
0000
0010
0000
0000
0000
0000
0000
,
3002
0000
0000
0000
0000
0000
0013
0000
0000
1000
0000
0000
0220
0000
0000
0000
0000
0000
0000
0000
0000
0000
0000
0030
1010
0020
0000
0300
0101
0200
0000
0030
1010
0020
0000
0300
0101
0200
0000
0000
0000
0000
1000
0000
0000
0000
0000
0330
,
1111
0220
0000
0330
0110
0220
0000
0330
1001
0220
0000
0300
0100
0200
0000
0300
0100
0200
0000
0300
0100
0200
0000
0330
2110
0000
0000
3000
1101
2000
0000
3000
1011
2000
0000
0000
3200
0000
0000
0300
1110
0200
0000
0300
1011
0200
0000
0000
,
2312
0000
0000
0000
0000
0000
0000
0000
0000
0000
0000
0003
0001
0002
0000
0000
0010
0000
0000
0000
0100
0000
0000
3000
1023
0000
0000
0000
0000
0000
0000
0000
0000
0000
0000
0000
0230
0000
0000
0000
0000
0000
0000
0000
0000
0000
0000
0000
,
2300
0000
0000
3000
0100
2000
0000
3000
0100
2000
0000
3000
1102
0000
0000
0000
0000
0000
0110
0000
0000
0000
0000
0000
0023
0000
0000
0000
0000
0000
1100
0000
0000
0000
0000
0000
0230
0000
0000
0300
1110
0200
0000
0300
1011
0200
0000
0300
,
1112
0000
0000
0000
0000
0000
0000
0000
0000
0000
0000
1100
1100
0000
0000
1010
1010
0000
0000
1100
1100
0000
0000
1010
1010
0000
0000
0000
0000
0000
0000
0000
0000
0000
0000
0000
0203
0000
0000
0000
0000
0000
0000
0000
0000
0000
0000
0000
,
2300
0000
0000
3101
1010
2000
0000
3101
1010
2000
0000
3101
1010
2000
0000
0000
0000
0000
0000
0000
0000
0000
0000
3000
1100
2011
0000
3000
1100
2011
0000
3000
1100
2011
0000
3000
1010
2101
0000
3000
1010
2101
0000
3000
1010
2101
0000
0000
,
3111
0000
0000
0000
0000
0000
0011
0000
0000
0110
0000
0000
2100
0000
0000
0000
0000
0000
0000
0000
0000
0000
0000
0001
0001
0000
0000
0000
0000
0000
0000
0000
0000
0000
0000
0001
3021
0000
0000
0000
0000
0000
0000
0000
0000
0000
0000
1000
,
1000
0000
0000
0000
0000
0000
0000
0000
0000
0000
0000
0000
0100
1000
0000
0000
0100
0001
0000
0000
0100
1000
0000
0100
2031
0000
0000
0000
0000
0000
0000
0000
0000
0000
0000
0010
3102
0000
0000
0000
0000
0000
0000
0000
0000
0000
0000
1000
,
1003
0000
0000
0000
0000
0000
0010
0010
0000
1000
1000
0000
0020
0000
0000
0030
0110
1021
0000
0030
0110
1021
0000
0030
0110
1021
0000
0000
0000
0000
0000
0000
0000
0000
0000
0000
2030
0000
0000
0000
0000
0000
0000
0000
0000
0000
0000
0000
,
0010
0011
0000
0000
0010
0110
0000
0000
0010
0011
0000
0000
0010
0110
0000
0000
0000
0000
0000
0000
0000
0000
0000
0000
3200
0000
0000
0300
1101
0200
0000
0300
0111
0200
0000
0000
2300
0000
0000
3000
1110
2000
0000
0000
0111
0000
0000
0000
,
3220
0000
0000
0000
0000
0000
0000
0000
0000
0000
0000
0000
0000
0000
0000
0000
0000
0000
0000
0000
0000
0000
0000
0000
0000
0000
0000
0000
0300
0000
0100
0000
0200
0000
0000
0000
0000
0000
0000
0000
0001
0000
0000
0000
0000
0000
0000
0000
1000
0000
0000
0000
0000
0000
0000
0000
0000
0000
0000
0000
0000
0000
0000
0000
0000
0000
0000
0000
0000
0000
0000
0000
0000
0000
0000
0000
0000
0000
0000
0000
0000
0000
0000
0000
0000
0000
0000
0000
0000
0000
0000
0000
0000
0000
0000
0000
1331
0000
0000
0000
0000
0000
0000
0000
0000
0000
0000
0000
0000
0000
0000
0000
0000
0000
0000
0000
0000
0000
0000
0000
1120
0000
0000
0000
0000
0000
0000
0000
0000
0000
0000
0000
0000
0000
0000
0000
0000
0000
0000
0000
0000
0000
0000
0000
2131
0000
0000
0000
0000
0000
0000
0000
0000
0000
0000
0000
0000
0000
0000
0000
0000
0000
0000
0000
0000
0000
0000
0000
0000
0000
0000
0000
0000
0000
0000
0000
0000
0000
0000
0000
0000
0000
0000
0000
0000
0000
0000
0000
0000
0000
0000
0000
,
3001
0000
0000
0000
0000
0000
0010
0000
0000
0000
0000
0000
1000
0100
0001
0000
0000
0000
0000
0000
0010
0000
0000
0000
0100
0000
0000
0000
0000
0000
0010
0000
0000
0000
0000
0000
2000
0000
0000
0000
0000
0000
3200
0000
0000
0010
0000
0000
,
1301
0000
0000
0000
0000
0000
1001
0000
0110
0000
1100
0000
0110
0000
0000
0011
0000
0000
1100
0000
0110
0000
1100
0000
,
0011
0000
0000
1100
0000
0000
0110
0000
1100
0000
0110
0000
1001
0000
0000
0110
0000
0000
1000
0000
0001
0000
0000
1111
,
2222
3000
1000
2300
0100
0230
0010
0023
0001
0032
0010
0320
0100
3200
1000
2300
,
0100
0230
0010
0023
0001
0032
0010
0320
0100
3200
1000
2300
0100
0230
0010
0023
,
0001
0032
0010
0320
0100
3200
1000
2300
0100
0230
0010
0023
0001
0032
0010
0320
,
0100
3200
1000
2300
0100
0230
0010
0023
0001
0032
0010
0320
0100
3200
1000
2300
,
0100
0230
0010
0023
0001
0032
0010
0320
0100
3200
1000
2300
0100
0230
0010
0023
,
0001
0032
0010
0320
0100
3200
1000
2300
0100
0230
0010
0023
0001
0032
0010
0320
,
0100
3200
1000
2300
0100
0230
0010
0023
0001
0032
0010
0320
0100
3200
1000
2300
,
0100
0230
0010
0023
0001
0032
0010
0320
0100
3200
1000
2300
0100
0230
0010
0023
,
0001
0032
0010
0320
0100
3200
1000
2300
0100
0230
0010
0023
0001
0032
0010
0320
,
0100
3200
1000
2300
0100
0230
0010
0023
0001
0032
0010
0320
0100
3200
1000
2300
,
0100
0230
0010
0023
0001
0032
0010
0320
0100
3200
1000
2300
0100
0230
0010
0023
,
0001
0032
0010
0320
0100
3200
1000
2300
0100
0230
0010
0023
0001
0032
0010
3313
,
1122
0000
0000
0000
0000
0000
0000
0000
0000
0000
0000
0000
1100
0000
0000
0000
0000
0000
0000
0000
0033
0000
0000
0000
2211
0000
0000
0000
0000
0000
0000
0000
0000
0000
0000
0000
0011
0000
0000
0000
0000
0000
3322
0000
0000
0000
0000
0000
1100
0000
0000
0000
0000
0000
0000
0000
0000
0000
0000
0000
1100
0000
0000
0000
0000
0000
2233
0000
0000
0000
0000
0000
0011
0000
0000
0000
0000
0000
0000
0000
0000
0000
0000
0000
0011
0000
0000
0000
0000
0000
3322
0000
0000
0000
0000
0000
1100
0000
0000
0000
0000
0000
0000
0000
0000
0000
0000
0000
1100
0000
0000
0000
0000
0000
2233
0000
0000
0000
0000
0000
0011
0000
0000
0000
0000
0000
0000
0000
0000
0000
0000
0000
0011
0000
0000
0000
0000
0000
3322
0000
0000
0000
0000
0000
1100
0000
0000
0000
0000
0000
0000
0000
0000
0000
0000
0000
1100
0000
0000
0000
0000
0000
2233
0000
0000
0000
0000
0000
0011
0000
0000
0000
0000
0000
0000
0000
0000
0000
0000
0000
0011
0000
0000
0000
0000
0000
3322
0000
0000
0000
0000
0000
,
1100
0000
1100
2233
0011
0000
0011
3322
1100
0000
1100
2233
0011
0000
0011
3322
1100
0000
1100
2233
0011
0000
0011
3322
1100
0000
1100
2233
0011
0000
0011
3322
,
1100
0000
1100
2233
0011
0000
0011
3322
1100
0000
1100
2233
0011
0000
0011
3322
1100
0000
1100
2233
0011
0000
0011
3322
1100
0000
1100
2233
0011
0000
0011
3322
,
1133
0000
0000
0000
0000
0000
2222
0000
0000
0000
0000
0000
3000
0000
0000
0000
0000
0000
0300
0000
0000
0000
0000
0000
1030
0000
0000
0000
0100
0000
0003
0000
0010
0000
0000
0000
0100
0000
0000
0000
1000
0000
0000
0000
0001
0000
0000
0000
0010
0000
0000
0000
0100
0000
0000
0000
0010
0000
0000
0000
0001
0000
0000
0000
1000
0000
0000
0000
0100
0000
0000
0000
0010
0000
0000
0000
0100
0000
0000
0000
1000
0000
0000
0000
0001
0000
0000
0000
0010
0000
0000
0000
0100
0000
0000
0000
0010
0000
0000
0000
0001
0000
0000
0000
1000
0000
0000
0000
0100
0000
0000
0000
0010
0000
0000
0000
0100
0000
0000
0000
1000
0000
0000
0000
0001
0000
0000
0000
0010
0000
0000
0000
0100
0000
0000
0000
0010
0000
0000
0000
0001
0000
0000
0000
1000
0000
0000
0000
0100
0000
0000
0000
0010
0000
0000
0000
0100
0000
0000
0000
1000
0000
0000
0000
0001
0000
0000
0000
0010
0000
0000
0000
0100
0000
0000
0000
0010
0000
0000
0000
0001
0000
0000
0000
1000
0000
0000
0000
0100
0000
0000
0000
,
0010
0100
1000
0001
0010
0100
0010
0001
1000
0100
0010
0100
1000
0001
0010
0100
0010
0001
1000
0100
0010
0100
1000
0001
0010
0100
0010
0001
1000
0100
0010
0100
1000
0001
0010
0100
0010
0001
1000
0100
0010
0100
1000
0001
0010
0100
0010
0001
,
1122
1100
1100
1100
1100
1100
1100
1100
,
2233
0000
0011
0000
0000
0000
0011
0000
0000
0000
0011
0000
0000
0000
0011
0000
0000
0000
0011
0000
0000
0000
0011
0000
0000
0000
0011
0000
0000
0000
0011
0300
,
3220
0000
0000
1001
0000
0000
0000
1001
0000
0000
0000
1001
0000
0000
0000
1001
0000
0000
0000
1001
0000
0000
0000
1001
0000
0000
0000
1001
0000
0000
0000
1001
,
2332
0000
0000
0000
0000
0000
0000
0110
0000
0000
0000
0000
0000
0000
0000
0110
0000
0000
0000
0000
0000
0000
0000
0110
0000
0000
0000
0000
0000
0000
0000
0110
0000
0000
0000
0000
0000
0000
0000
0110
0000
0000
0000
0000
0000
0000
0000
0110
0000
0000
0000
0000
0000
0000
0000
0110
0000
0000
0000
0000
0000
0000
3000
0110
,
2023
0000
0000
0000
0000
0000
0101
0000
0000
0000
0000
0000
0101
0000
0000
0000
0000
0000
0101
0000
0000
0000
0000
3000
1101
1000
1000
1000
1000
1000
1101
1000
1000
1000
1000
1000
2101
0000
0000
0000
0000
0000
0101
0000
0000
0000
0000
0000
,
3232
0000
0000
1010
0000
0000
0000
0000
0000
1010
0000
0000
0000
0000
0000
1010
0000
0000
0000
0000
0000
1010
0000
0000
0003
0001
0001
1011
0001
0001
0001
0001
0001
1011
0001
0001
0001
0001
0001
1011
0001
0001
0001
0001
0001
1011
0001
0001
,
2312
0000
0000
0000
0000
0000
0000
0000
0000
0000
0000
0000
0000
0000
0000
0000
0000
0000
0110
0000
0000
0000
0000
0000
0000
0000
0000
0000
0000
0000
0000
0000
0000
0000
0000
0000
0000
0000
0000
0000
0000
0000
0110
0000
0000
0000
0000
0000
0000
0000
0000
0000
0000
0000
0000
0000
0000
0000
0000
0000
0000
0000
0000
0000
0000
0000
0110
0000
0000
0000
0000
0000
0000
0000
0000
0000
0000
0000
0000
0000
0000
0000
0000
0000
0000
0000
0000
0000
0000
0000
0110
0000
0000
0000
0000
0000
0110
0000
0000
0000
0110
0000
0000
0000
0110
0000
0000
0000
0110
0000
0000
0000
0000
0000
0110
0000
0000
0000
0000
0000
0110
0000
0000
0000
0110
0000
0000
0000
0110
0000
0000
0000
0110
0000
0000
0000
0000
0000
0110
0000
0000
0000
0000
0000
0000
0000
0000
0000
0000
0000
0000
0000
0000
0000
0000
0000
0000
0000
0000
0000
0000
0000
0110
0000
0000
0000
0000
0000
0000
0000
0000
0000
0000
0000
0000
0000
0000
0000
0000
0000
0000
0000
0000
0000
0000
0000
0110
0000
0000
0000
0000
0000
,
3223
0000
0000
0000
0000
0000
0000
0000
0000
0000
0000
0000
0000
0000
0000
0000
0000
0000
0000
0000
0000
1001
0000
0000
0000
0000
0000
0000
0000
0000
0000
0000
0000
0000
0000
0000
0000
0000
0000
0000
0000
0000
0000
0000
0000
1001
0000
0000
0000
0000
0000
0000
0000
0000
0000
0000
0000
0000
0000
0000
0000
0000
0000
0000
0000
0000
0000
0000
0000
1001
0000
0000
0000
0000
0000
0000
0000
0000
0000
0000
0000
0000
0000
0000
0000
0000
0000
0000
0000
0000
0000
0000
0030
1001
0000
0000
0010
0000
0000
0000
0010
0000
0000
0000
0010
0000
0000
0000
0010
0000
0000
0000
0010
0000
0000
0000
0310
1001
0000
0000
0120
0000
0000
0000
0100
0000
0000
0000
0100
0000
0000
0000
0100
0000
0000
0000
0100
0000
0000
0000
0100
1001
0000
0000
0200
0000
0000
0000
0000
0000
0000
0000
0000
0000
0000
0000
0000
0000
0000
0000
0000
0000
0000
0000
0000
1001
0000
0000
0000
0000
0000
0000
0000
0000
0000
0000
0000
0000
0000
0000
0000
0000
0000
0000
0000
0000
0000
0000
0000
1001
0000
0000
,
1331
2000
3002
2023
3232
2303
3220
0332
,
2023
3230
2302
3023
2230
3320
0232
2303
,
3222
1330
2223
3031
2012
3323
2232
3013
,
2322
3103
2232
0313
3122
0233
2320
3230
,
2320
3230
2302
3023
0232
2303
3220
0332
,
2023
3230
2302
3023
2230
3322
2033
3220
,
2332
3023
2230
3322
2033
3202
2323
3230
,
2320
3032
0223
2330
3202
0323
2032
3203
,
0321
2030
3200
0302
0213
0320
2130
3002
0213
0320
2030
3200
1302
0023
0230
0302
,
0203
2300
3002
0023
2130
3200
0302
2003
3201
2310
3002
0023
1032
0203
2300
3020
,
1031
0000
0000
1111
1111
0000
1111
0000
1111
1111
0000
0000
1111
0000
0000
1111
1111
0000
1111
0000
1111
1111
0000
0000
1111
0000
0000
1111
1111
0000
1111
0000
1111
1111
0000
0000
1111
0000
0000
1111
1111
0000
1111
0000
1111
1111
0000
0000
1111
0000
0000
1111
0000
0000
1111
0000
1111
1111
0000
0000
1111
0000
0000
1111
1111
0000
1111
0000
1111
1111
0000
0000
1111
0000
0000
1111
1111
0000
1111
0000
1111
1111
0000
0000
1111
0000
0000
1111
1111
0000
1111
0000
1111
1111
0000
0000
1111
0000
0000
1111
1111
0000
1111
0000
1111
1111
0000
0000
1111
0000
0000
1111
1111
0000
1111
0000
1111
1111
0000
0000
1111
0000
0000
1111
1111
0000
1111
0000
1111
1111
0000
0000
1111
0000
0000
1111
1111
0000
1111
0000
1111
1111
0000
0000
1111
0000
0000
1111
1111
0000
1111
0000
1111
1111
0000
0000
1111
0000
0000
1111
1111
0000
1111
0000
1111
1111
0000
0000
1111
0000
0000
1111
1111
0000
1111
0000
1111
1111
0000
0000
1111
0000
0000
1111
1111
0000
1111
0000
1111
1111
0000
0000
,
1111
0000
0000
1111
1111
0000
1111
0000
1111
1111
0000
0000
1111
0000
0000
1111
1111
0000
1111
0000
1111
1111
0000
0000
1111
0000
0000
1111
1111
0000
1111
0000
1111
1111
0000
0000
1111
0000
0000
1111
1111
0000
1111
0000
1111
1111
0000
0000
1111
0000
0000
1111
1111
0000
1111
0000
1111
1111
0000
0000
1111
0000
0000
1111
1111
0000
1111
0000
1111
1111
0000
0000
1111
0000
0000
1111
1111
0000
1111
0000
1111
1111
0000
0000
1111
0000
0000
1111
1111
0000
1111
0000
1111
1111
0000
0000
1111
0000
0000
1111
1111
0000
1111
0000
1111
1111
0000
0000
1111
0000
0000
1111
1111
0000
1111
0000
1111
1111
0000
0000
1111
0000
0000
1111
1111
0000
1111
0000
1111
1111
0000
0000
1111
0000
0000
1111
1111
0000
1111
0000
1111
1111
0000
0000
1111
0000
0000
1111
1111
0000
1111
0000
1111
1111
0000
0000
1111
0000
0000
1111
1111
0000
1111
0000
1111
1111
0000
0000
1111
0000
0000
1111
1111
0000
1111
0000
1111
1111
0000
0000
1111
0000
0000
1111
1111
0000
1111
0000
1111
1111
0000
0000
,
1111
0000
0000
1111
1111
0000
1111
0000
1111
1111
0000
0000
1111
0000
0000
1111
1111
0000
1111
0000
1111
1111
0000
0000
1111
0000
0000
1111
1111
0000
1111
0000
1111
1111
0000
0000
1111
0000
0000
1111
1111
0000
1111
0000
1111
1111
0000
0000
1111
0000
0000
1111
1111
0000
1111
0000
1111
1111
0000
0000
1111
0000
0000
1111
1111
0000
1111
0000
1111
1111
0000
0000
1111
0000
0000
1111
1111
0000
1111
0000
1111
1111
0000
0000
1111
0000
0000
1111
1111
0000
1111
0000
1111
1111
0000
0000
1111
0000
0000
1111
1111
0000
1111
0000
1111
1111
0000
0000
1111
0000
0000
1111
1111
0000
1111
0000
1111
1111
0000
0000
1111
0000
0000
1111
1111
0000
1111
0000
1111
1111
0000
0000
1111
0000
0000
1111
1111
0000
1111
0000
1111
1111
0000
0000
1111
0000
0000
1111
1111
0000
1111
0000
1111
1111
0000
0000
1111
0000
0000
1111
1111
0000
1111
0000
1111
1111
0000
0000
1111
0000
0000
1111
1111
0000
1111
0000
1111
1111
0000
0000
1111
0000
0000
1111
1111
0000
1111
0000
1111
1111
0000
0000
,
1111
0000
0000
1111
1111
0000
1111
0000
1111
1111
0000
0000
1111
0000
0000
1111
1111
0000
1111
0000
1111
1111
0000
0000
1111
0000
0000
1111
1111
0000
1111
0000
1111
1111
0000
0000
1111
0000
0000
1111
1111
0000
1111
0000
1111
1111
0000
0000
1111
0000
0000
1111
1111
0000
1111
0000
1111
1111
0000
0000
1111
0000
0000
1111
1111
0000
1111
0000
1111
1111
0000
0000
1111
0000
0000
1111
1111
0000
1111
0000
1111
1111
0000
0000
1111
0000
0000
1111
1111
0000
1111
0000
1111
1111
0000
0000
1111
0000
0000
1111
1111
0000
1111
0000
1111
1111
0000
0000
1111
0000
0000
1111
1111
0000
1111
0000
1111
1111
0000
0000
1111
0000
0000
1111
1111
0000
1111
0000
1111
1111
0000
0000
1111
0000
0000
1111
1111
0000
1111
0000
1111
1111
0000
0000
1111
0000
0000
1111
1111
0000
1111
0000
1111
1111
0000
0000
1111
0000
0000
1111
1111
0000
1111
0000
1111
1111
0000
0000
1111
0000
0000
1111
1111
0000
1111
0000
1111
1111
0000
0000
1111
0000
0000
1111
1111
0000
1111
0000
1111
1111
0000
0000
,
1111
0000
0000
1111
1111
0000
1111
0000
1111
1111
0000
0000
1111
0000
0000
1111
1111
0000
1111
0000
1111
1111
0000
0000
1111
0000
0000
1111
1111
0000
1111
0000
1111
1111
0000
0000
1111
0000
0000
1111
1111
0000
1111
0000
1111
1111
0000
0000
1111
0000
0000
1111
1111
0000
1111
0000
1111
1111
0000
0000
1111
0000
0000
1111
1111
0000
1111
0000
1111
1111
0000
0000
1111
0000
0000
1111
1111
0000
1111
0000
1111
1111
0000
0000
1111
0000
0000
1111
1111
0000
1111
0000
1111
1111
0000
0000
1111
0000
0000
1111
1111
0000
1111
0000
1111
1111
0000
0000
1111
0000
0000
1111
1111
0000
1111
0000
1111
1111
0000
0000
1111
0000
0000
1111
1111
0000
1111
0000
1111
1111
0000
0000
1111
0000
0000
1111
1111
0000
1111
0000
1111
1111
0000
0000
1111
0000
0000
1111
1111
0000
1111
0000
1111
1111
0000
0000
1111
0000
0000
1111
1111
0000
1111
0000
1111
1111
0000
0000
1111
0000
0000
1111
1111
0000
1111
0000
1111
1111
0000
0000
1111
0000
0000
1111
1111
0000
1111
0000
1111
1111
0000
0000
,
2002
0000
0000
0000
,
3203
0000
0000
0000
0000
0000
0000
0000
0000
0000
0000
0000
0000
0000
0000
0000
0010
0020
0000
0000
0000
0000
0000
0000
0001
0002
0000
0000
0000
0000
0000
0000
0000
0000
0000
0000
0000
0000
0000
0300
0100
0200
0000
0000
0000
0000
0000
0000
0000
0000
0000
0000
0000
0000
0000
0000
0000
0000
0000
0000
0000
0000
0000
0000
,
2330
0MM0
0MM0
0MM0
0MM0
0MM0
0MM0
0MM0
,
0MM0
0MM0
0MM0
0MM0
0MM0
0MM0
0MM0
0MM0
,
3113
1000
0100
0010
0001
0010
0100
1000
,
0100
0010
0001
0010
0100
1000
0100
0010
,
0011
0110
1100
0110
0011
0110
1100
0110
,
0011
0110
1100
0110
0011
0110
1100
0110
,
0011
1110
1101
1110
1111
0111
1110
1110
,
0101
0111
0111
1101
1011
1110
0001
1010
,
0111
1101
1011
1101
0101
1010
0101
1010
,
0121
1000
0101
0100
1231
0010
1001
1000
,
1301
0010
0100
1000
0100
0010
0001
0010
,
0100
0000
0000
0000
1000
0000
0000
0000
0100
0000
0000
0000
0010
0000
0000
0000
2221
0030
0011
0300
0111
3000
1111
2000
0111
0200
0011
0020
3331
0000
0000
0000
,
1100
0110
0011
0110
1100
1010
0101
1010
,
0101
0000
0000
0000
1010
0000
0000
0000
0101
0000
0000
0000
1010
0000
0000
0000
1222
0300
1100
0030
1110
0003
1111
0002
1110
0020
1100
0200
1333
0000
0000
0000
,
1100
0011
1100
0011
1020
0101
1000
0101
,
1000
0101
1031
1010
0101
1010
0111
1110
,
1101
0000
0000
0000
1011
0000
0000
0000
0110
0000
0000
0000
1101
0000
0000
0000
1010
0000
1100
1010
0101
1100
0011
0110
1110
0000
0000
0000
0111
0011
1100
0110
,
1011
1100
0110
0011
1011
0000
1100
0110
0110
0000
0000
0000
1111
0000
0000
0000
2002
0000
0000
0000
0000
0000
0000
0000
0000
0000
0000
0000
0000
0000
0000
0000
,
3113
0010
0010
0010
0010
0010
0010
0010
1111
0100
0100
0100
0100
0100
0100
0100
1111
1000
1000
1000
1000
1000
1000
1000
1111
0100
0100
0100
0100
0100
0100
0100
1111
0010
0010
0010
0010
0010
0010
0010
1111
0001
0001
0001
0001
0001
0001
0001
1111
0010
0010
0010
0010
0010
0010
0010
1111
0100
0100
0100
0100
0100
0100
0100
,
1111
1000
1000
1000
1000
1000
1000
1000
1111
0100
0100
0100
0100
0100
0100
0100
1111
0010
0010
0010
0010
0010
0010
0010
1111
0001
0001
0001
0001
0001
0001
0001
1111
0010
0010
0010
0010
0010
0010
0010
1111
0100
0100
0100
0100
0100
0100
0100
1111
1000
1000
1000
1000
1000
1000
1000
1111
0100
0100
0100
0100
0100
0100
0100
,
1111
0010
0010
0010
0010
0010
0010
0010
1111
0001
0001
0001
0001
0001
0001
0001
1111
0010
0010
0010
0010
0010
0010
0010
1111
0100
0100
0100
0100
0100
0100
0100
1111
1000
1000
1000
1000
1000
1000
1000
1111
0100
0100
0100
0100
0100
0100
0100
1111
0010
0010
0010
0010
0010
0010
0010
1111
0001
0001
0001
0001
0001
0001
0001
,
1111
0010
0010
0010
0010
0010
0010
0010
1111
0100
0100
0100
0100
0100
0100
0100
1111
1000
1000
1000
1000
1000
1000
1000
1111
0100
0100
0100
0100
0100
0100
0100
1111
0010
0010
0010
0010
0010
0010
0010
1111
0001
0001
0001
0001
0001
0001
0001
1111
0010
0010
0010
0010
0010
0010
0010
1111
0100
0100
0100
0100
0100
0100
0100
,
1111
1000
1000
1000
1000
1000
1000
1000
1111
0100
0100
0100
0100
0100
0100
0100
1111
0010
0010
0010
0010
0010
0010
0010
1111
0001
0001
0001
0001
0001
0001
0001
1111
0010
0010
0010
0010
0010
0010
0010
1111
0100
0100
0100
0100
0100
0100
0100
1111
1000
1000
1000
1000
1000
1000
1000
1111
0100
0100
0100
0100
0100
0100
0100
,
1111
0010
0010
0010
0010
0010
0010
0010
1111
0001
0001
0001
0001
0001
0001
0001
1111
0010
0010
0010
0010
0010
0010
0010
1111
0100
0100
0100
0100
0100
0100
0100
1111
1000
1000
1000
1000
1000
1000
1000
1111
0100
0100
0100
0100
0100
0100
0100
1111
0010
0010
0010
0010
0010
0010
0010
1111
0001
0001
0001
0001
0001
0001
0001
,
1111
0010
0010
0010
0010
0010
0010
0010
1111
0100
0100
0100
0100
0100
0100
0100
1111
1000
1000
1000
1000
1000
1000
1000
1111
0100
0100
0100
0100
0100
0100
0100
1111
0010
0010
0010
0010
0010
0010
0010
1111
0001
0001
0001
0001
0001
0001
0001
1111
0010
0010
0010
0010
0010
0010
0010
1111
0100
0100
0100
0100
0100
0100
0100
,
1111
1000
1000
1000
1000
1000
1000
1000
1111
0100
0100
0100
0100
0100
0100
0100
1111
0010
0010
0010
0010
0010
0010
0010
1111
0001
0001
0001
0001
0001
0001
0001
1111
0010
0010
0010
0010
0010
0010
0010
1111
0100
0100
0100
0100
0100
0100
0100
1111
1000
1000
1000
1000
1000
1000
1000
1111
0000
0000
0000
0000
0000
0000
0000
,
0110
0110
0000
0000
0011
0011
0000
0000
0101
0101
0000
0000
1010
1010
0000
0000
0110
0110
0000
0000
1001
1001
0000
0000
1010
1010
0000
0000
0101
0101
0000
0000
,
1010
1010
0000
0000
0000
0000
0000
0000
0011
0011
0000
0000
0110
0110
0000
0000
1100
1100
0000
0000
0011
0011
0000
0000
1001
1001
0000
0000
0110
0110
0000
0000
,
0101
0101
0000
0000
1100
1100
0000
0000
1010
1010
0000
0000
0101
0101
0000
0000
0011
0011
0000
0000
0110
0110
0000
0000
0101
0011
0000
0000
1010
0110
0000
0000
,
0000
0000
0000
0000
1010
0110
0000
0000
1001
0110
0000
0000
1010
0011
0000
0000
0110
1001
0000
0000
0110
1100
0000
0000
0011
0011
0000
0000
0100
0000
0000
0000
,
0001
0001
0001
0001
0010
0010
0010
0010
0100
0100
0100
0100
1000
1000
1000
1000
0100
0100
0100
0100
0010
0010
0010
0010
0001
0001
0001
0001
0010
0010
0010
0010
0100
0100
0100
0100
1000
1000
1000
1000
0100
0100
0100
0100
0010
0010
0010
0010
,
1222
0000
0000
1000
0000
0000
1300
0000
0000
1000
0000
0000
1100
0000
0000
1100
0000
0000
1130
0000
0000
1100
0000
0000
1110
0000
0000
1110
0000
0000
1113
0000
0000
1110
0000
0000
1111
0000
0000
1111
0000
0000
1111
0000
0000
1111
0000
0000
1112
0000
0000
1110
0000
0000
1110
0000
0000
1110
0000
0000
1120
0000
0000
1100
0000
0000
1103
0000
0000
1100
0000
0000
1201
0000
0000
1001
0000
0000
1031
0000
0000
1001
0000
0000
2011
0000
0000
0011
0000
0000
0311
0000
0000
0011
0000
0000
0111
0000
0000
0111
0000
0000
3111
0000
0000
0111
0000
0000
1111
0000
0000
1111
0000
0000
0111
0000
0000
0111
0000
0000
0111
0000
0000
0011
0000
0000
0011
0000
2000
0011
0000
0000
0011
0000
0000
0001
0000
0000
0001
0000
0000
0001
0000
0000
3201
0000
0000
0000
0000
0000
0000
0000
0000
0000
0000
0000
0000
0000
0000
0000
0320
0000
0000
0000
0000
0000
0000
0000
0000
0000
0000
0000
0000
0000
0000
0000
0032
0000
0000
0000
0000
0000
0000
0000
0000
0000
0000
0000
0000
0000
0000
0000
,
1003
0100
0010
1001
,
2002
3223
2331
0000
0200
0320
0032
0203
,
0320
0032
0203
0320
0032
0203
0320
0032
,
0203
0320
0032
0203
0320
0032
0203
0320
,
0032
0203
0320
0032
0203
0320
0032
0203
,
0320
0032
0203
0320
0032
0203
0320
0032
,
0203
0320
0032
0203
0320
0032
0203
0320
,
0032
0023
3230
0000
0010
0000
1000
0000
,
0010
0302
1000
0023
,
0001
0000
0232
0023
2030
3002
0023
2030
,
3002
0023
2030
3002
0023
2030
3002
0023
,
2030
3002
0023
2030
3002
0023
2030
3002
,
0023
2030
3002
0023
2030
3002
0023
2030
,
3002
0023
2030
3002
0023
2030
3002
0023
,
2030
3002
0023
2030
3002
0023
2030
3002
,
0023
2030
3302
0000
0100
0000
1000
0000
,
0100
0023
0001
0230
,
1000
0000
0322
0230
2300
3020
0230
2300
,
3020
0230
2323
3200
0302
2003
3200
0302
,
2003
3002
2233
3020
0032
2003
3020
0032
,
2003
3020
0032
2003
3322
0033
0022
0230
,
2300
3200
2323
3002
0203
2300
3002
0203
,
2300
3200
2332
3200
0320
0230
2300
3200
,
0320
0230
2323
0230
0302
0023
0230
0302
,
0023
0032
3223
0032
2003
3020
0032
2003
,
3020
0032
2323
3200
0302
2003
3200
0302
,
2003
3200
0302
2003
3200
0302
2003
3200
,
0302
2003
3200
0302
2003
3200
0302
2003
,
3200
0302
2003
3200
0302
2003
3200
0302
,
2003
0000
3200
0000
0302
0000
2003
0000
3200
0000
0302
0000
1103
1100
1100
1100
,
1100
1100
1100
1100
1100
1100
1100
1100
1100
1100
1100
1100
1100
1100
1100
1100
,
1101
0000
0000
0000
0101
0000
0000
0000
0101
0000
0000
0000
0101
0000
0000
0000
0101
0000
0000
0000
0101
0000
0000
0000
0101
0000
0000
0000
0101
0000
0000
0000
0101
0000
0000
0000
0101
0000
0000
0000
0101
0000
0000
0000
0101
0000
0000
0030
1111
0020
0000
0030
1111
0020
0000
0030
1111
0020
0000
0030
1111
0020
0000
0030
,
1111
0020
0000
0030
1111
0020
0000
0030
1111
0020
0000
0030
1111
0020
0000
0030
1111
0020
0000
0030
1111
0020
0000
0030
1111
0020
0000
0030
1111
0020
0000
0030
1111
0020
0000
0030
1111
0020
0000
0030
1111
0020
0000
0030
1111
0020
0000
0030
1111
0020
0000
0030
1111
0020
0000
0030
1111
0020
0000
0030
1111
0020
0000
0030
,
1111
0020
0000
0030
1111
0020
0000
0030
1111
0020
0000
0030
1111
0020
0000
0030
2111
0000
0000
0000
0000
0000
0000
0000
0111
0000
0000
0000
0000
0000
0000
0000
0211
0000
0000
0000
0000
0000
0000
0000
0011
0000
0000
0000
0000
0000
0000
0000
0321
0000
0000
0000
0000
0000
0000
0000
0101
0000
0000
0000
0000
0000
0000
0000
,
0132
0110
0213
0011
0321
0101
0132
0110
,
0213
0011
0321
0101
0132
0110
0213
0011
,
0321
0101
0132
0110
0213
0011
0321
0101
,
0132
0110
0213
0011
0321
0101
0132
0110
,
0213
0011
0321
0101
0132
0110
0213
0011
,
3321
1101
1132
1110
1123
1101
1231
1011
,
2311
0111
3211
1011
1321
1101
1132
1110
,
1123
1101
1232
1010
2310
0110
3120
1100
,
1230
1010
2310
0110
3120
1100
1230
0010
,
2310
0110
3120
1100
1230
0010
2310
0110
,
3120
1100
1230
1010
2310
0110
3120
1100
,
1230
1010
2310
0110
3120
1100
1230
1010
,
2310
0110
3120
1100
1230
1010
2310
0110
,
3120
1100
1230
1010
2310
0110
3120
1100
,
1233
1011
2311
0111
3211
1011
1321
1101
,
1132
1110
1223
1001
2031
0011
3012
1010
,
1023
1001
2031
0011
3012
1010
1023
1001
,
2031
0011
3012
1010
1023
1001
2031
0011
,
3012
1010
1023
1001
2331
0111
3211
1011
,
1322
1100
2130
0110
3210
1010
1320
1100
,
2130
0110
3213
1011
1321
1101
1132
1110
,
2123
0101
0231
0011
0312
0110
0123
0101
,
3231
1011
1312
1110
1123
1101
1231
1011
,
2312
0110
3210
1010
1320
1100
1230
1010
,
2323
0101
0132
0110
0213
0011
0321
0101
,
0132
0110
0213
0011
0321
0101
0132
0110
,
0123
0101
0231
0011
0321
0101
0132
0110
,
0123
0101
0231
0011
0312
0110
0123
0101
0231
0011
0312
0110
0123
0101
0231
0011
,
3311
1111
1121
1101
1231
1011
1312
1110
2123
0101
3231
1011
2312
0110
3123
1101
,
1231
1011
2311
0111
3212
1010
1320
1100
1130
1110
2110
0110
3210
1010
1320
1100
,
1130
1110
2113
0111
3211
1011
1321
1101
1132
1110
2113
0111
3211
1011
1321
1101
,
1132
0000
1100
0000
1110
0000
1110
0000
1113
0000
1111
0000
1111
0000
1111
0000
1221
0000
0000
0000
0000
0000
0000
0000
0000
0000
0000
0000
0000
0000
0000
0000
0000
0000
0000
0000
0000
0000
0000
0000
0000
0000
0000
0000
0000
0000
0000
0300
0100
0200
0000
0000
0000
0000
0000
0000
0000
0000
0000
0000
0000
0000
0000
0000
,
0000
0000
0000
0000
0000
0000
0000
0000
0000
0000
0000
0000
0000
0000
0000
0000
0000
0000
0000
0000
0000
0000
0000
0000
0000
0000
0000
0000
0000
0000
0000
0000
0000
0000
0000
0000
0000
0000
0000
0000
0000
0000
0000
0000
0000
0000
0000
0030
0010
0020
0000
0000
0000
0000
0000
0000
0000
0000
0000
0000
0000
0000
0000
0000
,
0000
0000
0000
0000
0000
0000
0000
0000
0000
0300
0000
0000
0100
0000
0000
0200
0000
0000
0030
0000
0010
0020
0000
0000
0000
0000
0000
0000
0000
0000
0000
0000
0000
0000
0000
0000
0000
0000
0000
0000
0000
0000
0000
0000
0000
0000
0000
0000
0000
0000
0000
0000
0000
0000
0000
0000
0000
0000
0000
0000
0000
0000
0000
0000
0000
0000
0000
0000
0000
0000
0000
0000
0000
0000
0000
0000
0000
0000
0000
0000
0000
0000
0000
0000
0000
0000
0000
0000
0000
0000
0000
0000
0001
0000
0000
0000
0000
0000
0000
0000
0000
0000
0000
0000
0000
0000
0000
0000
0000
0000
0000
0030
0010
0000
0020
0000
0000
0000
0000
0000
0000
0000
0000
0000
0000
0000
0300
0000
0100
0200
0000
0000
0000
0000
0000
0000
0000
0000
0000
0000
0000
0000
0000
0000
1000
0000
0000
0000
0000
0000
0000
0000
0000
0000
0000
0000
0000
0000
0000
0300
0100
0000
0200
0000
0000
0000
0000
0000
0000
0000
0000
0000
0000
0000
0000
0000
0000
0030
0000
0000
0010
0000
0000
0020
0000
0000
0000
0000
0000
0000
0000
0000
,
0001
0000
0000
0000
0000
0000
0000
0000
0000
0000
0000
0330
0000
0000
0000
0000
,
2222
3333
0000
0000
0000
0000
0000
0000
0000
0000
0000
0000
0000
0000
0000
0000
0000
0000
0000
0000
0000
0000
0000
0000
0000
0000
0000
0000
0000
0000
0000
0000
0000
0000
0000
0000
0000
0000
0000
0000
0000
0000
0000
0000
0000
0000
0000
0000
0000
0000
0000
0000
0000
0000
0000
0000
0000
0000
0000
0000
0000
0000
0000
0000
;
