#TITLE:Hatsukoi Limited;
#SUBTITLE:Hatsukoi Limited ED theme;
#ARTIST:marble;
#TITLETRANSLIT:;
#SUBTITLETRANSLIT:;
#ARTISTTRANSLIT:;
#CREDIT:ALICE_;
#BANNER:Hatsukoi Limited.png;
#BACKGROUND:Hatsukoi Limited.jpg;
#LYRICSPATH:;
#CDTITLE:cdtitle.png;
#MUSIC:Hatsukoi Limited.mp3;
#OFFSET:-1.500;
#SAMPLESTART:56.740;
#SAMPLELENGTH:12.000;
#SELECTABLE:YES;
#BPMS:0.000=130.000;
#STOPS:;
#BGCHANGES:22.000=Hatsukoi Limited.avi=1.000=0=0=1,
216.000=Hatsukoi Limitedsp.jpg=1.000=1=0=1,
99999=-nosongbg-=1.000=0=0=0 // don't automatically add -songbackground-
;
// cache tags:
#FIRSTBEAT:0.000;
#LASTBEAT:224.000;
#SONGFILENAME:Songs/alice 4th complete step/Hatsukoi Limited/Hatsukoi Limited.sm;
#HASMUSIC:1;
#HASBANNER:1;
#MUSICLENGTH:111.368;
// end cache tags

//---------------dance-single - ----------------
#NOTES:
     dance-single:
     :
     Hard:
     7:
     0.462,0.427,0.233,0.072,0.000,326.000,26.000,8.000,0.000,0.000:
0001
0000
0001
0000
,
1000
0000
1000
0000
,
0010
0100
0001
1000
,
0100
0010
0001
1000
,
0001
1000
0010
0100
,
0001
1000
0001
0110
,
1001
1000
1000
0000
0100
1000
0100
0000
,
1001
0001
0001
0000
0100
0001
0100
0000
,
0010
0010
0010
0100
0010
1000
0001
0000
,
0010
0000
0100
1001
,
0100
1000
0010
1000
0100
1000
0010
0000
,
0001
0010
0100
1000
0001
0010
0100
1000
,
0001
0100
0001
0010
0001
0100
0010
0000
,
1000
0100
0010
0001
1000
0100
0010
0001
,
1000
1100
0001
0101
,
1000
0000
0110
0000
0001
1000
0100
0000
,
0001
0011
1000
1010
,
0001
0000
0110
0000
1000
0001
0010
0000
,
0100
1000
0100
1000
0100
0000
1000
0000
,
0001
0100
0010
1000
,
1001
0000
0001
0100
0001
0100
0001
1000
,
0000
0010
0100
0001
1000
1000
0100
0000
,
1000
0000
0101
0000
0001
0010
0100
0000
,
1000
0010
0100
0001
0010
1000
0010
0001
,
0100
0000
1010
0000
1000
0100
0010
0000
,
0001
0100
0010
1000
0100
0001
0100
0010
,
0001
1001
0001
0101
,
1000
1001
1000
1100
,
0010
0100
0001
1000
0100
0010
0010
0010
,
0020
0100
0100
0130
,
1001
1000
0100
1000
0010
0100
0001
1000
,
0010
0001
1000
0100
0001
0010
0100
1000
,
0000
0001
0100
0001
1000
0010
0100
0001
,
0010
1000
0010
0100
0010
0001
1000
0010
,
0100
0001
1000
0101
0000
0010
1000
0000
,
0100
1000
0001
1010
0000
0100
0001
0000
,
1000
0100
0010
0002
0000
0103
0010
0000
,
0001
0100
0010
2000
0000
3100
0010
0000
,
1000
0100
1000
0100
0001
0100
1000
0010
,
0001
0010
0100
0010
1000
0001
0100
0010
,
0000
1000
0001
0100
0001
0010
0001
1000
,
0100
0010
0001
0100
0001
0010
0100
1000
,
0010
0100
0001
2000
0000
3100
0010
0000
,
0001
1000
0010
0200
0000
0301
0010
0000
,
0100
1000
0001
0101
0000
0010
0001
0000
,
0100
0001
1000
1100
0000
0010
1000
0001
,
0100
0010
0100
0010
0100
0000
1001
0000
,
0010
0100
0010
0100
0010
0000
1001
0000
,
0102
1003
2100
3001
,
0010
0100
0001
1000
0100
0010
0001
0000
,
0100
1000
0010
1000
0100
1000
0010
0100
,
0001
0010
0100
1000
0001
0100
0010
1000
,
0001
0100
0001
0010
0001
1000
0100
0100
,
1000
0010
0100
0001
1000
0100
0010
0001
,
2000
0000
0000
0000
,
0000
0000
0000
0000
,
3000
0000
0000
0000
;

//---------------dance-single - ----------------
#NOTES:
     dance-single:
     :
     Challenge:
     11:
     0.802,0.779,1.000,0.171,0.224,435.000,170.000,19.000,0.000,4.000:
0020
0100
2030
3002
0000
0013
0100
0002
,
0000
0013
0100
0002
0000
0100
2003
0010
,
3101
1000
0010
1000
0001
0100
0010
1000
,
0011
0100
1001
0100
1010
0001
0100
1010
,
1001
1000
0101
1000
0011
1000
0101
1000
,
0011
1100
0011
1100
0011
1100
0110
0000
,
1001
1001
1001
0000
0000
0000
0100
0001
,
1010
1010
1010
0000
0000
0000
0010
1000
,
0101
0101
1001
0101
1010
0000
0100
0000
,
1011
0000
0000
0010
,
0101
0000
0001
0000
1001
0000
0001
0100
0001
0000
0101
0000
1001
0000
0100
0000
,
1010
0000
1000
0000
1010
0000
0010
1000
0101
0000
0001
0000
0101
0000
0001
0100
,
1010
0000
1000
0000
1001
0000
1000
0100
1000
0000
1010
0000
1001
0000
0100
0000
,
1010
0000
0010
0000
1010
0000
0010
0100
1001
0000
0110
0000
1010
0000
0101
0000
,
1000
1000
0101
0000
1000
0000
0110
0000
,
1000
0000
0011
0000
0100
0100
1001
0100
,
0001
0001
1010
0001
0001
0000
0110
1000
,
0001
0010
0101
0000
1000
1000
0011
0000
,
1010
0100
0010
0100
1010
0000
0101
0000
,
1100
0000
0011
1000
0100
0010
1000
0000
,
2002
0003
3101
0010
0101
0010
0101
1001
,
0000
0000
0000
0000
0100
0100
2020
3030
,
0101
0000
0010
0000
1001
0000
0001
0100
0001
0000
1010
0000
1001
0000
0100
0000
,
1020
1000
0130
1002
0000
0100
0010
0103
,
1010
0000
0100
0000
1001
0000
1000
0010
1000
0000
0101
0000
1001
0000
0010
0000
,
0201
0001
0310
2001
0001
0001
0100
3010
,
0101
0000
1000
0000
0110
0000
0001
1000
0100
0000
1000
0000
0011
0000
0100
0000
,
1010
0000
0001
0000
0110
0000
1000
0001
0100
0000
0010
0000
1001
0000
0100
0000
,
0011
1000
0101
1000
0011
1100
0110
1100
,
2002
0000
0000
3003
0100
1000
0010
0001
1000
0100
0010
0001
0100
1000
0001
0010
,
1100
0000
1000
0000
1001
0000
1000
0100
1000
0000
1010
0000
1001
0000
0110
0000
,
1001
0000
0001
0000
0101
0000
0001
0010
0001
0000
0101
0000
1001
0000
0010
0000
,
1100
0100
0101
1100
1100
0010
0101
0011
,
1100
0000
1000
0000
0101
0000
1100
0010
1000
0000
0001
0000
1001
0000
0100
0000
,
1010
0000
0010
0000
1010
0000
0010
1000
0100
0000
0100
0000
1001
0000
0010
0100
,
0001
0000
0001
0000
0101
0000
0001
0010
1000
0000
0101
0000
1001
0000
0010
0000
,
1100
1000
0101
2020
0000
0130
0001
3100
,
0010
0000
1000
0001
1000
0100
0010
0001
0100
0010
1000
0100
0001
1000
0001
1000
,
0011
0000
0010
0000
0110
0000
0010
0001
0010
0000
1100
0000
0011
0000
1000
0000
,
0101
0000
0001
0000
1100
0000
0001
0100
0001
0000
1010
0000
1001
0000
0100
0000
,
1010
0000
1000
0000
1001
0000
1000
0010
1000
0000
0110
0000
1001
0000
0101
0000
,
0101
0000
1000
0000
0011
0000
0100
0010
1000
0000
1000
0000
0101
0000
0010
0000
,
1001
0000
1000
0000
1100
0000
1000
0010
0100
0000
0100
0000
1001
0000
0000
0001
,
0010
0000
0010
0000
0110
0000
0010
0001
1000
0100
1000
0000
0011
0000
0100
0010
,
0001
0100
1000
0110
0000
1000
0001
1000
,
0010
0000
0100
0001
1000
0010
0100
0001
0100
1000
0010
0001
0100
0010
1000
0001
,
1100
1000
0101
1000
1100
0000
0110
0000
,
0011
0001
1010
0001
0011
0000
0110
0000
,
1100
1000
1001
0000
1010
0000
0101
0010
,
1001
0001
0011
0100
1010
0100
1001
0000
,
1010
0000
1000
0000
1001
0000
1000
0010
1000
0010
1000
0000
1001
0000
0010
0000
,
0101
0000
0001
0000
0101
0000
0100
0001
1010
0000
1000
0000
1010
0000
1000
0010
,
0101
0000
0001
0000
1001
0000
0001
0010
0001
0000
0101
0000
1001
0000
0010
0000
,
0101
0000
0100
0000
0101
0000
0100
0010
1001
0000
0010
0000
0100
0000
1000
0000
,
0002
0003
0000
0000
;

//---------------dance-single - ----------------
#NOTES:
     dance-single:
     :
     Medium:
     6:
     0.389,0.391,0.198,0.072,0.000,273.000,22.000,8.000,0.000,0.000:
0001
0000
0001
0000
,
1000
0000
1000
0000
,
0001
0100
0000
0100
,
0001
1000
0001
1000
,
0010
0100
0010
0100
,
0001
1000
0001
0110
,
1001
0000
0000
0000
0000
0000
0010
0100
,
0001
0000
0000
0000
0000
0000
0010
0100
,
1000
0010
1000
0010
0100
0001
1000
0000
,
1001
0000
1000
0001
,
0100
1010
0100
1000
,
0010
0100
0010
0100
0001
1000
0001
1000
,
0010
0101
0010
0001
,
0100
0010
0100
0010
1000
0001
1000
0001
,
0010
0100
1000
0000
0100
0000
0110
0000
,
0001
0101
1000
1010
,
0010
0100
0001
1000
0100
0000
0010
0001
,
0100
0000
0010
0000
1000
0001
0100
0000
,
0001
0010
0100
1000
0010
0000
0100
0000
,
0001
1100
1000
0101
,
0010
0000
1000
0100
0001
0000
0001
0100
,
2000
0000
0000
3010
,
0100
0101
1000
0010
,
1000
0100
0010
0002
0000
0000
0003
0000
,
0100
1100
0001
0010
,
0001
0100
0010
2000
0000
0000
3001
0000
,
0100
0000
0010
0000
1000
0100
1000
0000
,
0010
0000
0100
0000
0001
0010
0001
0000
,
1000
0001
1000
0001
1000
0010
0100
0000
,
0220
0000
0000
0330
,
1000
0100
1000
0010
1000
0100
1000
0000
,
0010
0100
0001
1000
0100
0000
0010
0001
,
0000
1000
0100
1000
0001
0100
0001
0000
,
0010
1100
0010
0101
,
1000
0001
0100
0020
0000
0000
1030
0000
,
0010
0100
0001
2000
0000
0000
3001
0000
,
0100
0001
1000
0100
0000
0100
0010
0000
,
0100
1000
0001
0100
0000
0100
0010
0000
,
1000
0001
1000
0001
1000
0100
1000
0000
,
0010
0001
0010
0001
0100
0000
0010
1000
,
0000
0001
0100
1000
0100
0001
1000
0000
,
0100
0010
0001
0100
,
1001
0000
0001
0010
0000
0000
0100
0000
,
1001
0000
1000
0010
0000
0000
0100
0000
,
0001
1000
0010
1000
0000
0100
0010
0001
,
1000
0100
1000
0001
0000
0100
0010
1000
,
0001
0010
0001
0010
0100
0000
1100
0000
,
1000
0010
1000
0010
0100
0000
0101
0000
,
1001
0010
0100
0001
,
1000
0100
0010
0001
1000
0100
0010
0000
,
0001
0101
1000
0010
,
0100
0001
0100
0001
1000
0100
1000
0100
,
0010
0011
1000
0010
,
0100
0001
0100
0001
1000
0100
1000
0100
,
0020
0000
0030
0000
;

//---------------dance-single - ----------------
#NOTES:
     dance-single:
     :
     Easy:
     1:
     0.130,0.171,0.108,0.099,0.000,78.000,12.000,11.000,0.000,0.000:
0000
0000
0000
0000
,
0000
0000
0000
0000
,
1000
0000
0000
0000
,
0001
0000
0000
0000
,
1000
0000
0000
0000
,
0100
0000
0000
0000
,
1001
0000
0000
0000
,
1100
0000
0000
0000
,
0101
0000
0000
0000
,
0010
0000
0000
0000
,
1000
0000
1000
0000
,
0001
0000
0001
0000
,
1000
0000
1000
0000
,
0001
0000
0001
0000
,
0010
0000
0100
0000
,
0010
0000
0001
0000
,
0100
0000
0010
0000
,
0100
0000
1000
0000
,
0001
0000
1000
0000
,
0001
0000
0010
0000
,
0200
0000
0000
0300
,
1001
0000
0000
0000
,
0011
0000
0000
0000
,
1001
0000
0000
0000
,
1010
0000
0000
0000
,
0110
0000
0000
0000
,
1000
0000
0001
0000
,
0100
0000
0010
0000
,
2000
0000
0000
0000
,
3000
0000
0000
0000
,
1000
0000
1000
0000
,
0100
0000
0100
0000
,
0001
0000
0010
0000
,
1000
0000
0100
0000
,
0020
0000
0000
0030
,
0200
0000
0000
0300
,
0002
0000
0000
0003
,
2000
0000
0000
3000
,
0001
0000
0001
0000
,
1000
0000
0010
0000
,
0100
0000
1000
0000
,
0001
0000
0010
0000
,
0200
0000
0000
0300
,
2000
0000
0000
3000
,
0002
0000
0000
0003
,
0020
0000
0000
0030
,
1000
1000
1000
0000
,
0001
0001
0001
0000
,
0100
0000
0010
0000
,
0100
0000
0001
0000
,
1100
0000
0000
0000
,
1010
0000
0000
0000
,
0101
0000
0000
0000
,
0011
0000
0000
0000
,
0200
0000
0300
0000
;
